osu file format v14

[General]
AudioFilename: audio.mp3
AudioLeadIn: 0
PreviewTime:30858
Countdown: 0
SampleSet: Soft
StackLeniency: 0.7
Mode: 0
LetterboxInBreaks: 0
WidescreenStoryboard: 1

[Editor]
DistanceSpacing: 1.3
BeatDivisor: 4
GridSize: 32
TimelineZoom: 2.4

[Metadata]
Title:Kuuchuu Bunkai
TitleUnicode:空中分解
Artist:Three
ArtistUnicode:すりぃ
Creator:Ryuusei Aika
Version:SkyFlame's Insane
Source:
Tags:Collage Japanese Rock J-Rock JRock Male Vocal Surii ボーカロイド ボカロ VOCALOID 鏡音レン Kagamine Len 真ひろ まめでん ま子 Akitoshi Ujimatcha -ClariS- Yorita Yoshino Yorita_Yoshino Dored Yugu Skyflame Cami wyrio Firika AncuL -Eriri- Laura -Laura- Corinn -Mikan Mikan Bazz Bazz_B X Light X_Light XLT Reform Kujinn Seto Kousuke Seto_Kousuke Djulus -MikanMyMommy gary00737 HabiHolic Haruto Haruto_Aizawa Armin A_r_M_i_N Agatsu Garden kanor Error- -Keitaro SnowNiNo_ Sylas TheKoala CoLouRed GlaZeE CoLouRed_GlaZeE caren_sk CRN
BeatmapID:2042351
BeatmapSetID:952132

[Difficulty]
HPDrainRate:6
CircleSize:3.8
OverallDifficulty:8
ApproachRate:9
SliderMultiplier:1.6
SliderTickRate:1

[Events]
//Background and Video events
Video,3,"video.mp4"
0,0,"BG.jpg",0,0
//Break Periods
//Storyboard Layer 0 (Background)
//Storyboard Layer 1 (Fail)
//Storyboard Layer 2 (Pass)
//Storyboard Layer 3 (Foreground)
//Storyboard Layer 4 (Overlay)
//Storyboard Sound Samples

[TimingPoints]
333,300,4,2,1,55,1,0
1233,-100,4,2,1,99,0,0
1533,-100,4,2,1,77,0,0
5733,-100,4,2,1,77,0,0
6333,-100,4,2,1,77,0,0
8733,-100,4,2,1,77,0,0
11133,-153.846153846154,4,2,1,77,0,0
11433,-153.846153846154,4,2,0,44,0,0
15483,-100,4,2,1,66,0,0
15933,-142.857142857143,4,2,1,55,0,0
20283,-111.111111111111,4,2,1,77,0,0
20733,-111.111111111111,4,2,1,66,0,0
30333,-200,4,2,88,55,0,0
30933,-100,4,2,88,77,0,0
31533,-83.3333333333333,4,2,1,99,0,0
39783,-83.3333333333333,4,2,1,99,0,0
41133,-83.3333333333333,4,2,1,99,0,0
41283,-83.3333333333333,4,2,1,99,0,0
47883,-100,4,2,1,99,0,0
48333,-100,4,2,99,99,0,0
48633,-133.333333333333,4,2,1,77,0,0
49383,-74.0740740740741,4,2,1,77,0,0
49983,-100,4,2,1,77,0,0
50133,-100,4,2,1,88,0,0
50733,-100,4,2,1,77,0,0
51183,-100,4,2,1,77,0,0
59133,-80,4,2,1,77,0,0

[Colours]
Combo1 : 255,120,55
Combo2 : 0,49,98
Combo3 : 128,64,64

[HitObjects]
245,75,333,5,8,2:0:0:0:
208,235,558,1,8,0:0:0:0:
83,126,783,1,8,0:0:0:0:
177,145,933,1,8,2:0:0:0:
245,75,1233,86,2,B|390:102,1,120,2|0,0:0|0:0,3:3:0:0:
383,96,1533,38,0,L|400:146,2,40,4|0|0,1:0|0:0|0:0,0:0:0:0:
401,230,1833,2,0,P|453:192|501:194,1,80,2|0,3:0|0:0,0:0:0:0:
501,200,2058,1,0,0:0:0:0:
501,200,2133,1,0,1:0:0:0:
461,338,2283,2,0,L|382:322,1,80,0|2,0:0|3:0,0:0:0:0:
308,238,2583,1,2,0:1:0:0:
233,346,2733,6,0,L|154:330,1,80,0|0,1:0|0:0,0:0:0:0:
62,238,3033,2,0,L|141:222,1,80,2|0,3:0|0:0,0:0:0:0:
233,130,3333,1,0,1:0:0:0:
154,114,3483,1,0,0:0:0:0:
219,238,3633,2,0,L|236:288,2,40,2|0|0,3:0|0:0|0:0,0:0:0:0:
158,356,3933,38,0,L|141:306,2,40,0|0|0,1:0|0:0|0:0,0:0:0:0:
140,222,4233,2,0,P|88:260|40:258,1,80,2|0,3:0|0:0,0:0:0:0:
40,252,4458,1,0,0:0:0:0:
40,252,4533,1,0,1:0:0:0:
80,114,4683,2,0,L|159:130,1,80,0|2,0:0|3:0,0:0:0:0:
233,214,4983,1,2,0:1:0:0:
308,106,5133,6,0,L|387:122,1,80,0|0,1:0|0:0,0:0:0:0:
479,214,5433,2,0,L|400:230,1,80,2|0,3:0|0:0,0:0:0:0:
308,322,5733,1,0,1:0:0:0:
386,337,5883,1,0,0:0:0:0:
322,214,6033,2,2,L|279:114,1,80,8|8,3:2|0:0,0:0:0:0:
196,226,6333,5,4,1:0:0:0:
196,226,6408,1,0,0:0:0:0:
196,226,6483,1,0,0:0:0:0:
102,140,6633,2,0,L|70:213,1,80,2|0,3:0|0:0,0:0:0:0:
60,240,6858,1,0,0:0:0:0:
60,240,6933,1,0,1:0:0:0:
161,333,7083,2,0,L|268:317,1,80,0|2,0:0|3:0,0:0:0:0:
374,305,7383,1,2,0:1:0:0:
304,211,7533,6,0,P|299:166|322:111,1,80,0|0,1:0|0:0,0:0:0:0:
237,78,7833,2,0,P|273:51|332:43,1,80,2|0,3:0|0:0,0:0:0:0:
385,85,8133,1,0,1:0:0:0:
472,20,8283,1,0,0:0:0:0:
476,133,8433,1,2,3:0:0:0:
469,147,8508,1,0,0:0:0:0:
463,162,8583,1,0,0:0:0:0:
447,256,8733,5,0,1:0:0:0:
454,270,8808,1,0,0:0:0:0:
460,285,8883,1,0,0:0:0:0:
380,344,9033,1,2,3:0:0:0:
314,265,9183,1,0,0:0:0:0:
314,265,9258,1,0,0:0:0:0:
314,265,9333,2,0,L|223:278,1,80,0|0,1:0|0:0,0:0:0:0:
162,360,9633,1,2,3:0:0:0:
94,271,9783,6,0,P|78:210|118:110,1,160,0|2,0:0|0:0,0:0:0:0:
174,191,10233,1,2,3:0:0:0:
203,98,10383,1,2,0:0:0:0:
266,159,10533,2,0,L|285:209,2,40,2|0|2,3:0|0:0|3:0,0:0:0:0:
285,62,10833,2,0,L|269:21,2,40,8|8|8,0:0|0:0|0:0,0:0:0:0:
359,127,11133,5,8,0:0:0:0:
499,36,11433,5,8,0:0:0:0:
493,51,12033,1,8,0:0:0:0:
487,66,12633,1,8,0:0:0:0:
482,81,13233,1,8,0:0:0:0:
476,96,13833,1,8,0:0:0:0:
470,112,14433,1,8,0:0:0:0:
465,127,15033,1,8,0:0:0:0:
465,127,15483,5,8,0:0:0:0:
400,261,15633,1,8,0:0:0:0:
331,62,15783,1,8,0:0:0:0:
266,196,15933,6,0,L|152:206,1,111.999996582031,12|2,0:0|0:0,0:0:0:0:
110,316,16383,1,2,0:0:0:0:
110,316,16533,2,0,L|165:311,2,55.9999982910157,0|2|2,1:0|0:0|0:0,0:0:0:0:
35,222,16983,1,0,0:0:0:0:
35,222,17133,6,0,L|40:162,1,55.9999982910157,0|2,1:0|0:0,0:0:0:0:
47,75,17433,1,2,0:0:0:0:
124,133,17583,2,0,L|247:113,1,111.999996582031,2|2,0:0|0:0,0:0:0:0:
311,57,18033,1,2,0:0:0:0:
323,153,18183,1,0,0:0:0:0:
400,95,18333,6,0,P|426:105|448:122,1,55.9999982910157,0|0,1:0|0:0,0:0:0:0:
512,196,18633,2,0,P|485:206|463:223,1,55.9999982910157,2|2,0:0|0:0,0:0:0:0:
400,296,18933,1,0,1:0:0:0:
371,203,19083,1,2,0:0:0:0:
308,264,19233,1,2,0:0:0:0:
289,167,19383,1,0,0:0:0:0:
215,232,19533,6,0,L|149:239,1,55.9999982910157,0|0,1:0|0:0,0:0:0:0:
143,146,19833,1,2,0:0:0:0:
143,146,19983,2,0,L|198:140,1,55.9999982910157,2|0,0:0|1:0,0:0:0:0:
181,47,20283,5,8,0:0:0:0:
215,232,20433,1,8,0:0:0:0:
366,13,20583,1,8,0:0:0:0:
400,198,20733,6,0,L|423:350,1,143.999995605469,0|0,1:0|0:0,0:0:0:0:
269,302,21183,1,0,0:0:0:0:
269,302,21333,2,0,P|305:285|347:291,2,71.9999978027344,0|0|8,1:0|1:0|0:0,0:0:0:0:
192,358,21783,1,0,0:0:0:0:
121,257,21933,6,0,L|39:263,2,71.9999978027344,0|0|8,1:0|0:0|0:0,0:0:0:0:
215,184,22383,2,0,P|225:125|180:48,1,143.999995605469,0|0,0:0|1:0,0:0:0:0:
65,152,22833,2,0,L|145:130,1,71.9999978027344,8|0,0:0|0:0,0:0:0:0:
284,203,23133,6,0,L|204:181,1,71.9999978027344,0|0,1:0|0:0,0:0:0:0:
65,254,23433,2,0,L|145:232,1,71.9999978027344,8|0,0:0|0:0,0:0:0:0:
255,296,23733,1,0,1:0:0:0:
284,203,23883,1,0,1:0:0:0:
347,264,24033,1,8,0:0:0:0:
366,167,24183,1,0,0:0:0:0:
440,232,24333,6,0,L|514:239,1,71.9999978027344,0|0,1:0|1:0,0:0:0:0:
459,135,24633,1,8,0:0:0:0:
347,264,24783,2,0,L|379:355,1,71.9999978027344,8|0,0:0|0:0,0:0:0:0:
284,203,25083,1,0,1:0:0:0:
219,337,25233,1,8,1:2:0:0:
150,138,25383,1,0,1:0:0:0:
85,272,25533,6,0,P|44:273|4:165,1,143.999995605469,4|8,1:0|0:0,0:0:0:0:
28,116,25983,1,0,0:0:0:0:
28,116,26133,2,0,P|16:72|-16:28,2,71.9999978027344,0|0|8,1:0|0:0|0:0,0:0:0:0:
89,28,26583,1,0,0:0:0:0:
167,77,26733,5,0,1:0:0:0:
234,6,26883,1,0,0:0:0:0:
263,99,27033,1,8,0:0:0:0:
326,38,27183,2,0,L|397:31,1,71.9999978027344,8|0,0:0|1:0,0:0:0:0:
345,135,27483,1,0,1:0:0:0:
433,97,27633,2,0,L|439:168,1,71.9999978027344,8|0,0:0|0:0,0:0:0:0:
421,282,27933,6,0,P|384:263|355:252,1,71.9999978027344,0|0,1:0|0:0,0:0:0:0:
227,257,28233,2,0,P|193:270|161:286,1,71.9999978027344,8|0,0:0|0:0,0:0:0:0:
95,355,28533,1,0,1:0:0:0:
0,329,28683,1,0,0:0:0:0:
69,259,28833,2,0,L|59:182,1,71.9999978027344,8|0,0:0|0:0,0:0:0:0:
137,114,29133,5,0,1:0:0:0:
163,209,29283,1,0,1:0:0:0:
233,140,29433,1,8,0:0:0:0:
259,235,29583,2,0,L|336:245,1,71.9999978027344,8|0,0:0|0:0,0:0:0:0:
400,175,29883,1,0,1:0:0:0:
436,305,30033,1,8,0:0:0:0:
461,106,30183,1,8,0:0:0:0:
330,244,30333,6,0,L|315:242,14,10,2|0|0|0|0|0|0|0|0|0|0|0|0|0|0,1:0|0:0|0:0|0:0|0:0|0:0|0:0|0:0|0:0|0:0|0:0|0:0|0:0|0:0|0:0,0:0:0:0:
243,234,30933,6,0,L|230:357,2,120,8|8|8,1:0|1:0|1:0,0:0:0:0:
255,140,31533,6,0,P|190:113|154:124,1,95.9999970703126,4|0,1:0|0:0,0:0:0:0:
75,256,31833,2,0,P|130:213|139:176,1,95.9999970703126,2|0,3:0|0:0,0:0:0:0:
64,42,32133,2,0,P|73:111|100:137,1,95.9999970703126,0|0,1:0|0:0,0:0:0:0:
197,44,32433,1,2,3:0:0:0:
255,140,32583,1,0,0:0:0:0:
313,44,32733,1,0,1:0:0:0:
313,44,32883,2,0,L|414:31,1,95.9999970703126,0|2,0:0|3:0,0:0:0:0:
477,106,33183,2,0,B|502:182|502:182|468:291,1,191.999994140625,0|0,1:0|1:0,0:0:0:0:
393,206,33633,2,0,P|303:191|258:191,1,95.9999970703126,2|0,3:0|0:0,0:0:0:0:
206,329,33933,6,0,P|296:344|341:344,1,95.9999970703126,0|0,1:0|0:0,0:0:0:0:
92,280,34233,1,2,3:0:0:0:
210,247,34383,1,0,0:0:0:0:
124,160,34533,1,0,1:0:0:0:
242,128,34683,1,0,0:0:0:0:
156,40,34833,1,2,3:0:0:0:
274,8,34983,6,0,P|366:20|466:41,1,191.999994140625
355,98,35433,1,2,3:0:0:0:
458,164,35583,1,0,1:0:0:0:
351,221,35733,5,0,1:0:0:0:
454,288,35883,1,8,1:2:0:0:
347,345,36033,2,0,L|245:331,1,95.9999970703126,8|0,1:2|1:0,0:0:0:0:
60,233,36333,6,0,P|125:260|161:249,1,95.9999970703126,4|0,1:0|0:0,0:0:0:0:
240,117,36633,2,0,P|185:160|176:197,1,95.9999970703126,2|0,3:0|0:0,0:0:0:0:
251,331,36933,2,0,P|242:262|215:236,1,95.9999970703126,0|0,1:0|0:0,0:0:0:0:
118,329,37233,1,2,3:0:0:0:
60,233,37383,1,0,0:0:0:0:
177,182,37533,1,0,1:0:0:0:
69,107,37683,2,0,L|82:6,1,95.9999970703126,0|2,0:0|3:0,0:0:0:0:
201,68,37983,2,0,B|275:98|275:98|384:72,1,191.999994140625,0|0,1:0|1:0,0:0:0:0:
472,13,38433,2,0,L|493:123,1,95.9999970703126,8|8,1:2|1:2,0:0:0:0:
405,247,38733,5,6,1:0:0:0:
413,157,38883,1,0,0:0:0:0:
315,296,39033,1,0,1:0:0:0:
323,206,39183,1,2,1:0:0:0:
225,345,39483,5,2,1:0:0:0:
153,190,39783,6,2,P|210:166|294:134,1,143.999995605469,6|0,1:0|0:0,0:0:0:0:
310,112,40083,1,2,1:0:0:0:
203,50,40233,1,0,3:0:0:0:
153,190,40383,2,0,L|167:249,2,47.9999985351563,0|0|0,1:0|1:0|1:0,0:0:0:0:
49,99,40683,2,0,L|35:40,2,47.9999985351563,2|2|2,3:0|3:0|3:0,0:0:0:0:
9,250,40983,2,0,P|34:241|58:234,1,47.9999985351563,8|8,0:0|0:0,0:0:0:0:
86,246,41133,6,0,P|78:297|83:369,1,95.9999970703126,4|0,1:0|0:0,0:0:0:0:
245,287,41433,2,0,P|253:236|248:164,1,95.9999970703126,2|0,3:0|0:0,0:0:0:0:
137,107,41733,1,0,1:0:0:0:
164,236,41883,1,0,0:0:0:0:
274,97,42033,1,2,3:0:0:0:
145,124,42183,1,0,0:0:0:0:
329,221,42333,6,0,L|439:205,1,95.9999970703126,0|0,1:0|0:0,0:0:0:0:
491,134,42633,1,2,3:0:0:0:
512,323,42783,2,0,P|465:314|402:307,1,95.9999970703126,0|0,1:0|0:0,0:0:0:0:
286,359,43083,1,0,1:0:0:0:
329,221,43233,1,2,3:0:0:0:
414,328,43383,1,0,1:0:0:0:
230,269,43533,6,0,P|210:211|214:92,1,143.999995605469,4|0,1:2|0:0,0:0:0:0:
225,99,43833,2,0,L|130:78,1,95.9999970703126,2|0,3:0|0:0,0:0:0:0:
16,186,44133,2,0,L|111:165,1,95.9999970703126,0|0,1:0|1:0,0:0:0:0:
92,264,44433,1,2,3:0:0:0:
171,337,44583,6,0,B|234:350|234:350|373:293,1,191.999994140625,2|0,0:0|1:0,0:0:0:0:
449,362,45033,1,2,3:0:0:0:
449,362,45183,2,0,L|457:250,1,95.9999970703126,0|0,1:0|1:0,0:0:0:0:
370,195,45483,1,8,1:2:0:0:
469,146,45633,1,8,1:2:0:0:
383,74,45783,1,0,1:0:0:0:
285,123,45933,6,0,P|220:115|181:97,1,95.9999970703126,4|0,1:0|0:0,0:0:0:0:
227,271,46233,2,0,P|266:218|301:193,1,95.9999970703126,2|0,3:0|0:0,0:0:0:0:
127,146,46533,2,0,P|152:206|156:249,2,95.9999970703126,0|0|2,1:0|1:0|3:0,0:0:0:0:
33,67,46983,1,0,0:0:0:0:
150,23,47133,2,0,L|140:125,1,95.9999970703126,0|0,1:0|1:0,0:0:0:0:
46,198,47433,1,2,3:0:0:0:
46,198,47583,2,0,L|56:300,1,95.9999970703126,0|0,1:0|1:0,0:0:0:0:
150,368,47883,5,0,1:0:0:0:
242,283,48033,2,0,L|149:266,1,80,8|8,0:0|0:0,0:0:0:0:
285,123,48333,5,12,1:0:0:0:
233,355,49983,5,2,3:0:0:0:
233,355,50058,1,2,3:0:0:0:
233,355,50133,2,0,L|279:346,3,40,8|8|8|8,0:0|0:0|0:0|0:0,0:0:0:0:
303,330,50433,6,0,P|214:314|150:293,1,120,8|0,0:0|0:0,0:0:0:0:
155,278,50733,38,0,L|138:228,2,40,4|0|0,1:0|0:0|0:0,0:0:0:0:
137,144,51033,2,0,P|85:182|37:180,1,80,2|0,3:0|0:0,0:0:0:0:
37,174,51258,1,0,0:0:0:0:
37,174,51333,1,0,1:0:0:0:
77,36,51483,2,0,L|156:52,1,80,0|2,0:0|3:0,0:0:0:0:
230,136,51783,1,2,0:1:0:0:
305,28,51933,6,0,L|384:44,1,80,0|0,1:0|0:0,0:0:0:0:
476,136,52233,2,0,L|397:152,1,80,2|0,3:0|0:0,0:0:0:0:
305,244,52533,1,0,1:0:0:0:
384,260,52683,1,2,0:0:0:0:
319,136,52833,2,0,L|302:86,2,40,2|0|2,3:0|0:0|0:0,0:0:0:0:
219,228,53133,5,4,1:0:0:0:
219,228,53208,1,0,0:0:0:0:
219,228,53283,1,0,0:0:0:0:
83,154,53433,2,0,P|124:134|171:138,1,80,2|2,3:0|0:0,0:0:0:0:
182,144,53658,1,0,0:0:0:0:
182,144,53733,1,0,1:0:0:0:
112,246,53883,2,0,L|124:284,2,40,0|0|2,0:0|0:0|3:0,0:0:0:0:
58,71,54183,5,2,0:1:0:0:
146,24,54333,2,0,L|256:48,1,80,0|0,1:0|0:0,0:0:0:0:
289,120,54633,2,0,L|399:96,1,80,2|0,3:0|0:0,0:0:0:0:
446,35,54933,1,0,1:0:0:0:
488,150,55083,1,0,0:0:0:0:
367,102,55233,1,8,0:0:0:0:
325,217,55383,1,8,0:0:0:0:
446,265,55533,6,0,L|534:249,1,80,0|0,1:0|0:0,0:0:0:0:
343,360,55833,1,2,3:0:0:0:
325,217,55983,2,0,L|298:210,4,20,2|0|2|0|0,0:0|0:0|0:0|0:0|1:0,0:0:0:0:
199,183,56283,1,0,0:0:0:0:
147,290,56433,1,2,3:0:0:0:
147,290,56583,6,0,P|190:278|230:271,1,80,2|0,0:1|1:0,0:0:0:0:
112,200,56883,2,0,P|101:197|91:195,4,20,2|0|2|0|2,0:0|0:0|0:0|0:0|3:0,0:0:0:0:
185,104,57183,2,0,P|195:101|205:99,4,20,2|0|2|0|0,0:0|0:0|0:0|0:0|1:0,0:0:0:0:
73,45,57483,1,2,0:0:0:0:
199,183,57633,6,0,L|191:233,3,40,0|0|0|0,1:0|1:0|1:0|1:0,0:0:0:0:
207,258,57933,6,0,P|284:240|374:231,1,160,4|2,1:0|3:0,0:0:0:0:
469,278,58383,1,0,0:0:0:0:
502,149,58533,2,0,L|508:127,2,20,2|0|0,1:2|0:0|0:0,0:0:0:0:
497,166,58683,1,0,0:0:0:0:
398,127,58833,2,0,L|298:107,1,80,2|0,3:0|0:0,0:0:0:0:
174,152,59133,6,0,P|160:92|275:50,1,200,2|0,3:2|0:0,0:0:0:0:
321,142,59583,1,2,3:0:0:0:
324,156,59658,1,2,3:0:0:0:
327,171,59733,1,2,3:0:0:0:
330,186,59808,1,2,3:0:0:0:
333,200,59883,1,2,3:0:0:0:
336,215,59958,1,2,3:0:0:0:
339,230,60033,2,0,L|350:282,3,50,8|8|8|8,0:0|0:0|0:0|0:0,0:0:0:0:
