osu file format v14

[General]
AudioFilename: audio.mp3
AudioLeadIn: 0
PreviewTime:30858
Countdown: 0
SampleSet: Soft
StackLeniency: 0.7
Mode: 0
LetterboxInBreaks: 0
WidescreenStoryboard: 1

[Editor]
Bookmarks: 11133,15933,20733,30333,31533,41133,57633,59133
DistanceSpacing: 0.4
BeatDivisor: 4
GridSize: 4
TimelineZoom: 3.599998

[Metadata]
Title:Kuuchuu Bunkai
TitleUnicode:空中分解
Artist:Three
ArtistUnicode:すりぃ
Creator:Ryuusei Aika
Version:Seto's Extra
Source:
Tags:Collage Japanese Rock J-Rock JRock Male Vocal Surii ボーカロイド ボカロ VOCALOID 鏡音レン Kagamine Len 真ひろ まめでん ま子 Akitoshi Ujimatcha -ClariS- Yorita Yoshino Yorita_Yoshino Dored Yugu Skyflame Cami wyrio Firika AncuL -Eriri- Laura -Laura- Corinn -Mikan Mikan Bazz Bazz_B X Light X_Light XLT Reform Kujinn Seto Kousuke Seto_Kousuke Djulus -MikanMyMommy gary00737 HabiHolic Haruto Haruto_Aizawa Armin A_r_M_i_N Agatsu Garden kanor Error- -Keitaro SnowNiNo_ Sylas TheKoala CoLouRed GlaZeE CoLouRed_GlaZeE caren_sk CRN
BeatmapID:1990996
BeatmapSetID:952132

[Difficulty]
HPDrainRate:6
CircleSize:4
OverallDifficulty:8.2
ApproachRate:9.2
SliderMultiplier:1.8
SliderTickRate:1

[Events]
//Background and Video events
Video,3,"video.mp4"
0,0,"BG.jpg",0,0
//Break Periods
//Storyboard Layer 0 (Background)
//Storyboard Layer 1 (Fail)
//Storyboard Layer 2 (Pass)
//Storyboard Layer 3 (Foreground)
//Storyboard Layer 4 (Overlay)
//Storyboard Sound Samples

[TimingPoints]
333,300,4,2,1,55,1,0
1233,-181.818181818181,4,2,1,99,0,0
1458,-100,4,2,1,5,0,0
1533,-80,4,2,1,77,0,0
5733,-80,4,2,1,77,0,0
6333,-80,4,2,1,77,0,0
11433,-100,4,2,0,44,0,0
15333,-133.333333333333,4,2,1,55,0,0
15483,-133.333333333333,4,2,1,66,0,0
15933,-133.333333333333,4,2,1,55,0,0
20283,-133.333333333333,4,2,1,77,0,0
20733,-100,4,2,1,66,0,0
30333,-133.333333333333,4,2,88,55,0,0
30858,-181.818181818181,4,2,88,55,0,0
30933,-181.818181818182,4,2,88,77,0,0
31158,-133.333333333333,4,2,88,55,0,0
31383,-105.263157894737,4,2,88,55,0,0
31533,-80,4,2,1,99,0,1
31683,-80,4,2,1,99,0,1
38733,-80,4,2,1,99,0,1
38883,-80,4,2,1,99,0,1
41133,-80,4,2,1,99,0,1
41283,-80,4,2,1,99,0,1
47883,-80,4,2,1,99,0,1
48333,-166.666666666667,4,2,99,99,0,0
48633,-166.666666666667,4,2,1,77,0,0
49983,-166.666666666667,4,2,1,77,0,0
50133,-100,4,2,1,88,0,0
50733,-80,4,2,1,77,0,0
59133,-285.714285714286,4,2,1,69,0,0
59583,-68.9655172413793,4,2,1,69,0,0
60033,-54.054054054054,4,2,1,69,0,0

[Colours]
Combo1 : 255,120,55
Combo2 : 0,49,98
Combo3 : 128,64,64

[HitObjects]
168,296,333,6,0,P|105:308|38:231,2,135,8|8|8,2:0|2:0|2:0,0:0:0:0:
276,65,933,1,8,0:0:0:0:
413,372,1233,6,2,L|420:281,1,74.2500022659302,2|0,0:0|0:0,3:3:0:0:
492,256,1533,6,0,P|440:250|364:205,1,112.5,4|0,1:0|0:0,0:0:0:0:
267,316,1758,1,2,0:0:0:0:
240,307,1833,2,0,P|204:268|219:174,1,112.5,2|0,3:0|0:0,0:0:0:0:
66,113,2058,1,2,0:0:0:0:
75,86,2133,2,0,P|114:50|208:65,1,112.5,0|0,1:0|0:0,0:0:0:0:
465,160,2433,1,2,3:0:0:0:
293,86,2583,2,0,L|309:18,1,56.25,2|0,0:1|0:0,0:0:0:0:
306,32,2733,5,0,1:0:0:0:
404,61,2883,1,0,0:0:0:0:
280,182,3033,1,2,3:0:0:0:
465,160,3183,1,0,0:0:0:0:
363,262,3333,1,0,1:0:0:0:
200,45,3483,1,2,0:0:0:0:
200,45,3558,1,2,0:0:0:0:
200,45,3633,1,2,3:0:0:0:
158,40,3708,1,2,0:0:0:0:
122,60,3783,1,2,0:0:0:0:
103,97,3858,1,2,0:0:0:0:
109,138,3933,6,0,L|129:261,1,112.5,0|0,1:0|0:0,0:0:0:0:
253,353,4158,1,2,0:0:0:0:
274,334,4233,2,0,L|289:216,1,112.5,2|0,3:0|0:0,0:0:0:0:
437,163,4458,1,2,0:0:0:0:
455,183,4533,2,0,L|479:324,1,112.5,0|0,1:0|0:0,0:0:0:0:
311,96,4833,1,2,3:0:0:0:
183,252,4983,2,0,L|86:246,1,56.25,2|0,0:1|0:0,0:0:0:0:
126,248,5133,5,0,1:0:0:0:
197,135,5283,1,0,0:0:0:0:
64,137,5433,1,2,3:0:0:0:
178,15,5583,1,0,0:0:0:0:
296,190,5733,2,2,L|300:249,1,56.25,0|0,1:0|0:0,0:0:0:0:
299,246,5883,1,0,0:0:0:0:
481,93,6033,2,2,L|485:34,1,56.25,8|0,3:2|0:0,0:0:0:0:
484,36,6183,1,8,0:0:0:0:
499,310,6333,6,0,P|440:298|378:310,1,112.5,4|0,1:0|0:0,0:0:0:0:
193,289,6558,1,2,0:0:0:0:
202,315,6633,2,0,P|260:326|323:315,1,112.5,2|0,3:0|0:0,0:0:0:0:
512,227,6858,1,2,0:0:0:0:
503,201,6933,2,0,P|444:189|382:201,1,112.5,0|0,1:0|0:0,0:0:0:0:
147,192,7233,1,2,3:0:0:0:
355,44,7383,2,0,L|429:59,1,56.25,2|0,0:1|0:0,0:0:0:0:
410,55,7533,5,0,1:0:0:0:
260,39,7683,1,0,0:0:0:0:
313,171,7833,1,2,3:0:0:0:
152,51,7983,1,0,0:0:0:0:
204,275,8133,1,0,1:0:0:0:
39,146,8283,1,2,0:0:0:0:
39,146,8358,1,2,0:0:0:0:
39,146,8433,1,2,3:0:0:0:
75,166,8508,1,2,0:0:0:0:
92,204,8583,1,2,0:0:0:0:
83,244,8658,1,2,0:0:0:0:
53,266,8733,6,0,P|46:203|92:155,1,112.5,0|0,1:0|0:0,0:0:0:0:
221,90,8958,1,2,0:0:0:0:
249,88,9033,2,0,P|297:115|315:184,1,112.5,2|0,3:0|0:0,0:0:0:0:
245,332,9258,1,2,0:0:0:0:
219,319,9333,2,0,P|190:271|209:202,1,112.5,0|0,1:0|0:0,0:0:0:0:
493,207,9633,1,2,3:0:0:0:
412,3,9783,2,0,L|415:66,1,56.25
414,60,9933,5,2,3:0:0:0:
246,35,10083,1,2,0:0:0:0:
246,35,10158,1,2,0:0:0:0:
246,35,10233,1,2,3:0:0:0:
381,224,10383,1,2,0:0:0:0:
381,224,10458,1,2,0:0:0:0:
381,224,10533,1,2,3:0:0:0:
110,171,10683,5,2,3:0:0:0:
75,213,10758,1,0,0:0:0:0:
83,267,10833,1,8,0:0:0:0:
128,297,10908,1,8,0:0:0:0:
181,285,10983,1,8,0:0:0:0:
202,244,11058,1,8,0:0:0:0:
177,210,11133,5,8,0:0:0:0:
435,49,11433,1,8,0:0:0:0:
434,76,12033,1,8,0:0:0:0:
433,103,12633,1,8,0:0:0:0:
432,130,13233,1,8,0:0:0:0:
431,157,13833,1,8,0:0:0:0:
430,184,14433,1,8,0:0:0:0:
429,211,15033,1,8,0:0:0:0:
369,276,15333,5,2,0:0:0:0:
256,179,15483,2,0,L|254:134,1,33.7500012874604,8|0,0:0|0:0,0:0:0:0:
185,276,15633,2,0,L|226:316,1,33.7500012874604,8|0,0:0|0:0,0:0:0:0:
142,181,15783,2,0,L|90:182,1,33.7500012874604,8|0,0:0|0:0,0:0:0:0:
14,361,15933,6,0,L|175:353,1,135.000005149842,12|2,0:0|0:0,0:0:0:0:
319,271,16383,1,2,0:0:0:0:
234,189,16533,1,0,1:0:0:0:
234,189,16683,2,0,L|244:355,1,135.000005149842,2|0,0:0|0:0,0:0:0:0:
405,246,17133,5,0,1:0:0:0:
405,246,17283,2,0,L|337:248,1,67.5000025749208,2|2,0:0|0:0,0:0:0:0:
136,254,17582,1,2,0:0:0:0:
136,254,17883,1,2,0:0:0:0:
166,92,18033,2,0,L|255:92,1,67.5000025749208,2|0,0:0|0:0,0:0:0:0:
456,70,18333,6,0,P|462:33|437:-14,1,67.5000025749208,0|0,1:0|0:0,0:0:0:0:
427,161,18633,2,0,P|464:167|511:142,1,67.5000025749208,2|2,0:0|0:0,0:0:0:0:
332,136,18933,2,0,P|326:173|351:220,1,67.5000025749208,0|2,1:0|0:0,0:0:0:0:
367,42,19233,2,0,P|330:36|283:61,1,67.5000025749208,2|0,0:0|0:0,0:0:0:0:
195,207,19533,5,0,1:0:0:0:
124,147,19683,1,0,0:0:0:0:
112,245,19833,1,2,0:0:0:0:
210,214,19983,1,2,0:0:0:0:
116,132,20133,1,0,1:0:0:0:
96,267,20283,5,8,0:0:0:0:
209,121,20433,1,8,0:0:0:0:
292,285,20583,1,8,0:0:0:0:
414,158,20733,6,0,L|409:45,1,90,0|0,1:0|0:0,0:0:0:0:
493,245,21033,1,8,0:0:0:0:
386,307,21183,1,0,0:0:0:0:
301,188,21333,1,0,1:0:0:0:
201,272,21483,1,0,1:0:0:0:
201,272,21633,2,0,L|207:379,1,90,8|0,0:0|0:0,0:0:0:0:
102,208,21933,5,0,1:0:0:0:
169,130,22083,1,0,0:0:0:0:
85,50,22233,1,8,0:0:0:0:
85,50,22383,2,0,P|169:63|266:38,1,180,0|0,0:0|1:0,0:0:0:0:
456,80,22833,2,0,P|409:80|372:119,1,90,8|0,0:0|0:0,0:0:0:0:
246,285,23133,5,0,1:0:0:0:
246,285,23283,1,0,0:0:0:0:
380,263,23433,1,8,0:0:0:0:
380,263,23583,1,0,0:0:0:0:
233,173,23733,2,0,L|132:173,1,90,0|0,1:0|1:0,0:0:0:0:
144,310,24033,2,0,L|245:310,1,90,8|0,0:0|0:0,0:0:0:0:
51,239,24333,5,0,1:0:0:0:
131,147,24483,1,0,1:0:0:0:
54,48,24633,1,8,0:0:0:0:
54,48,24783,2,0,P|100:8|214:61,1,180,8|0,0:0|1:0,0:0:0:0:
357,51,25233,1,8,1:2:0:0:
281,141,25383,1,0,1:0:0:0:
404,236,25533,6,0,L|509:215,1,90,4|0,1:0|0:0,0:0:0:0:
312,316,25833,1,8,0:0:0:0:
312,316,25983,1,0,0:0:0:0:
210,234,26133,1,0,1:0:0:0:
210,234,26283,1,0,0:0:0:0:
119,348,26433,1,8,0:0:0:0:
119,348,26583,1,0,0:0:0:0:
38,205,26733,6,0,L|48:99,1,90,0|0,1:0|0:0,0:0:0:0:
187,11,27033,2,0,L|195:100,1,90,8|8,0:0|0:0,0:0:0:0:
337,217,27333,2,0,L|347:111,1,90,0|0,1:0|1:0,0:0:0:0:
479,20,27633,2,0,L|487:109,1,90,8|0,0:0|0:0,0:0:0:0:
463,330,27933,5,0,1:0:0:0:
467,230,28083,1,0,0:0:0:0:
344,361,28233,1,8,0:0:0:0:
369,264,28383,1,0,0:0:0:0:
179,323,28533,1,0,1:0:0:0:
271,287,28683,1,0,0:0:0:0:
98,225,28833,2,0,L|-6:233,1,90,8|0,0:0|0:0,0:0:0:0:
165,16,29133,5,0,1:0:0:0:
107,117,29283,1,0,1:0:0:0:
260,181,29433,1,8,0:0:0:0:
260,181,29583,2,0,P|337:181|394:77,1,180,8|0,0:0|1:0,0:0:0:0:
461,310,30033,2,0,P|400:319|378:346,1,90,8|8,0:0|0:0,0:0:0:0:
106,326,30333,6,0,L|53:332,6,33.7500012874604,2|0|0|0|0|0|0,1:0|0:0|0:0|0:0|0:0|0:0|0:0,0:0:0:0:
223,185,30933,6,0,P|202:233|200:247,1,49.5000015106202,8|0,1:0|0:0,0:0:0:0:
107,233,31158,6,0,P|101:199|85:170,1,67.5000025749208,8|0,1:0|0:0,0:0:0:0:
300,255,31383,6,0,P|279:303|278:334,1,42.7499988584519,8|0,1:0|0:0,0:0:0:0:
151,112,31533,6,0,P|220:107|267:50,1,112.5,4|0,1:0|0:0,0:0:0:0:
509,237,31833,2,0,P|449:201|378:221,1,112.5,2|0,3:0|0:0,0:0:0:0:
138,127,32058,1,0,0:0:0:0:
162,140,32133,2,0,P|231:135|293:31,1,168.75,0|0,1:0|0:0,0:0:0:0:
351,23,32433,2,0,P|322:92|337:128,1,112.5,2|0,3:0|0:0,0:0:0:0:
439,292,32733,5,0,1:0:0:0:
420,84,32883,1,0,0:0:0:0:
256,235,33033,1,2,3:0:0:0:
256,235,33183,2,0,B|276:266|338:227|304:181|218:161|240:242|174:268|115:223,1,225,0|0,1:0|1:0,0:0:0:0:
107,27,33633,1,2,3:0:0:0:
143,145,33783,1,0,0:0:0:0:
307,74,33933,6,0,L|440:85,1,112.5,0|0,1:0|0:0,0:0:0:0:
147,149,34233,1,2,3:0:0:0:
147,149,34383,1,0,0:0:0:0:
284,287,34533,2,0,L|417:298,1,112.5,0|0,1:0|0:0,0:0:0:0:
243,175,34833,1,2,3:0:0:0:
137,303,34983,1,0,0:0:0:0:
28,171,35133,5,0,1:0:0:0:
28,171,35283,1,0,0:0:0:0:
147,78,35433,1,2,3:0:0:0:
147,78,35583,2,0,L|136:302,1,225,0|8,1:0|1:2,0:0:0:0:
285,368,36033,1,8,1:2:0:0:
244,234,36183,1,0,1:0:0:0:
437,349,36333,6,0,P|456:297|427:223,1,112.5,4|0,1:0|0:0,0:0:0:0:
315,87,36633,2,0,P|296:139|325:213,1,112.5,2|0,3:0|0:0,0:0:0:0:
430,371,36858,1,0,0:0:0:0:
454,356,36933,2,0,P|475:297|424:188,1,168.75,0|0,1:0|0:0,0:0:0:0:
496,152,37233,2,0,L|368:147,1,112.5,2|0,3:0|0:0,0:0:0:0:
165,61,37533,5,0,1:0:0:0:
327,28,37683,1,0,0:0:0:0:
311,299,37833,1,2,3:0:0:0:
311,299,37983,2,0,B|243:306|187:255|187:255|142:260|118:314,1,225,0|0,1:0|1:0,0:0:0:0:
56,117,38433,1,8,1:2:0:0:
253,110,38583,1,8,1:2:0:0:
120,308,38733,6,0,P|149:256|139:183,1,112.5,6|0,1:0|0:0,0:0:0:0:
22,32,39033,1,0,1:0:0:0:
253,110,39183,2,0,P|314:121|391:74,1,112.5,2|0,1:0|0:0,0:0:0:0:
361,338,39483,2,0,P|299:326|223:374,1,112.5,2|0,1:0|0:0,0:0:0:0:
223,119,39783,6,2,P|296:145|398:81,1,168.75,6|0,1:0|0:0,0:0:0:0:
416,40,40083,1,2,1:0:0:0:
476,216,40233,1,0,3:0:0:0:
484,116,40383,1,0,1:0:0:0:
484,116,40458,1,0,1:0:0:0:
484,116,40533,1,0,1:0:0:0:
378,266,40683,5,2,3:0:0:0:
381,293,40758,1,2,3:0:0:0:
385,320,40833,1,2,3:0:0:0:
156,321,40983,1,8,0:0:0:0:
159,294,41058,1,8,0:0:0:0:
163,267,41133,6,0,P|127:200|64:181,1,112.5,4|0,1:0|0:0,0:0:0:0:
215,17,41433,2,0,P|232:91|288:125,1,112.5,2|0,3:0|0:0,0:0:0:0:
178,292,41658,1,0,0:0:0:0:
196,271,41733,2,0,P|164:204|76:168,1,168.75,0|0,1:0|0:0,0:0:0:0:
18,123,42033,2,0,P|73:129|133:97,1,112.5,2|0,3:0|0:0,0:0:0:0:
315,33,42333,5,0,1:0:0:0:
239,159,42483,1,0,0:0:0:0:
473,155,42633,1,2,3:0:0:0:
473,155,42783,2,0,B|504:135|465:73|419:107|399:193|480:171|506:237|461:296,1,225,0|0,1:0|1:0,0:0:0:0:
312,361,43233,1,2,3:0:0:0:
393,253,43383,1,0,1:0:0:0:
239,159,43533,6,0,L|94:160,1,112.5,4|0,1:2|0:0,0:0:0:0:
338,56,43833,1,2,3:0:0:0:
338,56,43983,1,0,0:0:0:0:
136,57,44133,2,0,L|-9:58,1,112.5,0|0,1:0|1:0,0:0:0:0:
45,268,44433,1,2,3:0:0:0:
126,159,44583,1,2,0:0:0:0:
199,342,44733,5,0,1:0:0:0:
199,342,44883,1,0,1:0:0:0:
388,243,45033,1,2,3:0:0:0:
388,243,45183,2,0,P|298:240|163:240,1,225,0|8,1:0|1:2,0:0:0:0:
46,87,45633,1,8,1:2:0:0:
219,143,45783,1,0,1:0:0:0:
79,292,45933,6,0,P|67:236|92:166,1,112.5,4|0,1:0|0:0,0:0:0:0:
209,39,46233,2,0,P|232:87|207:157,1,112.5,2|0,3:0|0:0,0:0:0:0:
92,320,46458,1,0,0:0:0:0:
64,312,46533,2,0,P|37:240|93:135,1,168.75,0|0,1:0|0:0,0:0:0:0:
14,96,46833,2,0,L|144:99,1,112.5,2|0,3:0|0:0,0:0:0:0:
366,45,47133,5,0,1:0:0:0:
327,226,47283,1,0,1:0:0:0:
486,146,47433,1,2,3:0:0:0:
486,146,47583,2,0,P|424:143|228:112,1,225,0|0,1:0|1:0,0:0:0:0:
74,268,48033,1,8,0:0:0:0:
109,131,48183,1,8,0:0:0:0:
280,301,48333,6,0,L|350:322,3,53.9999983520508,12|0|2|2,1:0|0:0|0:0|0:0,0:0:0:0:
265,210,48933,2,0,L|195:231,3,53.9999983520508,0|2|0|2,0:0|0:0|0:0|0:0,0:0:0:0:
287,116,49533,2,0,L|357:137,2,53.9999983520508,0|2|2,0:0|0:0|0:0,0:0:0:0:
119,128,49983,5,2,3:0:0:0:
119,128,50058,1,2,3:0:0:0:
119,128,50133,1,8,0:0:0:0:
196,56,50283,1,8,0:0:0:0:
196,56,50358,1,8,0:0:0:0:
196,56,50433,1,8,0:0:0:0:
464,245,50733,6,0,P|411:267|308:241,1,112.5,4|0,1:0|0:0,0:0:0:0:
215,343,50958,1,2,0:0:0:0:
194,334,51033,2,0,P|173:272|192:209,1,112.5,2|0,3:0|0:0,0:0:0:0:
256,77,51258,1,2,0:0:0:0:
277,86,51333,2,0,P|298:148|279:211,1,112.5,0|0,1:0|0:0,0:0:0:0:
27,221,51633,1,2,3:0:0:0:
113,16,51783,2,0,L|114:82,1,56.25,2|0,0:1|0:0,0:0:0:0:
113,72,51933,5,0,1:0:0:0:
9,122,52083,1,0,0:0:0:0:
138,162,52233,1,2,3:0:0:0:
13,249,52383,1,0,0:0:0:0:
132,334,52533,1,0,1:0:0:0:
298,182,52683,1,2,0:0:0:0:
298,182,52758,1,2,0:0:0:0:
298,182,52833,1,2,3:0:0:0:
338,187,52908,1,2,0:0:0:0:
365,218,52983,1,0,0:0:0:0:
362,259,53058,1,2,0:0:0:0:
332,288,53133,6,0,B|301:296|301:296|256:283|256:283|176:282,1,112.5,4|0,1:0|0:0,0:0:0:0:
64,226,53358,1,2,0:0:0:0:
55,205,53433,2,0,P|53:143|96:88,1,112.5,2|2,3:0|0:0,0:0:0:0:
246,67,53658,1,2,0:0:0:0:
268,79,53733,2,0,P|300:133|293:194,1,112.5,0|0,1:0|0:0,0:0:0:0:
194,368,54033,1,2,3:0:0:0:
388,328,54183,2,0,B|450:326,1,56.25,2|0,0:1|0:0,0:0:0:0:
445,327,54333,5,0,1:0:0:0:
412,208,54483,1,0,0:0:0:0:
279,303,54633,1,2,3:0:0:0:
198,136,54783,1,0,0:0:0:0:
113,310,54933,2,0,L|33:313,1,56.25,0|0,1:0|0:0,0:0:0:0:
56,312,55083,1,0,0:0:0:0:
0,122,55233,2,0,L|80:119,1,56.25,8|0,0:0|0:0,0:0:0:0:
56,119,55383,1,8,0:0:0:0:
275,218,55533,6,0,B|251:218|251:218|229:214|229:214|196:226|196:226|140:218,1,112.5,0|0,1:0|0:0,0:0:0:0:
124,60,55758,1,2,0:0:0:0:
143,49,55833,2,0,L|208:39,1,56.25,2|0,3:0|0:0,0:0:0:0:
296,95,55983,6,0,B|296:96|296:96|298:88|298:88|279:83,2,28.125,2|0|2,0:0|0:0|0:0,0:0:0:0:
353,23,56133,5,0,1:0:0:0:
428,169,56283,2,0,L|410:290,1,112.5,0|2,0:0|3:0,0:0:0:0:
248,363,56583,2,0,L|188:362,1,56.25,2|0,0:1|0:0,0:0:0:0:
191,362,56733,5,0,1:0:0:0:
185,233,56883,6,0,B|186:247|186:247|178:254|178:254|180:270,4,28.125,2|0|2|0|2,0:0|0:0|0:0|0:0|3:0,0:0:0:0:
53,345,57183,6,0,B|51:332|51:332|58:326|58:326|56:317,4,28.125,2|0|2|0|0,0:0|0:0|0:0|0:0|1:0,0:0:0:0:
80,183,57483,5,2,0:0:0:0:
325,290,57633,6,0,B|302:286|302:286|295:299|295:299|286:289|286:289|268:290,3,56.25,0|0|0|0,1:0|1:0|1:0|1:0,0:0:0:0:
427,241,57933,6,0,P|442:181|414:114,1,112.5,4|0,1:0|0:0,0:0:0:0:
298,31,58158,1,2,0:0:0:0:
281,45,58233,2,0,P|220:58|153:47,1,112.5,2|0,3:0|0:0,0:0:0:0:
106,210,58458,1,2,0:0:0:0:
123,196,58533,2,0,P|184:183|251:194,1,112.5,2|0,1:2|0:0,0:0:0:0:
424,41,58833,1,2,3:0:0:0:
437,260,58983,2,0,L|424:322,1,56.25
425,315,59133,6,0,B|403:323|403:323|387:312|387:312|388:338,1,62.9999980773926,2|2,3:2|0:0,0:0:0:0:
144,304,59583,6,0,B|164:336|164:336|178:325|178:325|212:359,5,65.250001991272,2|2|2|2|2|2,3:0|3:0|3:0|3:0|3:0|3:0,0:0:0:0:
316,175,60033,6,0,B|291:155|291:155|280:167|280:167|259:189|259:189|246:163,3,83.2499996824265,8|8|8|8,0:0|0:0|0:0|0:0,0:0:0:0:
