osu file format v14

[General]
AudioFilename: audio.mp3
AudioLeadIn: 0
PreviewTime:30858
Countdown: 0
SampleSet: Soft
StackLeniency: 0.7
Mode: 0
LetterboxInBreaks: 0
WidescreenStoryboard: 1

[Editor]
Bookmarks: 60333
DistanceSpacing: 0.5
BeatDivisor: 4
GridSize: 32
TimelineZoom: 2.499999

[Metadata]
Title:Kuuchuu Bunkai
TitleUnicode:空中分解
Artist:Three
ArtistUnicode:すりぃ
Creator:Ryuusei Aika
Version:Reform's Expert
Source:
Tags:Collage Japanese Rock J-Rock JRock Male Vocal Surii ボーカロイド ボカロ VOCALOID 鏡音レン Kagamine Len 真ひろ まめでん ま子 Akitoshi Ujimatcha -ClariS- Yorita Yoshino Yorita_Yoshino Dored Yugu Skyflame Cami wyrio Firika AncuL -Eriri- Laura -Laura- Corinn -Mikan Mikan Bazz Bazz_B X Light X_Light XLT Reform Kujinn Seto Kousuke Seto_Kousuke Djulus -MikanMyMommy gary00737 HabiHolic Haruto Haruto_Aizawa Armin A_r_M_i_N Agatsu Garden kanor Error- -Keitaro SnowNiNo_ Sylas TheKoala CoLouRed GlaZeE CoLouRed_GlaZeE caren_sk CRN
BeatmapID:2004289
BeatmapSetID:952132

[Difficulty]
HPDrainRate:5.2
CircleSize:3
OverallDifficulty:8.2
ApproachRate:9.2
SliderMultiplier:1.77
SliderTickRate:1

[Events]
//Background and Video events
0,0,"BG.jpg",0,0
Video,3,"video.mp4"
//Break Periods
//Storyboard Layer 0 (Background)
//Storyboard Layer 1 (Fail)
//Storyboard Layer 2 (Pass)
//Storyboard Layer 3 (Foreground)
//Storyboard Layer 4 (Overlay)
//Storyboard Sound Samples

[TimingPoints]
333,300,4,2,1,55,1,0
333,-175.438596491228,4,2,1,55,0,0
1233,-175.438596491228,4,2,1,99,0,0
1458,-175.438596491228,4,2,1,5,0,0
1533,-103.092783505155,4,2,1,77,0,0
5733,-100,4,2,1,77,0,0
6333,-100,4,2,1,77,0,0
11133,-149.253731343284,4,2,1,77,0,0
11433,-149.253731343284,4,2,0,44,0,0
15483,-129.87012987013,4,2,1,66,0,0
15933,-129.87012987013,4,2,1,55,0,0
20283,-114.942528735633,4,2,1,77,0,0
20733,-114.942528735632,4,2,1,66,0,0
30333,-270.270270270275,4,2,88,55,0,0
30933,-85.4700854700855,4,2,88,77,0,0
31533,-93.4579439252336,4,2,1,99,0,0
31683,-100,4,2,1,99,0,0
38733,-100,4,2,1,88,0,0
38883,-100,4,2,1,88,0,0
39258,-100,4,2,1,88,0,0
39333,-100,4,2,1,88,0,0
39558,-100,4,2,1,88,0,0
39783,-100,4,2,1,88,0,0
40383,-100,4,2,1,66,0,0
40683,-100,4,2,1,77,0,0
41133,-100,4,2,1,99,0,0
41283,-100,4,2,1,99,0,0
47883,-100,4,2,1,99,0,0
48333,-114.942528735632,4,2,99,99,0,0
48633,-100,4,2,99,99,0,0
49983,-100,4,2,1,66,0,0
50133,-100,4,2,1,88,0,0
50283,-100,4,2,1,66,0,0
50433,-129.87012987013,4,2,1,66,0,0
50733,-103.092783505155,4,2,1,77,0,0
57670,-103.092783505155,4,2,1,11,0,0
57708,-103.092783505155,4,2,1,77,0,0
57745,-103.092783505155,4,2,1,11,0,0
57783,-103.092783505155,4,2,1,77,0,0
57820,-103.092783505155,4,2,1,11,0,0
57858,-103.092783505155,4,2,1,77,0,0
57895,-103.092783505155,4,2,1,11,0,0
57933,-103.092783505155,4,2,1,77,0,0

[Colours]
Combo1 : 255,120,55
Combo2 : 0,49,98
Combo3 : 128,64,64

[HitObjects]
117,56,333,5,8,2:0:0:0:
289,155,558,5,8,2:0:0:0:
106,267,783,5,8,2:0:0:0:
228,320,933,5,8,2:0:0:0:
228,320,1233,6,2,P|221:263|213:223,1,75.6674990763245,2|0,0:0|0:0,3:3:0:0:
197,203,1533,5,4,1:0:0:0:
197,203,1608,1,0,0:0:0:0:
197,203,1683,1,2,0:0:0:0:
311,332,1833,2,0,P|353:329|390:309,1,85.8450020303307,2|0,3:0|0:0,0:0:0:0:
302,180,2133,1,0,1:0:0:0:
175,303,2283,2,0,P|132:300|95:280,1,85.8450020303307,2|2,0:0|3:0,0:0:0:0:
200,142,2583,1,2,0:1:0:0:
355,253,2733,6,0,P|365:322|373:371,1,85.8450020303307,0|0,1:0|0:0,0:0:0:0:
508,113,3033,1,2,3:0:0:0:
472,301,3183,1,0,0:0:0:0:
305,66,3333,1,0,1:0:0:0:
342,273,3483,1,0,0:0:0:0:
430,36,3633,2,0,P|424:76|418:114,2,42.9225010151654,2|2|2,3:0|0:0|0:0,0:0:0:0:
261,193,3933,5,4,1:2:0:0:
261,193,4008,1,0,0:0:0:0:
261,193,4083,1,0,0:0:0:0:
143,300,4233,2,0,P|100:299|63:278,1,85.8450020303307,2|0,3:0|0:0,0:0:0:0:
19,131,4533,1,2,1:2:0:0:
234,219,4683,2,0,P|226:274|219:329,1,85.8450020303307,0|2,0:0|3:0,0:0:0:0:
112,170,4983,1,2,0:1:0:0:
374,152,5133,6,0,P|382:207|389:262,1,85.8450020303307,0|0,1:0|0:0,0:0:0:0:
289,97,5433,1,2,3:0:0:0:
486,230,5583,1,0,0:0:0:0:
244,205,5733,1,0,1:0:0:0:
442,63,5883,1,2,0:0:0:0:
304,266,6033,2,0,P|260:295|213:285,1,88.5,8|10,3:2|0:0,0:0:0:0:
158,139,6333,5,4,1:0:0:0:
158,139,6408,1,0,0:0:0:0:
158,139,6483,1,0,0:0:0:0:
85,322,6633,2,0,P|80:266|70:202,1,88.5,2|0,3:0|0:0,0:0:0:0:
143,87,6933,1,2,1:2:0:0:
258,280,7083,2,0,P|263:224|273:160,1,88.5,0|2,0:0|3:0,0:0:0:0:
171,45,7383,1,2,0:1:0:0:
81,200,7533,6,0,P|33:222|-13:207,1,88.5,0|0,1:0|0:0,0:0:0:0:
204,58,7833,2,0,P|247:52|285:72,1,88.5,2|0,3:0|0:0,0:0:0:0:
161,274,8133,1,0,1:0:0:0:
97,87,8283,1,2,0:0:0:0:
204,286,8433,2,0,P|212:236|222:202,2,44.25,2|2|2,3:0|0:0|0:0,0:0:0:0:
339,62,8733,5,4,1:2:0:0:
339,62,8808,1,0,0:0:0:0:
339,62,8883,1,0,0:0:0:0:
137,100,9033,2,0,P|180:99|218:120,1,88.5,2|2,3:0|0:0,0:0:0:0:
357,281,9333,1,0,1:0:0:0:
254,109,9483,2,0,P|248:54|254:8,1,88.5,0|2,0:0|3:0,0:0:0:0:
210,284,9783,1,2,0:0:0:0:
364,136,9933,5,2,3:0:0:0:
186,292,10083,1,2,0:0:0:0:
394,179,10233,1,2,3:0:0:0:
143,201,10383,1,2,0:0:0:0:
366,299,10533,1,2,3:0:0:0:
253,92,10683,1,2,3:0:0:0:
254,308,10833,2,0,L|239:379,1,44.25,8|8,0:0|0:0,0:0:0:0:
149,173,10983,2,0,L|139:129,1,44.25,8|8,0:0|0:0,0:0:0:0:
32,341,11133,6,0,P|53:292|121:302,1,118.589994390427,8|8,0:0|0:0,0:0:0:0:
241,361,11583,1,0,0:0:0:0:
241,361,11733,2,0,P|235:318|233:277,1,59.2949971952135
339,171,12033,2,0,P|336:200|331:229,1,59.2949971952135,8|0,0:0|0:0,0:0:0:0:
290,97,12333,6,0,P|325:79|355:83,2,59.2949971952135,0|0|8,0:0|0:0|0:0,0:0:0:0:
202,189,12783,2,0,P|169:172|86:152,1,118.589994390427
0,205,13233,1,8,0:0:0:0:
67,116,13383,1,0,0:0:0:0:
150,273,13533,6,0,B|69:274|119:312|23:311,2,118.589994390427,0|8|0,0:0|0:0|0:0,0:0:0:0:
231,350,14283,1,0,0:0:0:0:
357,261,14433,2,0,P|321:242|287:248,1,59.2949971952135,8|0,0:0|0:0,0:0:0:0:
189,341,14733,6,0,P|211:308|215:269,1,59.2949971952135
179,173,15033,1,8,0:0:0:0:
79,268,15183,2,0,P|57:235|53:196,1,59.2949971952135,0|2,0:0|1:2,0:0:0:0:
234,91,15483,5,8,0:0:0:0:
56,177,15633,1,8,0:0:0:0:
179,26,15783,1,8,0:0:0:0:
166,202,15933,6,0,P|178:279|192:356,1,136.289997296494,12|2,0:0|0:0,0:0:0:0:
339,167,16383,1,2,0:0:0:0:
339,167,16533,2,0,P|333:212|323:258,1,68.1449986482468,0|2,1:0|0:0,0:0:0:0:
296,85,16833,2,0,P|328:71|375:82,1,68.1449986482468,2|0,0:0|0:0,0:0:0:0:
227,196,17133,6,0,P|193:199|162:185,2,68.1449986482468,0|2|2,1:0|0:0|0:0,0:0:0:0:
336,152,17583,2,0,P|328:203|318:308,1,136.289997296494,2|2,0:0|0:0,0:0:0:0:
207,89,18033,1,2,0:0:0:0:
351,139,18183,1,0,0:0:0:0:
172,75,18333,6,0,P|125:68|80:149,2,136.289997296494,0|2|0,1:0|0:0|0:0,0:0:0:0:
214,229,19083,1,2,0:0:0:0:
123,285,19233,2,0,P|108:244|114:197,1,68.1449986482468,2|0,0:0|0:0,0:0:0:0:
265,135,19533,6,0,P|263:168|250:200,1,68.1449986482468,0|0,1:0|0:0,0:0:0:0:
145,128,19833,1,2,0:0:0:0:
217,54,19983,2,0,P|248:42|291:48,1,68.1449986482468,2|0,0:0|1:0,0:0:0:0:
423,190,20283,5,8,0:0:0:0:
257,128,20433,1,8,0:0:0:0:
455,68,20583,1,8,0:0:0:0:
321,196,20733,6,0,P|312:250|308:360,1,153.990001292336,4|8,1:2|0:0,0:0:0:0:
189,213,21183,1,0,0:0:0:0:
351,274,21333,1,0,1:0:0:0:
148,291,21483,2,0,P|111:251|112:202,1,76.9950006461678,2|8,1:2|0:0,0:0:0:0:
176,107,21783,1,0,0:0:0:0:
267,274,21933,6,0,P|260:317|242:374,1,76.9950006461678,0|0,1:0|0:0,0:0:0:0:
197,139,22233,1,8,0:0:0:0:
351,274,22383,2,0,P|394:293|437:287,1,76.9950006461678
317,128,22683,1,0,1:0:0:0:
482,237,22833,1,8,0:0:0:0:
407,62,22983,1,0,0:0:0:0:
314,273,23133,6,0,P|266:330|190:286,2,153.990001292336,0|8|0,1:0|0:0|1:0,0:0:0:0:
219,113,23883,1,0,1:0:0:0:
113,252,24033,2,0,P|74:272|25:249,1,76.9950006461678,8|0,0:0|0:0,0:0:0:0:
16,110,24333,5,0,1:0:0:0:
210,197,24483,1,0,1:0:0:0:
0,143,24633,1,8,0:0:0:0:
248,84,24783,2,0,P|202:106|156:93,1,76.9950006461678,8|0,0:0|0:0,0:0:0:0:
39,20,25083,1,0,1:0:0:0:
107,241,25233,1,8,1:2:0:0:
190,27,25383,1,0,1:0:0:0:
297,212,25533,6,0,P|305:275|326:375,1,153.990001292336,4|8,1:0|0:0,0:0:0:0:
434,162,25983,1,0,0:0:0:0:
403,297,26133,1,0,1:0:0:0:
305,101,26283,2,0,P|337:77|389:84,1,76.9950006461678,0|8,0:0|0:0,0:0:0:0:
478,240,26583,5,0,0:0:0:0:
263,191,26733,1,0,1:0:0:0:
437,128,26883,1,0,0:0:0:0:
372,320,27033,1,8,0:0:0:0:
231,161,27183,2,0,P|218:117|234:64,1,76.9950006461678,8|0,0:0|1:0,0:0:0:0:
379,207,27483,1,0,1:0:0:0:
186,270,27633,1,8,0:0:0:0:
302,110,27783,1,0,0:0:0:0:
174,302,27933,6,0,P|132:301|99:270,1,76.9950006461678,4|0,1:0|0:0,0:0:0:0:
99,106,28233,2,0,P|129:84|167:84,1,76.9950006461678,8|0,0:0|0:0,0:0:0:0:
296,237,28533,1,0,1:0:0:0:
152,168,28683,1,0,0:0:0:0:
318,81,28833,1,8,0:0:0:0:
233,291,28983,1,0,0:0:0:0:
227,35,29133,5,0,1:0:0:0:
319,225,29283,1,0,1:0:0:0:
371,11,29433,1,8,0:0:0:0:
221,191,29583,2,0,P|170:197|111:203,1,76.9950006461678,8|0,0:0|0:0,0:0:0:0:
367,258,29883,1,0,1:0:0:0:
209,94,30033,1,8,0:0:0:0:
202,310,30183,1,8,0:0:0:0:
294,111,30333,6,0,L|298:81,7,16.3725003997192,2|0|0|0|0|0|0|0,1:0|0:0|0:0|0:0|0:0|0:0|0:0|0:0,0:0:0:0:
222,61,30933,6,0,B|311:81|265:18|393:44,2,155.317500592489,8|8|8,1:0|1:0|1:0,0:0:0:0:
57,212,31533,6,0,P|110:210|144:170,1,94.694997110138,4|0,1:0|0:0,0:0:0:0:
58,41,31833,2,0,P|68:101|78:153,1,88.5,2|0,3:0|0:0,0:0:0:0:
201,24,32133,1,0,1:0:0:0:
187,256,32283,1,0,0:0:0:0:
233,39,32433,1,2,3:0:0:0:
45,140,32583,1,0,0:0:0:0:
297,172,32733,5,0,1:0:0:0:
166,92,32883,2,0,P|142:145|144:185,1,88.5,0|2,0:0|3:0,0:0:0:0:
302,264,33183,2,0,B|186:249|244:325|110:300,1,177,0|0,1:0|1:0,0:0:0:0:
55,173,33633,1,2,3:0:0:0:
206,245,33783,1,0,0:0:0:0:
56,355,33933,6,0,P|42:309|59:250,1,88.5,0|0,1:0|0:0,0:0:0:0:
223,148,34233,1,2,3:0:0:0:
64,85,34383,1,0,0:0:0:0:
248,190,34533,1,0,1:0:0:0:
17,250,34683,1,0,0:0:0:0:
170,83,34833,1,2,3:0:0:0:
148,354,34983,6,0,P|124:278|136:169,1,177
253,307,35433,1,2,3:0:0:0:
360,131,35583,2,0,P|376:182|372:232,1,88.5,0|0,0:0|1:0,0:0:0:0:
190,113,35883,1,8,1:2:0:0:
370,48,36033,1,8,1:2:0:0:
276,196,36183,1,0,1:0:0:0:
160,36,36333,6,0,P|221:35|258:66,1,88.5,4|0,1:0|0:0,0:0:0:0:
181,212,36633,2,0,P|171:154|186:107,1,88.5,2|0,3:0|0:0,0:0:0:0:
398,269,36933,1,0,1:0:0:0:
204,207,37083,1,0,0:0:0:0:
426,147,37233,1,2,3:0:0:0:
256,275,37383,1,0,0:0:0:0:
460,355,37533,5,0,1:0:0:0:
341,181,37683,2,0,P|357:232|352:294,1,88.5,0|2,0:0|3:0,0:0:0:0:
429,132,37983,2,0,P|379:79|269:127,1,177,2|0,0:0|1:0,0:0:0:0:
145,245,38433,1,8,1:2:0:0:
91,112,38583,1,8,1:2:0:0:
254,218,38733,6,0,P|265:264|264:321,1,88.5,6|0,1:0|0:0,0:0:0:0:
367,103,39033,1,0,1:0:0:0:
171,247,39183,2,0,P|123:245|84:215,1,88.5,2|0,1:0|0:0,0:0:0:0:
172,48,39483,2,0,P|220:50|259:80,1,88.5,2|0,1:0|0:0,0:0:0:0:
370,308,39783,6,2,P|340:242|357:110,1,177,6|2,1:0|1:0,0:0:0:0:
409,25,40233,1,0,3:0:0:0:
244,228,40383,2,0,P|250:177|227:122,1,88.5,0|0,1:0|1:0,0:0:0:0:
93,88,40683,1,2,3:0:0:0:
93,88,40758,1,2,3:0:0:0:
93,87,40833,2,0,P|87:108|88:130,1,44.25,2|2,3:0|3:0,0:0:0:0:
123,295,40983,1,8,0:0:0:0:
123,295,41058,1,8,0:0:0:0:
123,295,41133,6,0,P|167:335|208:335,1,88.5,4|0,1:0|0:0,0:0:0:0:
407,221,41433,2,0,P|363:261|322:261,1,88.5,2|0,3:0|0:0,0:0:0:0:
170,114,41733,1,0,1:0:0:0:
330,176,41883,1,0,0:0:0:0:
117,212,42033,1,2,3:0:0:0:
313,143,42183,1,0,0:0:0:0:
116,48,42333,5,0,1:0:0:0:
207,234,42483,2,0,P|222:175|206:122,1,88.5,0|2,0:0|3:0,0:0:0:0:
105,262,42783,2,0,P|150:327|256:320,1,177,0|0,1:0|1:0,0:0:0:0:
393,244,43233,1,2,3:0:0:0:
266,365,43383,1,0,1:0:0:0:
304,121,43533,6,0,B|340:231|272:187|320:313,2,177,4|2|0,1:2|3:0|1:0,0:0:0:0:
187,291,44283,1,0,1:0:0:0:
103,145,44433,1,2,3:0:0:0:
287,28,44583,6,0,P|291:99|173:100,1,177,2|0,0:0|1:0,0:0:0:0:
92,43,45033,1,2,3:0:0:0:
12,216,45183,2,0,P|68:211|95:178,1,88.5,0|0,1:0|1:0,0:0:0:0:
214,66,45483,1,8,1:2:0:0:
145,288,45633,1,8,1:2:0:0:
52,117,45783,1,0,1:0:0:0:
269,246,45933,6,0,P|318:262|368:269,1,88.5,4|0,1:0|0:0,0:0:0:0:
462,99,46233,2,0,P|418:106|376:120,1,88.5,2|0,3:0|0:0,0:0:0:0:
281,290,46533,1,0,1:0:0:0:
452,202,46683,1,0,1:0:0:0:
260,143,46833,1,2,3:0:0:0:
387,346,46983,1,0,0:0:0:0:
346,99,47133,5,0,1:0:0:0:
243,283,47283,1,0,1:0:0:0:
171,23,47433,1,2,3:0:0:0:
325,226,47583,2,0,P|371:251|421:243,1,88.5,0|0,1:0|0:0,0:0:0:0:
199,135,47883,5,0,1:0:0:0:
419,92,48033,1,8,0:0:0:0:
180,182,48183,1,8,0:0:0:0:
438,264,48333,5,12,1:0:0:0:
165,79,49983,5,2,3:0:0:0:
165,79,50058,1,2,3:0:0:0:
165,79,50133,2,0,L|157:139,3,44.25,8|8|8|8,0:0|0:0|0:0|0:0,0:0:0:0:
88,191,50433,2,0,L|102:313,1,102.21749797237,8|0,0:0|0:0,0:0:0:0:
175,354,50733,5,4,1:0:0:0:
175,354,50808,1,0,0:0:0:0:
175,354,50883,1,0,0:0:0:0:
442,267,51033,2,0,P|393:271|357:247,1,85.8450020303307,2|0,3:0|0:0,0:0:0:0:
226,124,51333,1,0,1:0:0:0:
260,315,51483,2,0,P|266:256|285:211,1,85.8450020303307,0|2,0:0|3:0,0:0:0:0:
373,73,51783,1,2,0:1:0:0:
186,205,51933,6,0,P|123:194|101:156,1,85.8450020303307,0|0,1:0|0:0,0:0:0:0:
264,73,52233,1,2,3:0:0:0:
173,291,52383,1,0,0:0:0:0:
295,106,52533,1,0,1:0:0:0:
80,162,52683,1,2,0:0:0:0:
321,282,52833,2,0,P|361:275|383:261,2,42.9225010151654,2|0|2,3:0|0:0|0:0,0:0:0:0:
256,70,53133,5,4,1:0:0:0:
256,70,53208,1,0,0:0:0:0:
256,70,53283,1,0,0:0:0:0:
290,276,53433,1,2,3:0:0:0:
112,134,53583,2,0,L|105:102,4,21.4612505075827,2|0|0|0|0,0:0|0:0|0:0|0:0|1:0,0:0:0:0:
111,310,53883,1,0,0:0:0:0:
111,310,53958,1,0,0:0:0:0:
111,310,54033,2,0,L|124:254,1,42.9225010151654,2|0,3:0|0:0,0:0:0:0:
254,144,54183,1,2,0:1:0:0:
387,319,54333,6,0,P|348:348|301:343,1,85.8450020303307,0|0,1:0|0:0,0:0:0:0:
159,149,54633,2,0,P|201:150|233:177,1,85.8450020303307,2|0,3:0|0:0,0:0:0:0:
113,318,54933,1,2,1:3:0:0:
42,166,55083,1,2,3:0:0:0:
246,274,55233,2,0,P|238:328|232:388,1,85.8450020303307,10|10,0:0|0:0,0:0:0:0:
69,151,55533,5,4,1:0:0:0:
69,151,55608,1,0,0:0:0:0:
69,151,55683,1,0,0:0:0:0:
131,314,55833,1,2,3:0:0:0:
197,127,55983,2,0,L|200:92,4,21.4612505075827,2|0|2|0|0,0:0|0:0|0:0|0:0|1:0,0:0:0:0:
263,271,56283,2,0,P|317:295|361:286,1,85.8450020303307,2|2,0:0|3:0,0:0:0:0:
441,154,56583,1,2,0:1:0:0:
446,334,56733,5,0,1:0:0:0:
296,122,56883,2,0,L|292:85,4,21.4612505075827,2|0|2|0|2,0:0|0:0|0:0|0:0|3:0,0:0:0:0:
312,306,57183,2,0,L|308:343,4,21.4612505075827,2|0|2|0|0,0:0|0:0|0:0|0:0|1:0,0:0:0:0:
415,141,57483,1,2,0:0:0:0:
220,246,57633,1,2,1:2:0:0:
220,246,57708,1,2,1:2:0:0:
220,246,57783,1,2,1:2:0:0:
220,246,57858,1,2,1:2:0:0:
220,246,57933,6,0,P|178:262|138:251,1,85.8450020303307,4|0,1:0|0:0,0:0:0:0:
12,216,58233,1,2,3:0:0:0:
211,128,58383,2,0,P|169:112|129:123,1,85.8450020303307,0|2,0:0|1:2,0:0:0:0:
26,337,58683,2,0,P|41:287|47:246,1,85.8450020303307,0|2,0:0|3:0,0:0:0:0:
17,47,58983,6,0,P|29:110|42:162,1,85.8450020303307,2|2,0:0|3:2,0:0:0:0:
221,28,59283,2,0,L|208:89,3,42.9225010151654,2|2|2|2,0:0|0:0|0:0|0:0,0:0:0:0:
158,185,59583,1,2,3:0:0:0:
158,185,59658,1,2,3:0:0:0:
158,185,59733,2,0,L|221:175,1,42.9225010151654,2|2,3:0|3:0,0:0:0:0:
400,305,59883,2,0,L|331:293,1,42.9225010151654,2|2,3:0|3:0,0:0:0:0:
211,348,60033,1,8,0:0:0:0:
189,344,60108,1,8,0:0:0:0:
167,342,60183,1,8,0:0:0:0:
145,339,60258,1,8,0:0:0:0:
