osu file format v14

[General]
AudioFilename: audio.mp3
AudioLeadIn: 0
PreviewTime:30858
Countdown: 0
SampleSet: Soft
StackLeniency: 0.2
Mode: 0
LetterboxInBreaks: 0
WidescreenStoryboard: 1

[Editor]
DistanceSpacing: 1
BeatDivisor: 4
GridSize: 4
TimelineZoom: 3.399999

[Metadata]
Title:Kuuchuu Bunkai
TitleUnicode:空中分解
Artist:Three
ArtistUnicode:すりぃ
Creator:Ryuusei Aika
Version:NiNo's Extra
Source:
Tags:Collage Japanese Rock J-Rock JRock Male Vocal Surii ボーカロイド ボカロ VOCALOID 鏡音レン Kagamine Len 真ひろ まめでん ま子 Akitoshi Ujimatcha -ClariS- Yorita Yoshino Yorita_Yoshino Dored Yugu Skyflame Cami wyrio Firika AncuL -Eriri- Laura -Laura- Corinn -Mikan Mikan Bazz Bazz_B X Light X_Light XLT Reform Kujinn Seto Kousuke Seto_Kousuke Djulus -MikanMyMommy gary00737 HabiHolic Haruto Haruto_Aizawa Armin A_r_M_i_N Agatsu Garden kanor Error- -Keitaro SnowNiNo_ Sylas TheKoala CoLouRed GlaZeE CoLouRed_GlaZeE caren_sk CRN
BeatmapID:1993025
BeatmapSetID:952132

[Difficulty]
HPDrainRate:6
CircleSize:4
OverallDifficulty:9.2
ApproachRate:9.5
SliderMultiplier:1.8
SliderTickRate:1

[Events]
//Background and Video events
Video,3,"video.mp4"
0,0,"BG.jpg",0,0
//Break Periods
//Storyboard Layer 0 (Background)
//Storyboard Layer 1 (Fail)
//Storyboard Layer 2 (Pass)
//Storyboard Layer 3 (Foreground)
//Storyboard Layer 4 (Overlay)
//Storyboard Sound Samples

[TimingPoints]
333,300,4,2,1,55,1,0
333,-66.6666666666667,4,2,1,55,0,0
483,-66.6666666666667,4,2,1,5,0,0
558,-66.6666666666667,4,2,1,55,0,0
708,-66.6666666666667,4,2,1,5,0,0
783,-66.6666666666667,4,2,1,55,0,0
858,-66.6666666666667,4,2,1,5,0,0
933,-66.6666666666667,4,2,1,55,0,0
1233,-100,4,2,1,99,0,0
1533,-100,4,2,1,77,0,0
5733,-100,4,2,1,77,0,0
6333,-100,4,2,1,77,0,0
11433,-100,4,2,0,44,0,0
15483,-100,4,2,1,66,0,0
15933,-100,4,2,1,66,0,0
16233,-100,4,2,1,55,0,0
20283,-100,4,2,1,77,0,0
20733,-100,4,2,1,66,0,0
30333,-100,4,2,88,55,0,0
30933,-66.6666666666667,4,2,88,77,0,0
31533,-66.6666666666667,4,2,1,99,0,1
31683,-100,4,2,1,99,0,1
31833,-66.6666666666667,4,2,1,99,0,1
32133,-100,4,2,1,99,0,1
36333,-66.6666666666667,4,2,1,99,0,1
36933,-100,4,2,1,99,0,1
38733,-100,4,2,1,99,0,1
38883,-100,4,2,1,99,0,1
41133,-66.6666666666667,4,2,1,99,0,1
41283,-100,4,2,1,99,0,1
41433,-66.6666666666667,4,2,1,99,0,1
41733,-100,4,2,1,99,0,1
45933,-66.6666666666667,4,2,1,99,0,1
46533,-100,4,2,1,99,0,1
47883,-100,4,2,1,99,0,1
48333,-100,4,2,99,99,0,1
48633,-133.333333333333,4,2,1,77,0,0
49983,-100,4,2,1,77,0,0
50133,-100,4,2,1,88,0,0
50733,-100,4,2,1,77,0,0

[Colours]
Combo1 : 255,120,55
Combo2 : 0,49,98
Combo3 : 128,64,64

[HitObjects]
283,65,333,6,0,B|200:61|200:61|137:111,1,135,8|0,2:0|0:0,0:0:0:0:
106,172,558,2,0,B|189:176|189:176|252:126,1,135,8|0,2:0|0:0,0:0:0:0:
303,191,783,2,0,B|279:210|279:210|280:246,1,67.5000025749208,8|0,2:0|0:0,0:0:0:0:
284,335,933,1,8,2:0:0:0:
159,93,1233,5,2,0:0:0:0:
159,93,1533,6,0,P|131:139|130:188,1,90,4|0,1:0|0:0,0:0:0:0:
145,215,1758,1,0,0:0:0:0:
145,215,1833,1,2,3:0:0:0:
238,279,1983,1,0,0:0:0:0:
250,100,2133,2,0,P|243:55|218:18,2,90,0|0|2,1:0|0:0|3:0,0:0:0:0:
325,217,2583,5,2,0:1:0:0:
369,72,2733,1,0,1:0:0:0:
432,289,2883,1,0,0:0:0:0:
483,108,3033,2,0,L|472:4,1,90,2|0,3:0|0:0,0:0:0:0:
279,66,3333,2,0,L|389:73,1,90,0|0,1:0|0:0,0:0:0:0:
198,19,3633,1,2,3:0:0:0:
170,149,3783,1,0,0:0:0:0:
102,24,3933,6,0,P|58:20|5:34,1,90,0|0,1:0|0:0,0:0:0:0:
2,73,4158,1,0,0:0:0:0:
2,73,4233,1,2,3:0:0:0:
170,149,4383,1,0,0:0:0:0:
22,191,4533,2,0,P|9:234|14:300,2,90,0|0|2,1:0|0:0|3:0,0:0:0:0:
194,255,4983,6,0,L|87:247,1,90,2|0,0:1|1:0,0:0:0:0:
170,149,5283,1,0,0:0:0:0:
292,264,5433,2,0,L|399:272,1,90,2|0,3:0|0:0,0:0:0:0:
112,74,5733,2,2,P|80:122|81:171,1,90,0|0,1:0|0:0,0:1:0:0:
257,343,6033,2,2,P|289:295|288:246,1,90,8|8,3:0|0:0,0:1:0:0:
170,149,6333,5,4,1:0:0:0:
194,255,6483,1,0,0:0:0:0:
194,255,6558,1,0,0:0:0:0:
194,255,6633,1,2,3:0:0:0:
257,96,6783,1,0,0:0:0:0:
97,222,6933,1,0,1:0:0:0:
291,263,7083,1,0,0:0:0:0:
170,149,7233,1,2,3:0:0:0:
121,328,7383,6,0,P|81:349|21:345,1,90,2|0,0:1|1:0,0:0:0:0:
97,222,7683,1,0,0:0:0:0:
291,263,7833,1,2,3:0:0:0:
218,361,7983,1,0,0:0:0:0:
265,165,8133,5,0,1:0:0:0:
323,357,8283,1,0,0:0:0:0:
405,194,8433,1,2,3:0:0:0:
391,296,8583,1,0,0:0:0:0:
500,155,8733,6,0,L|489:46,1,90,0|0,1:0|0:0,0:0:0:0:
483,21,8958,1,0,0:0:0:0:
483,21,9033,1,2,3:0:0:0:
405,194,9183,1,0,0:0:0:0:
379,93,9333,1,0,1:0:0:0:
310,233,9483,1,0,0:0:0:0:
286,86,9633,1,2,3:0:0:0:
215,272,9783,1,2,0:0:0:0:
193,79,9933,6,0,L|197:22,1,45,2|0,3:0|0:0,0:0:0:0:
114,223,10083,1,2,0:0:0:0:
117,267,10158,1,2,0:0:0:0:
120,311,10233,2,0,L|124:368,1,45,2|0,3:0|0:0,0:0:0:0:
310,233,10383,2,0,L|314:176,1,45,2|2,0:0|0:0,0:0:0:0:
23,168,10533,1,2,3:0:0:0:
26,212,10608,1,0,0:0:0:0:
29,256,10683,1,2,3:0:0:0:
419,384,10833,1,8,0:0:0:0:
422,340,10908,1,8,0:0:0:0:
425,296,10983,1,8,0:0:0:0:
428,252,11058,1,8,0:0:0:0:
431,208,11133,5,8,0:0:0:0:
373,122,11433,1,8,0:0:0:0:
373,122,12033,1,8,0:0:0:0:
373,122,12633,1,8,0:0:0:0:
373,122,13233,1,8,0:0:0:0:
373,122,13833,1,8,0:0:0:0:
373,122,14433,1,8,0:0:0:0:
373,122,15033,1,8,0:0:0:0:
373,122,15333,5,2,0:0:0:0:
121,22,15483,2,0,L|113:79,1,45,8|0,0:0|0:0,0:0:0:0:
268,219,15633,2,0,L|260:162,1,45,8|0,0:0|0:0,0:0:0:0:
16,119,15783,2,0,L|8:176,1,45,8|0,0:0|0:0,0:0:0:0:
57,347,15933,5,12,0:0:0:0:
57,347,16233,2,0,L|115:353,1,45,2|0,0:0|0:0,0:0:0:0:
132,259,16383,2,0,L|190:265,1,45,2|0,0:0|0:0,0:0:0:0:
192,347,16533,1,0,1:0:0:0:
57,347,16683,2,0,L|115:353,1,45,2|0,0:0|0:0,0:0:0:0:
132,259,16833,2,0,L|190:265,1,45,2|0,0:0|0:0,0:0:0:0:
192,347,17133,5,0,1:0:0:0:
57,347,17433,2,0,L|115:353,1,45,2|0,0:0|0:0,0:0:0:0:
132,259,17583,2,0,L|190:265,1,45,2|0,0:0|0:0,0:0:0:0:
192,347,17733,1,0,1:0:0:0:
57,347,17883,2,0,L|115:353,1,45,2|0,0:0|0:0,0:0:0:0:
132,259,18033,2,0,L|190:265,1,45,2|0,0:0|0:0,0:0:0:0:
192,347,18333,5,0,1:0:0:0:
350,268,18633,2,0,L|354:324,1,45,2|0,0:0|0:0,0:0:0:0:
262,240,18783,2,0,L|266:296,1,45,2|0,0:0|0:0,0:0:0:0:
192,347,18933,1,0,1:0:0:0:
350,268,19083,2,0,L|354:324,1,45,2|0,0:0|0:0,0:0:0:0:
262,240,19233,2,0,L|266:296,1,45,2|0,0:0|0:0,0:0:0:0:
192,347,19533,5,0,1:0:0:0:
350,268,19833,2,0,L|354:324,1,45,2|0,0:0|0:0,0:0:0:0:
262,240,19983,2,0,L|266:296,1,45,2|0,0:0|0:0,0:0:0:0:
192,347,20133,1,0,1:0:0:0:
172,115,20283,6,0,L|168:159,1,45,8|0,0:0|0:0,0:0:0:0:
353,312,20433,2,0,L|350:268,1,45,8|0,0:0|0:0,0:0:0:0:
84,143,20583,2,0,L|81:188,1,45,8|0,0:0|0:0,0:0:0:0:
265,284,20733,6,0,L|258:192,1,90,0|0,1:0|0:0,0:0:0:0:
192,347,21033,1,8,0:0:0:0:
144,265,21183,1,0,0:0:0:0:
71,328,21333,2,0,P|52:296|62:217,1,90,0|0,1:0|1:0,0:0:0:0:
123,181,21633,2,0,P|142:213|132:292,1,90,8|0,0:0|0:0,0:0:0:0:
217,118,21933,5,0,1:0:0:0:
244,218,22083,1,0,0:0:0:0:
331,162,22233,1,8,0:0:0:0:
356,260,22383,2,0,P|402:281|459:278,1,90,8|0,0:0|0:0,0:0:0:0:
418,106,22683,1,0,1:0:0:0:
331,162,22833,1,8,0:0:0:0:
418,106,22983,1,0,0:0:0:0:
270,39,23133,6,0,L|172:32,1,90,0|0,1:0|0:0,0:0:0:0:
154,224,23433,2,0,L|252:217,1,90,8|0,0:0|0:0,0:0:0:0:
112,108,23733,1,0,1:0:0:0:
60,192,23883,1,0,1:0:0:0:
154,224,24033,1,8,0:0:0:0:
102,308,24183,6,0,P|50:323|7:319,1,90,0|0,0:0|1:0,0:0:0:0:
248,256,24483,1,0,1:0:0:0:
267,349,24633,1,8,0:0:0:0:
342,225,24783,2,0,P|358:164|331:37,1,180,8|0,0:0|1:0,0:0:0:0:
238,26,25233,1,8,1:2:0:0:
223,128,25383,1,0,1:0:0:0:
36,123,25533,6,0,P|86:106|145:106,1,90,4|0,1:0|0:0,0:0:0:0:
250,237,25833,2,0,P|205:233|163:217,1,90,8|0,0:0|0:0,0:0:0:0:
223,128,26133,1,0,1:0:0:0:
351,262,26283,2,0,P|395:258|437:242,1,90,0|8,0:0|0:0,0:0:0:0:
469,143,26583,1,0,0:0:0:0:
374,27,26733,5,0,1:0:0:0:
321,162,26883,1,0,0:0:0:0:
222,53,27033,1,8,0:0:0:0:
250,237,27183,2,0,P|219:193|204:137,1,90,8|0,0:0|1:0,0:0:0:0:
122,93,27483,1,0,1:0:0:0:
104,287,27633,2,0,P|98:242|105:198,1,90,8|0,0:0|0:0,0:0:0:0:
295,144,27933,6,0,P|240:157|198:158,1,90,0|0,1:0|0:0,0:0:0:0:
53,19,28233,2,0,P|108:6|150:5,1,90,8|0,0:0|0:0,0:0:0:0:
105,198,28533,1,0,1:0:0:0:
26,123,28683,1,0,0:0:0:0:
206,158,28833,2,0,P|222:206|221:268,1,90,8|0,0:0|0:0,0:0:0:0:
27,360,29133,5,0,1:0:0:0:
29,266,29283,1,0,1:0:0:0:
123,268,29433,1,8,0:0:0:0:
121,362,29583,2,0,P|169:353|311:345,1,180,8|0,0:0|1:0,0:0:0:0:
403,231,30033,1,8,0:0:0:0:
326,168,30183,1,8,0:0:0:0:
326,168,30933,6,0,B|244:149|244:149|185:172,1,135.000005149842,8|0,1:0|0:0,0:0:0:0:
250,234,31158,2,0,B|332:253|332:253|391:230,1,135.000005149842,8|0,1:0|0:0,0:0:0:0:
457,205,31383,1,8,1:0:0:0:
319,89,31533,6,0,B|237:70|237:70|111:115,1,202.500007724762,4|0,1:0|0:0,0:0:0:0:
122,88,31833,2,0,B|233:48|233:48|315:67,1,202.500007724762,2|0,3:0|0:0,0:0:0:0:
443,186,32133,5,0,1:0:0:0:
240,178,32283,1,0,0:0:0:0:
414,293,32433,1,2,3:0:0:0:
240,293,32583,6,0,L|125:285,1,90,0|0,3:0|1:0,0:0:0:0:
65,125,32883,2,0,L|180:117,1,90,0|2,0:0|3:0,0:0:0:0:
356,181,33183,2,0,B|324:227|324:227|340:359,1,180,0|0,1:0|1:0,0:0:0:0:
196,167,33633,1,2,3:0:0:0:
124,250,33783,1,0,0:0:0:0:
78,140,33933,6,0,P|63:88|72:35,1,90,0|0,1:0|0:0,0:0:0:0:
275,33,34233,1,2,3:0:0:0:
162,84,34383,1,0,0:0:0:0:
326,113,34533,1,0,1:0:0:0:
196,167,34683,1,0,0:0:0:0:
377,193,34833,1,2,3:0:0:0:
230,250,34983,6,0,P|176:265|126:262,1,90,0|0,0:0|1:0,0:0:0:0:
326,113,35283,1,0,0:0:0:0:
377,193,35433,1,2,3:0:0:0:
421,109,35583,1,0,1:0:0:0:
231,117,35733,5,0,1:0:0:0:
402,206,35883,1,8,1:2:0:0:
206,104,36033,1,8,1:2:0:0:
427,219,36183,1,0,1:0:0:0:
278,36,36333,6,0,P|306:100|219:200,1,202.500007724762,4|0,1:0|0:0,0:0:0:0:
255,210,36633,2,0,P|324:135|303:40,1,202.500007724762,2|0,3:0|0:0,0:0:0:0:
159,28,36933,5,0,1:0:0:0:
325,277,37083,1,0,3:0:0:0:
397,8,37233,1,2,3:0:0:0:
167,138,37383,6,0,P|107:125|73:97,1,90,0|0,0:0|1:0,0:0:0:0:
337,116,37683,2,0,L|344:223,1,90,0|2,3:0|3:0,0:0:0:0:
18,368,37983,2,0,L|30:181,1,180,0|0,1:0|1:0,0:0:0:0:
167,138,38433,1,8,1:2:0:0:
220,227,38583,1,8,1:2:0:0:
254,33,38733,5,6,1:0:0:0:
121,250,38883,1,0,1:0:0:0:
121,250,39033,1,0,1:0:0:0:
430,90,39183,5,2,1:0:0:0:
30,367,39483,1,2,1:0:0:0:
99,22,39783,6,2,B|62:68|62:68|78:190,1,180,6|2,1:0|1:0,0:1:0:0:
178,297,40233,1,0,3:0:0:0:
254,33,40383,1,2,3:1:0:0:
251,55,40458,1,0,3:0:0:0:
248,77,40533,1,0,3:0:0:0:
362,295,40683,1,2,3:0:0:0:
359,273,40758,1,2,3:0:0:0:
356,251,40833,1,2,3:0:0:0:
77,187,40983,1,8,0:0:0:0:
74,209,41058,1,8,0:0:0:0:
71,231,41133,6,0,P|80:313|196:327,1,202.500007724762,4|0,1:0|0:0,0:0:0:0:
199,321,41433,2,0,P|104:309|85:216,1,202.500007724762,2|0,3:0|0:0,0:0:0:0:
254,28,41733,5,0,1:0:0:0:
169,239,41883,1,0,0:0:0:0:
76,26,42033,1,2,3:0:0:0:
293,195,42183,5,0,0:0:0:0:
165,3,42333,1,0,1:0:0:0:
64,228,42483,2,0,L|71:334,1,90,0|2,0:0|3:0,0:0:0:0:
282,375,42783,2,0,L|294:186,1,180,0|0,1:0|1:0,0:0:0:0:
404,45,43233,1,2,3:0:0:0:
462,170,43383,1,0,1:0:0:0:
178,349,43533,6,0,L|190:160,1,180,4|2,1:2|3:0,0:0:0:0:
462,170,43983,1,0,0:0:0:0:
293,195,44133,1,0,1:0:0:0:
457,259,44283,1,0,1:0:0:0:
331,284,44433,1,2,3:0:0:0:
452,348,44583,6,0,L|457:259,1,90,2|0,0:0|1:0,0:0:0:0:
362,95,44883,1,0,1:0:0:0:
331,284,45033,1,2,3:0:0:0:
462,170,45183,1,0,1:0:0:0:
295,195,45333,5,0,1:0:0:0:
457,259,45483,1,8,1:2:0:0:
231,276,45633,1,8,1:2:0:0:
462,170,45783,1,0,1:0:0:0:
272,62,45933,6,0,B|218:103|218:103|226:260,1,202.500007724762,4|0,1:0|0:0,0:0:0:0:
231,276,46233,2,0,B|285:235|285:235|277:78,1,202.500007724762,2|0,3:0|0:0,0:0:0:0:
348,11,46533,5,0,1:0:0:0:
457,259,46683,1,0,1:0:0:0:
158,124,46833,1,2,3:0:0:0:
456,98,46983,1,0,0:0:0:0:
231,276,47133,5,0,1:0:0:0:
207,29,47283,1,0,1:0:0:0:
361,302,47433,1,2,3:0:0:0:
456,98,47583,2,0,P|402:74|360:75,1,90,0|0,1:0|1:0,0:0:0:0:
231,276,47883,1,0,1:0:0:0:
207,29,48033,1,8,0:0:0:0:
397,194,48183,1,8,0:0:0:0:
30,257,48333,5,12,1:0:0:0:
35,261,48633,2,0,L|27:184,2,67.5000025749208,2|2|0,0:0|0:0|0:0,0:0:0:0:
130,315,49083,2,0,L|122:392,1,67.5000025749208,2|0,0:0|0:0,0:0:0:0:
228,248,49383,6,0,L|220:171,1,67.5000025749208,2|0,0:0|0:0,0:0:0:0:
221,93,49683,1,2,0:0:0:0:
305,66,49833,1,2,0:0:0:0:
356,137,49983,2,0,L|414:142,1,45,2|2,3:0|3:0,0:0:0:0:
306,210,50133,1,8,0:0:0:0:
307,226,50208,1,8,0:0:0:0:
309,243,50283,1,8,0:0:0:0:
310,259,50358,1,8,0:0:0:0:
312,276,50433,2,0,L|319:379,1,90,8|0,0:0|0:0,0:0:0:0:
220,359,50733,5,4,1:0:0:0:
231,216,50883,1,0,0:0:0:0:
231,216,50958,1,0,0:0:0:0:
231,216,51033,1,2,3:0:0:0:
111,306,51183,1,0,0:0:0:0:
130,127,51333,1,0,1:0:0:0:
24,242,51483,1,0,0:0:0:0:
17,89,51633,1,2,3:0:0:0:
141,219,51783,6,0,L|234:215,1,90,2|0,0:1|1:0,0:0:0:0:
397,130,52083,1,0,0:0:0:0:
262,55,52233,1,2,3:0:0:0:
358,219,52383,1,0,0:0:0:0:
369,25,52533,1,0,1:0:0:0:
225,136,52683,1,2,0:0:0:0:
174,15,52833,1,2,3:0:0:0:
123,130,52983,1,2,0:0:0:0:
32,62,53133,5,4,1:0:0:0:
54,224,53283,1,0,0:0:0:0:
54,224,53358,1,0,0:0:0:0:
54,224,53433,2,0,P|71:281|70:319,1,90,2|2,3:0|0:0,0:0:0:0:
230,355,53733,1,0,1:0:0:0:
181,255,53883,1,0,0:0:0:0:
321,291,54033,1,2,3:0:0:0:
287,102,54183,6,0,P|258:142|254:202,1,90,2|0,0:1|1:0,0:0:0:0:
432,304,54483,1,0,0:0:0:0:
348,179,54633,1,2,3:0:0:0:
321,291,54783,1,0,0:0:0:0:
427,117,54933,2,0,P|447:168|444:220,1,90,0|0,1:0|0:0,0:0:0:0:
242,353,55233,2,0,P|222:302|225:250,1,90,8|8,0:0|0:0,0:0:0:0:
182,82,55533,5,0,1:0:0:0:
107,236,55683,1,0,0:0:0:0:
107,236,55758,1,0,0:0:0:0:
107,236,55833,1,2,3:0:0:0:
67,90,55983,2,0,L|63:58,4,22.5,2|0|2|0|0,0:0|0:0|0:0|0:0|1:0,0:0:0:0:
200,178,56283,1,0,0:0:0:0:
276,30,56433,1,2,3:0:0:0:
352,218,56583,6,0,P|367:166|369:115,1,90,2|0,0:1|1:0,0:0:0:0:
273,322,56883,1,2,0:0:0:0:
200,178,57033,1,2,3:0:0:0:
180,342,57183,1,2,0:0:0:0:
120,218,57333,1,0,1:0:0:0:
37,369,57483,1,2,0:0:0:0:
23,215,57633,5,0,1:0:0:0:
24,192,57708,1,0,1:0:0:0:
25,170,57783,1,0,1:0:0:0:
27,147,57858,1,0,1:0:0:0:
28,125,57933,6,0,L|35:30,1,90,4|0,1:0|0:0,0:0:0:0:
119,217,58233,1,2,3:0:0:0:
191,111,58383,2,0,L|198:16,1,90,0|2,0:0|1:2,0:0:0:0:
272,249,58683,2,0,L|279:344,1,90,0|2,0:0|3:0,0:0:0:0:
334,83,58983,1,0,0:0:0:0:
431,207,59133,6,0,L|428:262,4,45,2|2|2|2|2,3:2|0:0|0:0|0:0|0:0,0:0:0:0:
305,212,59583,5,2,3:0:0:0:
266,255,59658,1,2,3:0:0:0:
211,272,59733,1,2,3:0:0:0:
155,259,59808,1,2,3:0:0:0:
114,219,59883,1,2,3:0:0:0:
99,163,59958,1,2,3:0:0:0:
115,107,60033,2,0,L|126:47,1,45,8|8,0:0|0:0,0:0:0:0:
216,20,60183,2,0,L|226:80,1,45,8|8,0:0|0:0,0:0:0:0:
