osu file format v14

[General]
AudioFilename: audio.mp3
AudioLeadIn: 0
PreviewTime: 30858
Countdown: 0
SampleSet: Soft
StackLeniency: 0.5
Mode: 0
LetterboxInBreaks: 0
WidescreenStoryboard: 1

[Editor]
DistanceSpacing: 2.9
BeatDivisor: 4
GridSize: 4
TimelineZoom: 3.599998

[Metadata]
Title:Kuuchuu Bunkai
TitleUnicode:空中分解
Artist:Three
ArtistUnicode:すりぃ
Creator:Ryuusei Aika
Version:Mikan's Light Insane
Source:
Tags:Collage Japanese Rock J-Rock JRock Male Vocal Surii ボーカロイド ボカロ VOCALOID 鏡音レン Kagamine Len 真ひろ まめでん ま子 Akitoshi Ujimatcha -ClariS- Yorita Yoshino Yorita_Yoshino Dored Yugu Skyflame Cami wyrio Firika AncuL -Eriri- Laura -Laura- Corinn -Mikan Mikan Bazz Bazz_B X Light X_Light XLT Reform Kujinn Seto Kousuke Seto_Kousuke Djulus -MikanMyMommy gary00737 HabiHolic Haruto Haruto_Aizawa Armin A_r_M_i_N Agatsu Garden kanor Error- -Keitaro SnowNiNo_ Sylas TheKoala CoLouRed GlaZeE CoLouRed_GlaZeE caren_sk CRN
BeatmapID:1989188
BeatmapSetID:952132

[Difficulty]
HPDrainRate:5
CircleSize:3.2
OverallDifficulty:6
ApproachRate:8
SliderMultiplier:1.6
SliderTickRate:1

[Events]
//Background and Video events
Video,3,"video.mp4"
0,0,"BG.jpg",0,0
//Break Periods
2,48533,49233
//Storyboard Layer 0 (Background)
//Storyboard Layer 1 (Fail)
//Storyboard Layer 2 (Pass)
//Storyboard Layer 3 (Foreground)
//Storyboard Layer 4 (Overlay)
//Storyboard Sound Samples

[TimingPoints]
333,300,4,2,1,55,1,0
333,-100,4,2,1,55,0,0
1233,-80,4,2,1,99,0,0
1458,-80,4,2,1,5,0,0
1533,-100,4,2,1,77,0,0
9933,-100,4,2,1,77,0,0
11133,-100,4,2,1,77,0,0
11433,-100,4,2,0,44,0,0
15483,-100,4,2,1,66,0,0
15933,-100,4,2,1,55,0,0
20283,-100,4,2,1,77,0,0
20733,-100,4,2,1,66,0,0
30333,-100,4,2,88,55,0,0
30933,-100,4,2,88,77,0,0
31533,-100,4,2,1,99,0,1
38733,-100,4,2,1,88,0,1
41133,-100,4,2,1,99,0,1
47883,-100,4,2,1,99,0,1
48333,-100,4,2,99,99,0,0
49983,-100,4,2,1,66,0,0
50133,-100,4,2,1,88,0,0
50733,-100,4,2,1,77,0,0
55833,-100,4,2,1,77,0,0
56208,-100,4,2,1,77,0,0
57333,-100,4,2,1,77,0,0
57933,-100,4,2,1,77,0,0

[Colours]
Combo1 : 255,120,55
Combo2 : 0,49,98
Combo3 : 128,64,64

[HitObjects]
256,192,333,12,2,1233,0:0:0:0:
64,293,1533,6,0,L|2:288,2,40,4|0|0,1:0|0:0|0:0,0:0:0:0:
137,343,1833,1,2,3:0:0:0:
212,295,1983,1,0,0:0:0:0:
141,233,2133,2,0,L|141:148,1,80,0|0,1:0|0:0,0:0:0:0:
143,59,2433,1,2,3:0:0:0:
157,75,2583,6,0,L|311:85,1,120,2|0,0:1|0:0,0:0:0:0:
291,78,2883,1,0,0:0:0:0:
360,16,3033,2,0,P|381:50|381:105,1,80,2|0,3:0|0:0,0:0:0:0:
472,105,3333,2,0,P|452:153|426:175,1,80,0|0,1:0|0:0,0:0:0:0:
468,251,3633,2,0,P|429:258|397:251,2,40,2|0|0,3:0|0:0|0:0,0:0:0:0:
340,326,3933,6,0,P|403:340|442:370,1,80,0|0,1:0|0:0,0:0:0:0:
296,245,4233,1,2,3:0:0:0:
237,307,4383,1,0,0:0:0:0:
164,257,4533,2,0,P|120:262|83:279,1,80,0|0,1:0|0:0,0:0:0:0:
25,344,4833,1,2,3:0:0:0:
41,359,4983,6,0,L|50:220,1,120,2|0,0:1|0:0,0:0:0:0:
50,220,5283,1,0,0:0:0:0:
106,147,5433,2,0,B|70:125|70:125|21:130,1,80,2|0,3:0|0:0,0:0:0:0:
0,45,5733,2,2,B|36:23|36:23|85:28,1,80,0|0,1:0|0:0,0:0:0:0:
158,67,6033,1,8,3:2:0:0:
232,11,6183,1,8,0:0:0:0:
317,91,6333,6,0,L|315:140,2,40,4|0|0,1:0|0:0|0:0,0:0:0:0:
394,187,6633,1,2,3:0:0:0:
316,241,6783,1,0,0:0:0:0:
234,188,6933,2,0,P|181:209|154:237,1,80,0|0,1:0|0:0,0:0:0:0:
120,311,7233,1,2,3:0:0:0:
109,302,7383,6,0,B|158:300|158:300|184:321|184:321|238:321,1,120,2|0,0:1|0:0,0:0:0:0:
239,314,7683,1,0,0:0:0:0:
307,363,7833,2,0,L|395:356,1,80,2|0,3:0|0:0,0:0:0:0:
478,268,8133,2,0,L|398:274,1,80,0|0,1:0|0:0,0:0:0:0:
314,207,8433,2,0,L|366:203,2,40,2|0|0,3:0|0:0|0:0,0:0:0:0:
430,142,8733,6,0,P|446:100|446:56,1,80,0|0,1:0|0:0,0:0:0:0:
356,27,9033,1,2,3:0:0:0:
299,96,9183,1,0,0:0:0:0:
212,53,9333,2,0,L|110:45,2,80,0|0|2,1:0|0:0|3:0,0:0:0:0:
221,156,9783,5,0,0:0:0:0:
221,156,9858,1,0,0:0:0:0:
221,156,9933,2,0,L|231:205,2,40,2|0|2,3:0|0:0|0:0,0:0:0:0:
143,226,10233,2,0,L|153:275,2,40,2|0|2,3:0|0:0|0:0,0:0:0:0:
279,266,10533,2,0,L|289:315,2,40,2|0|2,3:0|0:0|3:0,0:0:0:0:
208,343,10833,5,8,0:0:0:0:
209,350,10908,1,8,0:0:0:0:
211,358,10983,1,8,0:0:0:0:
212,366,11058,1,8,0:0:0:0:
214,374,11133,1,8,0:0:0:0:
405,339,11433,5,8,0:0:0:0:
423,337,12033,1,8,0:0:0:0:
439,345,12633,1,8,0:0:0:0:
447,358,13233,1,8,0:0:0:0:
356,188,13833,5,8,0:0:0:0:
338,186,14433,1,8,0:0:0:0:
322,194,15033,1,8,0:0:0:0:
271,275,15483,5,8,0:0:0:0:
183,297,15633,1,8,0:0:0:0:
210,214,15783,1,8,0:0:0:0:
248,363,15933,6,0,B|271:362|271:362|293:355|293:355|308:360|308:360|346:348|346:348|372:353|372:353|408:346,1,160,12|2,0:0|0:0,0:0:0:0:
477,291,16383,1,2,0:0:0:0:
408,238,16533,2,0,B|388:211|388:211|394:159,1,80,0|2,1:0|0:0,0:0:0:0:
467,122,16833,1,2,0:0:0:0:
467,122,16983,1,0,0:0:0:0:
414,42,17133,6,0,L|316:33,1,80,0|2,1:0|0:0,0:0:0:0:
243,112,17433,2,0,L|322:119,1,80,2|2,0:0|0:0,0:0:0:0:
248,24,17733,5,0,1:0:0:0:
171,58,17883,2,0,L|111:54,2,40,2|0|2,0:0|0:0|0:0,0:0:0:0:
243,112,18183,1,0,0:0:0:0:
165,149,18333,6,0,B|168:180|168:180|179:192|179:192|185:233,1,80,0|0,1:0|0:0,0:0:0:0:
86,304,18633,2,0,B|89:273|89:273|100:261|100:261|106:220,1,80,2|2,0:0|0:0,0:0:0:0:
172,307,18933,5,0,1:0:0:0:
251,275,19083,1,2,0:0:0:0:
266,193,19233,1,2,0:0:0:0:
183,224,19383,1,0,0:0:0:0:
245,359,19533,6,0,L|328:351,1,80,0|0,1:0|0:0,0:0:0:0:
388,296,19833,1,2,0:0:0:0:
465,339,19983,2,0,B|489:314|489:314|480:242,1,80,2|0,0:0|1:0,0:0:0:0:
373,160,20283,5,8,0:0:0:0:
266,193,20433,1,8,0:0:0:0:
164,222,20583,1,8,0:0:0:0:
95,168,20733,6,0,L|105:88,1,80,0|0,1:0|0:0,0:0:0:0:
190,43,21033,2,0,L|200:123,1,80,8|0,0:0|0:0,0:0:0:0:
266,193,21333,1,0,1:0:0:0:
297,109,21483,1,0,1:0:0:0:
373,160,21633,2,0,L|363:240,1,80,8|0,0:0|0:0,0:0:0:0:
275,272,21933,6,0,L|263:175,1,80,0|0,1:0|0:0,0:0:0:0:
297,109,22233,1,8,0:0:0:0:
255,27,22383,2,0,P|204:21|170:28,1,80
98,76,22683,1,0,1:0:0:0:
25,24,22833,2,0,B|5:57|5:57|14:117,1,80,8|0,0:0|0:0,0:0:0:0:
95,168,23133,6,0,B|115:201|115:201|106:261,1,80,0|0,1:0|0:0,0:0:0:0:
33,335,23433,2,0,B|66:317|66:317|135:335,1,80,8|0,0:0|0:0,0:0:0:0:
195,355,23733,1,0,1:0:0:0:
195,355,23883,1,0,1:0:0:0:
270,260,24033,2,0,B|232:253|232:253|189:269,1,80,8|0,0:0|0:0,0:0:0:0:
108,241,24333,5,0,1:0:0:0:
22,218,24483,1,0,1:0:0:0:
86,153,24633,1,8,0:0:0:0:
174,178,24783,2,0,B|221:156|221:156|316:177,1,120,8|0,0:0|0:0,0:0:0:0:
309,163,25083,1,0,1:0:0:0:
384,113,25233,1,8,1:2:0:0:
365,27,25383,1,0,1:0:0:0:
280,3,25533,6,0,L|168:9,1,80,4|0,1:0|0:0,0:0:0:0:
185,94,25833,2,0,L|264:89,1,80,8|0,0:0|0:0,0:0:0:0:
322,163,26133,2,0,L|401:167,1,80,0|0,1:0|0:0,0:0:0:0:
393,256,26433,2,0,L|313:251,1,80,8|0,0:0|0:0,0:0:0:0:
238,303,26733,5,0,1:0:0:0:
238,303,26883,1,0,0:0:0:0:
153,268,27033,1,8,0:0:0:0:
65,294,27183,2,0,B|71:230|71:230|106:195|106:195|114:121,1,160,8|0,0:0|1:0,0:0:0:0:
21,67,27633,2,0,L|26:146,1,80,8|0,0:0|0:0,0:0:0:0:
182,94,27933,6,0,P|142:67|98:65,1,80,0|0,1:0|0:0,0:0:0:0:
270,103,28233,2,0,P|265:65|233:19,1,80,8|0,0:0|0:0,0:0:0:0:
215,180,28533,1,0,1:0:0:0:
215,180,28683,1,0,0:0:0:0:
286,240,28833,1,8,0:0:0:0:
286,240,28983,1,0,0:0:0:0:
223,308,29133,6,0,L|130:301,1,80,0|0,1:0|1:0,0:0:0:0:
281,378,29433,1,8,0:0:0:0:
349,317,29583,2,0,L|429:310,1,80,8|0,0:0|0:0,0:0:0:0:
456,219,29883,2,0,L|348:226,2,80,0|8|8,1:0|0:0|0:0,0:0:0:0:
484,136,30333,1,2,1:0:0:0:
182,94,30933,6,0,B|137:89|137:89|122:68|122:68|67:62,2,120,8|8|8,1:0|1:0|1:0,0:0:0:0:
257,38,31533,6,0,L|359:32,1,80,4|0,1:0|0:0,0:0:0:0:
388,116,31833,2,0,L|309:121,1,80,2|0,3:0|0:0,0:0:0:0:
359,207,32133,2,0,L|438:202,1,80,0|0,1:0|0:0,0:0:0:0:
503,274,32433,5,2,3:0:0:0:
434,341,32583,1,0,0:0:0:0:
353,286,32733,2,0,L|359:198,1,80,0|0,1:0|0:0,0:0:0:0:
309,121,33033,1,2,3:0:0:0:
235,179,33183,2,0,L|246:343,1,160,0|0,1:0|1:0,0:0:0:0:
162,369,33633,5,2,3:0:0:0:
162,369,33783,1,0,0:0:0:0:
74,339,33933,2,0,P|45:283|108:200,1,160,0|2,1:0|3:0,0:0:0:0:
151,138,34383,1,0,0:0:0:0:
174,49,34533,2,0,P|130:48|94:69,2,80,0|0|2,1:0|0:0|3:0,0:0:0:0:
249,101,34983,6,0,P|305:111|346:102,1,80,0|0,0:0|1:0,0:0:0:0:
399,49,35283,1,0,0:0:0:0:
486,88,35433,1,2,3:0:0:0:
479,185,35583,2,0,P|423:170|369:179,1,80,0|0,1:0|1:0,0:0:0:0:
336,241,35883,2,0,B|338:275|338:275|347:292|347:292|350:335,2,80,8|8|0,1:2|1:2|1:0,0:0:0:0:
250,205,36333,6,0,L|156:221,1,80,4|0,1:0|0:0,0:0:0:0:
138,135,36633,2,0,L|216:121,1,80,2|0,3:0|0:0,0:0:0:0:
193,35,36933,2,0,L|99:51,1,80,0|0,1:0|0:0,0:0:0:0:
45,113,37233,5,2,3:0:0:0:
72,202,37383,1,0,0:0:0:0:
171,218,37533,2,0,L|164:304,1,80,0|0,1:0|0:0,0:0:0:0:
239,354,37833,1,2,3:0:0:0:
324,310,37983,2,0,B|337:265|322:200|308:261|290:192|298:149,1,160,0|0,1:0|1:0,0:0:0:0:
400,88,38433,5,8,1:2:0:0:
400,88,38583,1,8,1:2:0:0:
481,127,38733,2,0,P|468:181|371:160,1,160,6|0,1:0|1:0,0:0:0:0:
315,81,39183,2,0,B|263:32|263:32|177:62,1,160,2|2,1:0|1:0,0:0:0:0:
4,309,39783,6,2,P|73:299|171:297,1,160,6|2,1:0|1:0,0:0:0:0:
246,257,40233,1,0,3:0:0:0:
216,173,40383,2,0,P|147:163|49:161,1,160,0|2,1:0|3:0,0:0:0:0:
36,174,40758,1,2,3:0:0:0:
36,174,40833,1,2,3:0:0:0:
12,81,40983,5,8,0:0:0:0:
12,81,41058,1,8,0:0:0:0:
12,81,41133,2,0,L|0:-9,1,80,4|0,1:0|0:0,0:0:0:0:
101,0,41433,2,0,L|113:90,1,80,2|0,3:0|0:0,0:0:0:0:
210,87,41733,2,0,L|198:-3,1,80,0|0,1:0|0:0,0:0:0:0:
291,2,42033,5,2,3:0:0:0:
337,79,42183,1,0,0:0:0:0:
430,56,42333,2,0,L|418:160,1,80,0|0,1:0|0:0,0:0:0:0:
408,225,42633,1,2,3:0:0:0:
478,298,42783,2,0,P|406:278|338:350,1,160,0|0,1:0|1:0,0:0:0:0:
272,267,43233,5,2,3:0:0:0:
272,267,43383,1,0,1:0:0:0:
243,352,43533,2,0,P|171:372|103:300,1,160,4|2,1:2|3:0,0:0:0:0:
23,358,43983,1,0,0:0:0:0:
33,261,44133,2,0,L|20:174,2,80,0|0|2,1:0|1:0|3:0,0:0:0:0:
124,219,44583,6,0,B|130:183|130:183|127:169|127:169|133:135,1,80,2|0,0:0|1:0,0:0:0:0:
188,61,44883,1,0,1:0:0:0:
268,104,45033,1,2,3:0:0:0:
357,60,45183,2,0,B|361:98|361:98|369:110|369:110|374:151,1,80,0|0,1:0|1:0,0:0:0:0:
435,204,45483,2,0,B|469:200|469:200|496:210|496:210|543:204,2,80,8|8|0,1:2|1:2|1:0,0:0:0:0:
358,262,45933,6,0,L|351:353,1,80,4|0,1:0|0:0,0:0:0:0:
255,359,46233,2,0,L|261:279,1,80,2|0,3:0|0:0,0:0:0:0:
163,299,46533,2,0,L|156:390,1,80,0|0,1:0|1:0,0:0:0:0:
62,353,46833,5,2,3:0:0:0:
70,264,46983,1,0,0:0:0:0:
140,202,47133,2,0,L|148:107,2,80,0|0|2,1:0|1:0|3:0,0:0:0:0:
163,299,47583,6,0,P|202:295|239:279,1,80,0|0,1:0|1:0,0:0:0:0:
332,286,47883,1,0,1:0:0:0:
393,212,48033,2,0,P|352:195|315:193,1,80,8|8,0:0|0:0,0:0:0:0:
244,134,48333,1,12,1:0:0:0:
47,93,49983,5,2,3:0:0:0:
47,93,50058,1,2,3:0:0:0:
47,93,50133,2,0,L|49:49,3,40,8|8|8|8,0:0|0:0|0:0|0:0,0:0:0:0:
71,114,50433,2,0,L|195:100,1,120,8|0,0:0|0:0,0:0:0:0:
212,115,50733,6,0,L|206:169,2,40,4|0|0,1:0|0:0|0:0,0:0:0:0:
288,56,51033,1,2,3:0:0:0:
367,104,51183,1,0,0:0:0:0:
464,82,51333,2,0,L|452:0,2,80,0|0|2,1:0|0:0|3:0,0:0:0:0:
452,185,51783,6,0,P|381:189|337:242,1,120,2|0,0:1|0:0,0:0:0:0:
342,242,52083,2,0,L|353:297,2,40,0|0|2,0:0|0:0|3:0,0:0:0:0:
255,207,52383,1,0,0:0:0:0:
210,286,52533,2,0,L|123:279,1,80,0|2,1:0|0:0,0:0:0:0:
86,188,52833,2,0,L|165:194,1,80,2|2,3:0|0:0,0:0:0:0:
216,118,53133,6,0,L|187:73,2,40,4|0|0,1:0|0:0|0:0,0:0:0:0:
312,124,53433,1,2,3:0:0:0:
387,62,53583,2,0,L|390:35,4,20,2|0|0|0|0,0:0|0:0|0:0|0:0|1:0,0:0:0:0:
455,144,53883,2,0,L|497:148,2,40,0|0|2,0:0|0:0|3:0,0:0:0:0:
374,208,54183,6,0,P|383:269|386:315,1,80,2|0,0:1|1:0,0:0:0:0:
366,373,54483,1,0,0:0:0:0:
296,312,54633,2,0,B|262:300|262:300|213:314,1,80,2|0,3:0|0:0,0:0:0:0:
134,347,54933,2,0,B|100:359|100:359|51:345,1,80,0|0,1:0|0:0,0:0:0:0:
9,272,55233,2,0,L|3:227,3,40,8|0|8|0,0:0|0:0|0:0|0:0,0:0:0:0:
32,210,55533,6,0,L|39:108,1,80,0|0,1:0|0:0,0:0:0:0:
96,53,55833,1,2,3:0:0:0:
168,111,55983,2,0,L|173:146,4,20,2|0|2|0|0,0:0|0:0|0:0|0:0|1:0,0:0:0:0:
239,48,56283,1,0,0:0:0:0:
315,103,56433,1,2,3:0:0:0:
406,77,56583,6,0,B|411:50|411:50|405:33|405:33|413:-5,1,80,2|0,0:1|1:0,0:0:0:0:
476,137,56883,2,0,B|481:164|481:164|475:181|475:181|483:219,1,80,2|2,0:0|3:0,0:0:0:0:
388,326,57183,2,0,B|393:299|393:299|387:282|387:282|395:244,1,80,2|0,0:0|1:0,0:0:0:0:
336,175,57483,1,2,0:0:0:0:
282,247,57633,2,0,B|263:240|263:240|250:243|242:246,3,40,0|0|0|0,1:0|1:0|1:0|1:0,0:0:0:0:
219,266,57933,6,0,B|214:318|235:291|223:358,1,80,4|0,1:0|0:0,0:0:0:0:
135,313,58233,1,2,3:0:0:0:
65,366,58383,1,0,0:0:0:0:
2,303,58533,2,0,L|4:283,4,20,2|0|0|0|0,1:2|0:0|0:0|0:0|0:0,0:0:0:0:
80,226,58833,2,0,B|78:169|63:198|55:132,1,80,2|0,3:0|0:0,0:0:0:0:
74,109,59058,1,0,0:0:0:0:
74,109,59133,2,0,L|79:63,2,40,2|2|2,3:2|0:0|0:0,0:0:0:0:
349,41,59583,6,0,B|368:31|368:31|398:33,5,40,2|2|2|2|2|2,3:0|3:0|3:0|3:0|3:0|3:0,0:0:0:0:
323,60,60033,6,0,L|282:57,3,40,8|8|8|8,0:0|0:0|0:0|0:0,0:0:0:0:
