osu file format v14

[General]
AudioFilename: audio.mp3
AudioLeadIn: 0
PreviewTime:30858
Countdown: 0
SampleSet: Soft
StackLeniency: 0.7
Mode: 0
LetterboxInBreaks: 0
WidescreenStoryboard: 1

[Editor]
DistanceSpacing: 1
BeatDivisor: 8
GridSize: 4
TimelineZoom: 3.399999

[Metadata]
Title:Kuuchuu Bunkai
TitleUnicode:空中分解
Artist:Three
ArtistUnicode:すりぃ
Creator:Ryuusei Aika
Version:Keitaro's Extra
Source:
Tags:Collage Japanese Rock J-Rock JRock Male Vocal Surii ボーカロイド ボカロ VOCALOID 鏡音レン Kagamine Len 真ひろ まめでん ま子 Akitoshi Ujimatcha -ClariS- Yorita Yoshino Yorita_Yoshino Dored Yugu Skyflame Cami wyrio Firika AncuL -Eriri- Laura -Laura- Corinn -Mikan Mikan Bazz Bazz_B X Light X_Light XLT Reform Kujinn Seto Kousuke Seto_Kousuke Djulus -MikanMyMommy gary00737 HabiHolic Haruto Haruto_Aizawa Armin A_r_M_i_N Agatsu Garden kanor Error- -Keitaro SnowNiNo_ Sylas TheKoala CoLouRed GlaZeE CoLouRed_GlaZeE caren_sk CRN
BeatmapID:1994530
BeatmapSetID:952132

[Difficulty]
HPDrainRate:5
CircleSize:4
OverallDifficulty:8.5
ApproachRate:9.5
SliderMultiplier:1.8
SliderTickRate:1

[Events]
//Background and Video events
Video,3,"video.mp4"
0,0,"BG.jpg",0,0
//Break Periods
//Storyboard Layer 0 (Background)
//Storyboard Layer 1 (Fail)
//Storyboard Layer 2 (Pass)
//Storyboard Layer 3 (Foreground)
//Storyboard Layer 4 (Overlay)
//Storyboard Sound Samples

[TimingPoints]
333,300,4,2,1,55,1,0
333,-166.666666666667,4,2,1,55,0,0
1158,-166.666666666667,4,2,0,5,0,0
1233,-83.3333333333333,4,2,1,99,0,0
1458,-83.3333333333333,4,2,1,5,0,0
1533,-100,4,2,1,77,0,0
1608,-100,4,2,0,5,0,0
1683,-100,4,2,1,77,0,0
3858,-100,4,2,0,5,0,0
3933,-100,4,2,1,77,0,0
4008,-100,4,2,0,5,0,0
4083,-100,4,2,1,77,0,0
5508,-100,4,2,0,5,0,0
5583,-100,4,2,1,77,0,0
5658,-100,4,2,0,5,0,0
5733,-100,4,2,1,77,0,0
6408,-100,4,2,0,5,0,0
6483,-100,4,2,1,77,0,0
8658,-100,4,2,0,5,0,0
8733,-100,4,2,1,77,0,0
8808,-100,4,2,0,5,0,0
8883,-100,4,2,1,77,0,0
11433,-100,4,2,0,44,0,0
15483,-142.857142857143,4,2,1,66,0,0
15558,-142.857142857143,4,2,0,5,0,0
15633,-100,4,2,1,66,0,0
15708,-100,4,2,0,5,0,0
15783,-66.6666666666667,4,2,1,66,0,0
15858,-66.6666666666667,4,2,0,5,0,0
15933,-66.6666666666667,4,2,1,55,0,0
16383,-125,4,2,1,55,0,0
20208,-125,4,2,1,5,0,0
20283,-66.6666666666667,4,2,1,77,0,0
20358,-66.6666666666667,4,2,0,5,0,0
20433,-66.6666666666667,4,2,1,77,0,0
20508,-66.6666666666667,4,2,0,5,0,0
20583,-66.6666666666667,4,2,1,77,0,0
20658,-66.6666666666667,4,2,0,5,0,0
20733,-111.111111111111,4,2,1,66,0,0
30333,-111.111111111111,4,2,88,55,0,0
30933,-71.4285714285714,4,2,88,77,0,0
31083,-71.4285714285714,4,2,88,5,0,0
31158,-71.4285714285714,4,2,88,77,0,0
31308,-71.4285714285714,4,2,88,5,0,0
31383,-71.4285714285714,4,2,88,77,0,0
31458,-71.4285714285714,4,2,88,5,0,0
31533,-83.3333333333333,4,2,1,99,0,0
31758,-83.3333333333333,4,2,1,5,0,0
31833,-83.3333333333333,4,2,1,99,0,0
36558,-83.3333333333333,4,2,1,5,0,0
36633,-83.3333333333333,4,2,1,99,0,0
36858,-83.3333333333333,4,2,1,5,0,0
36933,-83.3333333333333,4,2,1,99,0,0
39183,-100,4,2,1,99,0,0
39258,-83.3333333333333,4,2,1,5,0,0
39333,-83.3333333333333,4,2,1,99,0,0
39483,-100,4,2,1,99,0,0
39558,-83.3333333333333,4,2,1,5,0,0
39633,-83.3333333333333,4,2,1,99,0,0
39783,-71.4285714285714,4,2,1,99,0,0
40008,-83.3333333333333,4,2,1,5,0,0
40083,-83.3333333333333,4,2,1,99,0,0
41133,-83.3333333333333,4,2,1,99,0,0
41358,-83.3333333333333,4,2,1,5,0,0
41433,-83.3333333333333,4,2,1,99,0,0
46158,-83.3333333333333,4,2,1,5,0,0
46233,-83.3333333333333,4,2,1,99,0,0
46458,-83.3333333333333,4,2,1,5,0,0
46533,-83.3333333333333,4,2,1,99,0,0
48333,-66.6666666666667,4,2,99,99,0,0
48408,-66.6666666666667,4,2,0,5,0,0
49983,-66.6666666666667,4,2,99,77,0,0
50133,-100,4,2,1,88,0,0
50283,-100,4,2,1,88,0,0
50433,-100,4,2,1,88,0,0
50508,-100,4,2,0,5,0,0
50733,-100,4,2,1,77,0,0
50808,-100,4,2,0,5,0,0
50883,-100,4,2,1,77,0,0
52308,-100,4,2,0,5,0,0
52383,-100,4,2,1,77,0,0
52458,-100,4,2,0,5,0,0
52533,-100,4,2,1,77,0,0
53058,-100,4,2,0,5,0,0
53133,-100,4,2,1,77,0,0
53208,-100,4,2,0,5,0,0
53283,-100,4,2,1,77,0,0
55758,-100,4,2,0,5,0,0
55833,-100,4,2,1,77,0,0
55908,-100,4,2,0,5,0,0
55983,-100,4,2,1,77,0,0
56733,-50,4,2,1,77,0,0
56883,-100,4,2,1,77,0,0
57033,-50,4,2,1,77,0,0
57183,-100,4,2,1,77,0,0
57333,-66.6666666666667,4,2,1,77,0,0
57670,-66.6666666666667,4,2,0,5,0,0
57708,-66.6666666666667,4,2,1,77,0,0
57745,-66.6666666666667,4,2,0,5,0,0
57783,-66.6666666666667,4,2,1,77,0,0
57820,-66.6666666666667,4,2,0,5,0,0
57858,-66.6666666666667,4,2,1,77,0,0
57895,-66.6666666666667,4,2,0,5,0,0
57933,-100,4,2,1,77,0,0
58158,-100,4,2,0,5,0,0
58233,-100,4,2,1,77,0,0
59583,-66.6666666666667,4,2,1,77,0,0

[Colours]
Combo1 : 255,120,55
Combo2 : 0,49,98
Combo3 : 128,64,64

[HitObjects]
85,43,333,6,0,B|42:56|42:56|30:12,2,80.9999999999998,8|8|8,2:0|2:0|2:0,2:0:0:0:
158,18,933,6,0,P|165:60|176:108,1,80.9999999999998,8|0,2:0|2:0,2:0:0:0:
177,105,1233,6,2,B|260:85|232:172|338:140,1,162,2|0,2:0|2:0,3:0:0:0:
400,107,1533,6,0,P|387:86|351:79,1,45,4|0,1:0|2:0,2:0:0:0:
391,196,1683,1,0,2:0:0:0:
398,208,1758,1,0,2:0:0:0:
407,221,1833,2,0,P|457:220|492:177,1,90,2|0,3:0|2:0,2:0:0:0:
340,377,2133,1,0,1:0:0:0:
493,343,2283,2,0,P|432:325|380:347,1,90,0|2,2:0|3:0,2:0:0:0:
224,293,2583,6,0,P|286:286|336:389,1,180,2|0,2:1|2:0,2:0:0:0:
139,314,3033,2,0,P|129:266|166:232,1,90,2|0,3:0|2:0,2:0:0:0:
303,268,3333,2,0,P|313:316|276:350,1,90,0|0,1:0|2:0,2:0:0:0:
218,179,3633,1,2,3:0:0:0:
214,159,3708,1,0,2:0:0:0:
212,144,3783,2,0,L|202:89,1,45,0|0,2:0|2:0,2:0:0:0:
42,384,3933,6,0,L|52:329,1,45,0|0,1:0|2:0,2:0:0:0:
10,269,4083,1,0,2:0:0:0:
6,252,4158,1,0,2:0:0:0:
0,234,4233,2,0,P|48:232|85:279,1,90,2|0,3:0|2:0,2:0:0:0:
31,50,4533,1,0,1:0:0:0:
14,139,4683,2,0,P|24:82|33:43,1,90,0|2,2:0|3:0,2:0:0:0:
255,30,4983,6,0,P|152:24|114:99,1,180,2|0,2:1|2:0,2:0:0:0:
212,144,5433,6,0,L|273:130,1,45,2|0,3:0|2:0,2:0:0:0:
386,97,5583,2,0,L|342:107,1,45,0|0,2:0|2:0,2:0:0:0:
190,152,5733,5,0,1:0:0:0:
318,188,5883,1,0,2:0:0:0:
445,216,6033,1,8,3:2:0:0:
318,188,6183,1,8,2:0:0:0:
429,377,6333,6,0,L|482:367,1,45,4|0,1:0|2:0,2:0:0:0:
384,298,6483,1,0,2:0:0:0:
366,302,6558,1,0,2:0:0:0:
348,308,6633,2,0,P|326:357|343:392,1,90,2|0,3:0|2:0,2:0:0:0:
249,264,6933,1,0,1:0:0:0:
155,359,7083,2,0,L|268:368,1,90,0|2,2:0|3:0,2:0:0:0:
54,136,7383,6,0,B|-1:206|-1:206|51:291,1,180,2|0,2:1|2:0,2:0:0:0:
120,257,7833,2,0,B|144:215|144:215|120:169,1,90,2|0,3:0|2:0,2:0:0:0:
58,57,8133,2,0,B|34:99|34:99|58:145,1,90,0|0,1:0|2:0,2:0:0:0:
222,15,8433,5,2,3:0:0:0:
199,12,8508,1,0,2:0:0:0:
176,8,8583,2,0,L|122:-1,1,45,0|0,2:0|2:0,2:0:0:0:
296,118,8733,6,0,L|251:125,1,45,0|0,1:0|2:0,2:0:0:0:
386,171,8883,1,0,2:0:0:0:
409,168,8958,1,0,2:0:0:0:
439,164,9033,2,0,P|457:120|440:77,1,90,2|0,3:0|2:0,2:0:0:0:
298,217,9333,1,0,1:0:0:0:
509,265,9483,2,0,P|426:249|381:241,1,90,0|2,2:0|3:0,2:0:0:0:
206,323,9783,1,0,2:0:0:0:
322,376,9933,5,2,3:0:0:0:
312,298,10083,1,2,2:0:0:0:
105,310,10233,5,2,3:0:0:0:
119,197,10383,1,2,2:0:0:0:
420,248,10533,5,2,3:0:0:0:
427,205,10608,1,2,3:0:0:0:
435,161,10683,1,2,3:0:0:0:
40,192,10833,5,8,2:0:0:0:
33,149,10908,1,8,2:0:0:0:
25,105,10983,1,8,2:0:0:0:
16,55,11058,1,8,2:0:0:0:
8,8,11133,1,8,2:0:0:0:
256,192,11433,5,8,2:0:0:0:
256,192,12033,5,8,2:0:0:0:
256,192,12633,5,8,2:0:0:0:
256,192,13233,5,8,2:0:0:0:
256,192,13833,5,8,2:0:0:0:
256,192,14433,5,8,2:0:0:0:
256,192,15033,5,8,2:0:0:0:
436,372,15333,5,2,2:0:0:0:
436,372,15483,6,0,L|496:364,1,31.5,8|0,2:0|2:0,2:0:0:0:
416,296,15633,2,0,L|496:284,1,45,8|0,2:0|2:0,2:0:0:0:
396,220,15783,2,0,L|488:204,1,67.5,8|0,2:0|2:0,2:0:0:0:
80,32,15933,5,12,2:0:0:0:
80,32,16233,5,2,2:0:0:0:
136,100,16383,2,0,P|184:104|248:16,1,144,2|2,2:0|2:0,2:0:0:0:
246,39,16833,1,2,2:0:0:0:
246,39,17133,6,0,L|257:119,1,72,0|2,1:0|2:0,2:0:0:0:
337,99,17433,2,0,L|327:27,1,72,2|2,2:0|2:0,2:0:0:0:
53,270,17733,6,0,L|64:190,1,72,0|2,1:0|2:0,2:0:0:0:
144,210,17958,1,0,2:0:0:0:
144,210,18033,2,0,L|134:281,1,72,2|0,2:0|2:0,2:0:0:0:
410,377,18333,6,0,P|437:317|372:252,1,144,0|2,1:0|2:0,2:0:0:0:
395,257,18933,1,0,1:0:0:0:
319,298,19083,1,2,2:0:0:0:
252,242,19233,1,2,2:0:0:0:
285,158,19383,1,0,2:0:0:0:
375,168,19533,2,0,L|468:175,1,72,0|0,1:0|2:0,2:0:0:0:
446,173,19833,1,2,2:0:0:0:
333,49,19983,2,0,P|291:78|291:159,1,108,2|0,2:0|2:0,2:0:0:0:
285,158,20283,6,0,P|212:145|200:110,1,67.5,8|0,2:0|2:0,2:0:0:0:
155,27,20433,2,0,P|180:96|155:124,1,67.5,8|0,2:0|2:0,2:0:0:0:
106,205,20583,2,0,P|153:148|190:155,1,67.5,8|0,2:0|2:0,2:0:0:0:
171,384,20733,6,0,P|126:304|43:331,1,162,0|8,1:0|2:0,2:0:0:0:
66,309,21183,1,0,2:0:0:0:
285,158,21333,1,0,1:0:0:0:
285,158,21483,2,0,L|275:249,1,81.0000000000001,0|8,1:0|2:0,2:0:0:0:
431,371,21783,5,0,2:0:0:0:
431,371,21933,2,0,L|441:270,1,81.0000000000001,0|0,1:0|2:0,2:0:0:0:
365,213,22233,1,8,2:0:0:0:
278,312,22383,2,0,L|448:289,1,162,0|0,2:0|1:0,2:0:0:0:
438,290,22833,2,0,P|470:245|469:203,1,81.0000000000001,8|0,2:0|2:0,2:0:0:0:
318,0,23133,6,0,L|330:94,1,81.0000000000001,0|0,1:0|2:0,2:0:0:0:
411,80,23433,2,0,L|400:0,1,81.0000000000001,8|0,2:0|2:0,2:0:0:0:
180,155,23733,5,0,1:0:0:0:
191,237,23883,1,0,1:0:0:0:
275,226,24033,1,8,2:0:0:0:
264,144,24183,1,0,2:0:0:0:
113,94,24333,6,0,P|89:148|97:185,1,81.0000000000001,0|0,1:0|1:0,2:0:0:0:
180,155,24633,1,8,2:0:0:0:
0,201,24783,2,0,P|84:213|92:313,1,162,8|0,2:0|1:0,2:0:0:0:
74,362,25233,1,8,1:2:0:0:
113,94,25383,1,0,1:0:0:0:
343,133,25533,6,0,L|262:143,1,81.0000000000001,4|0,1:0|2:0,2:0:0:0:
272,229,25833,2,0,L|352:218,1,81.0000000000001,8|0,2:0|2:0,2:0:0:0:
352,218,26133,1,0,1:0:0:0:
262,143,26283,1,0,2:0:0:0:
280,312,26433,2,0,L|360:301,1,81.0000000000001,8|0,2:0|2:0,2:0:0:0:
452,85,26733,5,0,1:0:0:0:
443,166,26883,1,0,2:0:0:0:
432,247,27033,1,8,2:0:0:0:
491,309,27183,6,0,P|516:261|509:226,1,81.0000000000001,8|0,2:0|1:0,2:0:0:0:
352,218,27483,1,0,1:0:0:0:
363,304,27633,2,0,L|378:422,1,81.0000000000001,8|0,2:0|2:0,2:0:0:0:
18,237,27933,6,0,P|55:222|106:231,1,81.0000000000001,0|0,1:0|2:0,2:0:0:0:
102,307,28233,2,0,P|65:322|14:313,1,81.0000000000001,8|0,2:0|2:0,2:0:0:0:
172,39,28533,5,0,1:0:0:0:
185,122,28683,1,0,2:0:0:0:
273,112,28833,1,8,2:0:0:0:
260,29,28983,1,0,2:0:0:0:
185,122,29133,6,0,L|171:208,1,81.0000000000001,0|0,1:0|1:0,2:0:0:0:
232,271,29433,1,8,2:0:0:0:
307,227,29583,2,0,P|252:180|162:213,1,162,8|0,2:0|1:0,2:0:0:0:
171,201,30033,1,8,2:0:0:0:
305,316,30183,1,8,2:0:0:0:
260,29,30333,5,2,1:0:0:0:
260,29,30933,6,0,P|319:79|397:40,1,126,8|0,1:0|2:0,2:0:0:0:
512,75,31158,2,0,P|439:101|433:188,1,126,8|0,1:0|2:0,2:0:0:0:
348,213,31383,2,0,P|354:174|318:150,1,63,8|0,1:0|2:0,2:0:0:0:
28,144,31533,6,0,P|69:217|151:187,1,162,4|0,1:0|2:0,2:0:0:0:
128,124,31833,2,0,P|125:55|121:5,1,108,2|0,3:0|2:0,2:0:0:0:
122,16,32133,5,0,1:0:0:0:
202,162,32283,1,0,2:0:0:0:
24,371,32433,5,2,3:0:0:0:
85,313,32583,1,0,2:0:0:0:
170,337,32733,5,0,1:0:0:0:
170,337,32883,2,0,P|245:352|298:362,1,108,0|2,2:0|3:0,2:0:0:0:
512,137,33183,2,0,P|400:163|391:279,1,216,0|0,1:0|1:0,2:0:0:0:
378,250,33633,1,2,3:0:0:0:
462,269,33783,1,0,2:0:0:0:
259,0,33933,6,0,P|271:55|288:147,1,108,0|0,1:0|2:0,2:0:0:0:
280,105,34233,5,2,3:0:0:0:
152,85,34383,1,0,2:0:0:0:
193,284,34533,5,0,1:0:0:0:
64,304,34683,1,0,2:0:0:0:
378,250,34833,5,2,3:0:0:0:
410,341,34983,2,0,B|463:316|463:316|514:230|441:161,1,216,0|0,2:0|2:0,2:0:0:0:
378,250,35433,1,2,3:0:0:0:
484,84,35583,2,0,P|423:73|377:122,1,108,0|0,2:0|1:0,2:0:0:0:
256,384,35883,5,8,1:2:0:0:
256,192,36033,1,8,1:2:0:0:
256,0,36183,1,0,1:0:0:0:
24,172,36333,6,0,P|60:92|144:96,1,162,4|0,1:0|2:0,2:0:0:0:
128,172,36633,2,0,P|108:236|80:360,1,162,2|0,3:0|2:0,2:0:0:0:
164,352,36933,5,0,1:0:0:0:
126,86,37083,1,0,2:0:0:0:
208,116,37233,5,2,3:0:0:0:
236,308,37383,1,0,2:0:0:0:
300,256,37533,6,0,P|376:264|436:272,1,108,0|0,1:0|2:0,2:0:0:0:
407,267,37833,1,2,3:0:0:0:
504,84,37983,6,0,P|412:84|368:200,1,216,0|0,1:0|1:0,2:0:0:0:
480,344,38433,1,8,1:2:0:0:
464,180,38583,1,8,1:2:0:0:
184,336,38733,5,6,1:0:0:0:
92,316,38883,1,0,2:0:0:0:
12,292,39033,1,0,1:0:0:0:
104,64,39183,6,0,L|120:-4,1,45,2|0,1:0|2:0,2:0:0:0:
192,40,39483,6,0,L|181:83,1,45,2|0,1:0|2:0,2:0:0:0:
228,144,39783,6,2,B|328:144|284:48|388:48,1,189,6|0,1:0|2:0,2:1:0:0:
452,92,40083,1,2,1:0:0:0:
380,372,40233,5,0,3:0:0:0:
320,316,40383,1,0,1:0:0:0:
293,299,40458,1,0,1:0:0:0:
262,296,40533,1,0,1:0:0:0:
436,308,40683,1,2,3:0:0:0:
462,291,40758,1,2,3:0:0:0:
493,288,40833,1,2,3:0:0:0:
372,240,40983,1,8,2:0:0:0:
369,208,41058,1,8,2:0:0:0:
367,177,41133,6,0,B|280:196|312:100|192:132,1,162,4|0,1:0|2:0,2:0:0:0:
152,88,41433,2,0,B|129:100|129:100|133:157|133:157|167:176,1,108,2|0,3:0|2:0,2:0:0:0:
222,126,41733,5,0,1:0:0:0:
32,368,41883,1,0,2:0:0:0:
208,336,42033,5,2,3:0:0:0:
168,264,42183,1,0,2:0:0:0:
255,263,42333,6,0,P|325:272|376:277,1,108,0|0,1:0|2:0,2:0:0:0:
362,275,42633,1,2,3:0:0:0:
168,264,42783,6,0,P|163:176|38:169,1,216,0|0,1:0|1:0,2:0:0:0:
53,156,43233,1,2,3:0:0:0:
24,73,43383,1,0,1:0:0:0:
225,0,43533,6,0,L|212:109,1,108,4|0,1:2|2:0,2:0:0:0:
212,107,43833,5,2,3:0:0:0:
321,92,43983,1,0,2:0:0:0:
285,261,44133,5,0,1:0:0:0:
394,276,44283,1,0,1:0:0:0:
503,291,44433,1,2,3:0:0:0:
323,362,44583,6,0,B|209:372|209:372|146:351|158:284,1,216,2|0,2:0|1:0,2:0:0:0:
285,261,45033,1,2,3:0:0:0:
70,321,45183,2,0,P|76:252|125:220,1,108,0|0,1:0|1:0,2:0:0:0:
256,0,45483,5,8,1:2:0:0:
256,192,45633,1,8,1:2:0:0:
256,384,45783,1,0,1:0:0:0:
467,98,45933,6,0,B|471:42|471:42|436:11|387:6|347:47,1,162,4|0,1:0|2:0,2:0:0:0:
305,114,46233,2,0,P|383:105|498:96,1,162,2|0,3:0|2:0,2:0:0:0:
510,162,46533,5,0,1:0:0:0:
472,384,46683,1,0,1:0:0:0:
379,333,46833,5,2,3:0:0:0:
353,196,46983,1,0,2:0:0:0:
256,0,47133,5,0,1:0:0:0:
219,97,47283,1,0,1:0:0:0:
117,173,47433,1,2,3:0:0:0:
3,169,47583,2,0,P|9:105|63:83,1,108,0|0,1:0|1:0,2:0:0:0:
255,313,47883,5,0,1:0:0:0:
0,288,48033,1,8,2:0:0:0:
255,313,48183,1,8,2:0:0:0:
512,288,48333,2,0,L|503:202,1,67.5,12|0,1:0|2:0,2:0:0:0:
148,10,49983,5,2,3:0:0:0:
143,30,50058,1,2,3:0:0:0:
138,47,50133,2,0,L|124:107,1,45,8|8,2:0|2:0,2:0:0:0:
227,155,50283,2,0,L|216:111,1,45,8|8,2:0|2:0,2:0:0:0:
56,37,50433,2,0,L|23:197,1,135,8|0,2:0|2:0,2:0:0:0:
89,227,50733,6,0,P|109:199|104:157,1,45,4|0,1:0|2:0,2:0:0:0:
9,260,50883,1,0,2:0:0:0:
14,276,50958,1,2,2:0:0:0:
20,291,51033,2,0,P|59:316|111:308,1,90,2|0,3:0|2:0,2:0:0:0:
227,155,51333,1,0,1:0:0:0:
199,383,51483,2,0,L|191:280,1,90,0|2,2:0|3:0,2:0:0:0:
468,184,51783,6,0,B|368:169|400:274|298:245,1,180,2|0,2:1|2:0,2:0:0:0:
227,155,52233,6,0,L|218:84,1,45,2|0,3:0|2:0,2:0:0:0:
179,0,52383,2,0,L|184:44,1,45,0|0,2:0|2:0,2:0:0:0:
231,176,52533,5,0,1:0:0:0:
292,51,52683,1,2,2:0:0:0:
143,115,52833,5,2,3:0:0:0:
120,122,52908,1,0,2:0:0:0:
97,130,52983,2,0,L|29:152,1,45,2|0,2:0|2:0,2:0:0:0:
62,365,53133,6,0,L|-5:354,1,45,4|0,1:0|2:0,2:0:0:0:
144,300,53283,1,0,2:0:0:0:
166,302,53358,1,0,2:0:0:0:
188,305,53433,1,2,3:0:0:0:
257,354,53583,2,0,L|255:390,4,22.5,2|0|2|0|0,2:0|2:0|2:0|2:0|1:0,2:0:0:0:
267,174,53883,2,0,L|261:274,1,90,0|2,2:0|3:0,2:0:0:0:
506,339,54183,6,0,P|492:273|374:267,1,180,2|0,2:1|2:0,2:0:0:0:
392,252,54633,5,2,3:0:0:0:
512,167,54783,1,0,2:0:0:0:
377,264,54933,5,0,1:0:0:0:
460,73,55083,1,0,2:0:0:0:
358,277,55233,5,8,2:0:0:0:
324,16,55383,1,8,2:0:0:0:
242,66,55533,6,0,B|164:77|190:12|106:29,1,135,0|0,1:0|2:0,2:0:0:0:
54,84,55833,2,0,P|83:106|108:98,1,45,2|0,3:0|2:0,2:0:0:0:
198,196,55983,6,0,L|167:194,3,22.5,2|0|2|0,2:0|2:0|2:0|2:0,2:0:0:0:
222,198,56133,2,0,B|238:247|238:247|220:290,1,90,0|0,1:0|2:0,2:0:0:0:
119,375,56433,1,2,3:0:0:0:
33,270,56583,1,2,2:1:0:0:
22,247,56658,1,0,2:0:0:0:
10,223,56733,6,0,P|59:210|104:264,1,90,0|0,1:0|2:0,2:0:0:0:
148,281,56883,2,0,L|144:312,2,22.5,2|0|2,2:0|2:0|2:0,2:0:0:0:
349,111,57033,6,0,P|299:98|258:142,1,90,2|0,3:0|2:0,2:0:0:0:
219,175,57183,2,0,L|223:206,2,22.5,2|0|2,2:0|2:0|2:0,2:0:0:0:
17,25,57333,6,0,B|49:7|49:7|98:29,1,67.5000025749208,0|0,1:0|2:0,2:0:0:0:
146,62,57483,2,0,L|156:149,1,67.5000025749208,2|0,2:0|2:0,2:0:0:0:
256,384,57633,6,0,L|252:342,1,33.75,0|0,1:0|2:0,2:0:0:0:
265,381,57708,2,0,L|261:339,1,33.75,0|0,1:0|2:0,2:0:0:0:
274,378,57783,2,0,L|270:336,1,33.75,0|0,1:0|2:0,2:0:0:0:
283,375,57858,2,0,L|279:333,1,33.75,0|0,1:0|2:0,2:0:0:0:
339,269,57933,6,0,P|391:256|431:326,1,135,4|0,1:0|2:0,2:0:0:0:
484,380,58233,2,0,P|514:344|514:299,1,90,2|0,3:0|2:0,2:0:0:0:
323,180,58533,2,0,L|341:280,1,90,2|0,1:2|2:0,2:0:0:0:
472,85,58833,1,2,3:0:0:0:
162,64,58983,5,0,2:0:0:0:
195,31,59058,1,0,2:0:0:0:
239,22,59133,1,2,3:2:0:0:
272,45,59208,1,2,2:0:0:0:
274,73,59283,1,2,2:0:0:0:
263,86,59358,1,2,2:0:0:0:
254,91,59433,1,2,2:0:0:0:
254,91,59583,6,0,L|174:81,1,67.5,2|2,3:0|3:0,2:0:0:0:
88,129,59733,2,0,L|8:119,1,67.5,2|2,3:0|3:0,2:0:0:0:
280,332,59883,6,0,L|360:322,1,67.5,2|2,3:0|3:0,2:0:0:0:
446,370,60033,2,0,L|526:360,1,67.5,8|8,2:0|2:0,2:0:0:0:
262,171,60183,5,8,2:0:0:0:
268,250,60258,1,8,2:0:0:0:
