osu file format v14

[General]
AudioFilename: audio.mp3
AudioLeadIn: 0
PreviewTime:30858
Countdown: 0
SampleSet: Soft
StackLeniency: 1
Mode: 0
LetterboxInBreaks: 0
WidescreenStoryboard: 1

[Editor]
DistanceSpacing: 1.3
BeatDivisor: 4
GridSize: 4
TimelineZoom: 1.999999

[Metadata]
Title:Kuuchuu Bunkai
TitleUnicode:空中分解
Artist:Three
ArtistUnicode:すりぃ
Creator:Ryuusei Aika
Version:Insane
Source:
Tags:Collage Japanese Rock J-Rock JRock Male Vocal Surii ボーカロイド ボカロ VOCALOID 鏡音レン Kagamine Len 真ひろ まめでん ま子 Akitoshi Ujimatcha -ClariS- Yorita Yoshino Yorita_Yoshino Dored Yugu Skyflame Cami wyrio Firika AncuL -Eriri- Laura -Laura- Corinn -Mikan Mikan Bazz Bazz_B X Light X_Light XLT Reform Kujinn Seto Kousuke Seto_Kousuke Djulus -MikanMyMommy gary00737 HabiHolic Haruto Haruto_Aizawa Armin A_r_M_i_N Agatsu Garden kanor Error- -Keitaro SnowNiNo_ Sylas TheKoala CoLouRed GlaZeE CoLouRed_GlaZeE caren_sk CRN
BeatmapID:3023134
BeatmapSetID:952132

[Difficulty]
HPDrainRate:5
CircleSize:4
OverallDifficulty:7
ApproachRate:8
SliderMultiplier:1.6
SliderTickRate:1

[Events]
//Background and Video events
Video,3,"video.mp4"
0,0,"BG.jpg",0,0
//Break Periods
2,48533,49233
//Storyboard Layer 0 (Background)
//Storyboard Layer 1 (Fail)
//Storyboard Layer 2 (Pass)
//Storyboard Layer 3 (Foreground)
//Storyboard Layer 4 (Overlay)
//Storyboard Sound Samples

[TimingPoints]
333,300,4,2,1,55,1,0
333,-133.333333333333,4,2,1,55,0,0
1233,-100,4,2,1,99,0,0
1533,-100,4,2,1,77,0,0
11433,-100,4,2,0,44,0,0
15483,-100,4,2,1,66,0,0
15933,-133.333333333333,4,2,1,55,0,0
20283,-133.333333333333,4,2,1,77,0,0
20733,-117.647058823529,4,2,1,66,0,0
30333,-117.647058823529,4,2,88,55,0,0
30933,-117.647058823529,4,2,88,77,0,0
31533,-90.9090909090909,4,2,1,99,0,0
48333,-90.9090909090909,4,2,99,99,0,0
48633,-90.9090909090909,4,2,1,77,0,0
50133,-90.9090909090909,4,2,1,88,0,0
50733,-100,4,2,1,77,0,0

[Colours]
Combo1 : 255,120,55
Combo2 : 0,49,98
Combo3 : 128,64,64

[HitObjects]
0,92,333,5,8,2:0:0:0:
0,92,558,5,8,2:0:0:0:
0,92,783,6,0,L|0:158,1,60.0000022888184,8|8,2:0|2:0,0:0:0:0:
0,376,1233,6,2,L|0:256,1,120,2|0,0:0|0:0,3:3:0:0:
0,236,1533,6,0,L|100:236,1,80,4|0,1:0|0:0,0:0:0:0:
80,248,1758,1,0,0:0:0:0:
80,260,1833,2,0,L|180:260,1,80,2|0,3:0|0:0,0:0:0:0:
160,364,2133,1,0,1:0:0:0:
216,312,2283,2,0,L|316:312,1,80,0|2,0:0|3:0,0:0:0:0:
432,364,2583,5,2,0:1:0:0:
432,364,2658,1,0,0:0:0:0:
432,364,2733,2,0,L|432:268,1,80,0|0,1:0|0:0,0:0:0:0:
360,192,3033,2,0,L|360:280,1,80,2|0,3:0|0:0,0:0:0:0:
448,360,3333,2,0,L|448:264,1,80,0|0,1:0|0:0,0:0:0:0:
376,188,3633,2,0,L|376:232,2,40,2|0|0,3:0|0:0|0:0,0:0:0:0:
448,204,3933,5,0,1:0:0:0:
448,188,4008,1,0,0:0:0:0:
448,172,4083,1,0,0:0:0:0:
332,124,4233,2,0,L|332:28,1,80,2|0,3:0|0:0,0:0:0:0:
488,96,4533,1,0,1:0:0:0:
488,96,4683,2,0,L|408:96,1,80,0|2,0:0|3:0,0:0:0:0:
260,96,4983,5,2,0:1:0:0:
260,96,5058,1,0,0:0:0:0:
260,96,5133,2,0,L|172:96,1,80,0|0,1:0|0:0,0:0:0:0:
308,200,5433,2,0,L|220:200,1,80,2|0,3:0|0:0,0:0:0:0:
104,96,5733,1,0,1:0:0:0:
104,96,5808,1,0,0:0:0:0:
104,96,5883,1,0,0:0:0:0:
152,200,6033,2,2,L|152:348,1,120,8|0,3:2|0:0,0:1:0:0:
136,320,6333,6,0,L|136:372,2,40,4|0|0,1:0|0:0|0:0,0:0:0:0:
80,272,6633,2,0,L|0:272,1,80,2|0,3:0|0:0,0:0:0:0:
212,364,6933,1,0,1:0:0:0:
212,364,7083,2,0,L|308:364,1,80,0|2,0:0|3:0,0:0:0:0:
476,364,7383,5,2,0:1:0:0:
460,364,7458,1,0,0:0:0:0:
444,364,7533,2,0,L|444:284,1,80,0|0,1:0|0:0,0:0:0:0:
292,212,7833,2,0,L|292:292,1,80,2|0,3:0|0:0,0:0:0:0:
368,364,8133,2,0,L|368:284,2,80,0|0|2,1:0|0:0|3:0,0:0:0:0:
444,284,8583,1,0,0:0:0:0:
368,96,8733,6,0,L|368:176,1,80,0|0,1:0|0:0,0:0:0:0:
368,192,8958,1,0,0:0:0:0:
368,208,9033,2,0,L|468:208,1,80,2|0,3:0|0:0,0:0:0:0:
448,96,9333,2,0,L|364:96,2,80,0|0|2,1:0|0:0|3:0,0:0:0:0:
508,160,9783,1,0,0:0:0:0:
508,160,9858,1,0,0:0:0:0:
508,160,9933,1,2,3:0:0:0:
512,52,10083,1,2,0:0:0:0:
512,52,10158,1,2,0:0:0:0:
512,52,10233,1,2,3:0:0:0:
436,20,10383,5,2,0:0:0:0:
436,20,10458,1,2,0:0:0:0:
436,20,10533,1,2,3:0:0:0:
412,20,10608,1,0,0:0:0:0:
388,20,10683,1,2,3:0:0:0:
312,44,10833,1,8,0:0:0:0:
280,44,10908,1,8,0:0:0:0:
248,44,10983,1,8,0:0:0:0:
216,44,11058,1,8,0:0:0:0:
184,44,11133,1,8,0:0:0:0:
188,224,11433,5,8,0:0:0:0:
264,224,12033,1,8,0:0:0:0:
340,224,12633,1,8,0:0:0:0:
416,224,13233,1,8,0:0:0:0:
340,148,13833,5,8,0:0:0:0:
340,224,14433,1,8,0:0:0:0:
340,300,15033,1,8,0:0:0:0:
340,376,15333,5,2,0:0:0:0:
264,300,15483,1,8,0:0:0:0:
188,376,15633,1,8,0:0:0:0:
112,300,15783,1,8,0:0:0:0:
36,376,15933,2,0,L|36:248,1,120.000004577637,12|2,0:0|0:0,0:0:0:0:
36,256,16383,1,2,0:0:0:0:
40,72,16683,2,0,L|40:136,1,60.0000022888184,2|2,0:0|0:0,0:0:0:0:
120,260,17133,5,0,1:0:0:0:
120,260,17283,1,2,0:0:0:0:
120,260,17433,2,0,L|120:324,1,60.0000022888184,2|2,0:0|0:0,0:0:0:0:
120,72,17883,2,0,L|120:136,1,60.0000022888184,2|2,0:0|0:0,0:0:0:0:
204,328,18333,6,0,L|204:208,1,120.000004577637,0|2,1:0|0:0,0:0:0:0:
204,328,18783,1,2,0:0:0:0:
200,72,19083,2,0,L|200:136,1,60.0000022888184,2|2,0:0|0:0,0:0:0:0:
280,328,19533,6,0,L|280:264,1,60.0000022888184,0|0,1:0|0:0,0:0:0:0:
280,132,19833,1,2,0:0:0:0:
280,132,19983,2,0,L|280:72,1,60.0000022888184,2|0,0:0|1:0,0:0:0:0:
320,200,20283,5,8,0:0:0:0:
400,200,20433,1,8,0:0:0:0:
480,200,20583,1,8,0:0:0:0:
360,264,20733,6,0,L|360:333,2,68.0000012969971,0|0|8,1:0|0:0|0:0,0:0:0:0:
440,264,21183,1,0,0:0:0:0:
440,332,21333,2,0,L|440:264,1,68.0000012969971,0|0,1:0|1:0,0:0:0:0:
440,136,21633,1,8,0:0:0:0:
440,136,21783,1,0,0:0:0:0:
436,56,21933,2,0,L|364:56,1,68.0000012969971,0|0,1:0|0:0,0:0:0:0:
232,136,22233,1,8,0:0:0:0:
368,136,22383,2,0,L|224:136,1,136.000002593994,0|0,0:0|1:0,0:0:0:0:
296,56,22833,2,0,L|224:56,1,68.0000012969971,8|0,0:0|0:0,0:0:0:0:
152,192,23133,6,0,L|152:36,2,136.000002593994,0|8|0,1:0|0:0|1:0,0:0:0:0:
76,124,23883,2,0,L|76:216,2,68.0000012969971,0|8|0,1:0|0:0|0:0,0:0:0:0:
0,192,24333,1,0,1:0:0:0:
40,260,24483,1,0,1:0:0:0:
0,328,24633,1,8,0:0:0:0:
212,328,24783,2,0,L|76:328,1,136.000002593994,8|0,0:0|1:0,0:0:0:0:
144,292,25233,2,0,L|144:380,1,68.0000012969971,8|0,1:2|1:0,0:0:0:0:
288,252,25533,6,0,L|288:184,2,68.0000012969971,4|0|8,1:0|0:0|0:0,0:0:0:0:
288,328,25983,1,0,0:0:0:0:
364,252,26133,1,0,1:0:0:0:
364,328,26283,2,0,L|508:328,1,136.000002593994
500,184,26733,2,0,L|500:252,1,68.0000012969971,0|0,1:0|0:0,0:0:0:0:
432,328,27033,1,8,0:0:0:0:
364,252,27183,1,8,0:0:0:0:
288,40,27483,2,0,L|288:108,2,68.0000012969971,0|8|0,1:0|0:0|0:0,0:0:0:0:
512,44,27933,6,0,L|436:44,1,68.0000012969971,0|0,1:0|0:0,0:0:0:0:
444,44,28233,2,0,L|444:120,1,68.0000012969971,8|0,0:0|0:0,0:0:0:0:
444,112,28533,2,0,L|368:112,1,68.0000012969971,0|0,1:0|0:0,0:0:0:0:
376,112,28833,2,0,L|376:264,1,136.000002593994,8|0,0:0|1:0,0:0:0:0:
376,248,29283,1,0,1:0:0:0:
232,252,29433,1,8,0:0:0:0:
304,252,29583,2,0,L|304:332,1,68.0000012969971,8|0,0:0|0:0,0:0:0:0:
160,252,29883,1,0,1:0:0:0:
16,252,30033,1,8,0:0:0:0:
88,252,30183,1,8,0:0:0:0:
88,176,30333,6,0,L|88:96,1,68.0000012969971,2|0,1:0|0:0,0:0:0:0:
88,108,30933,5,8,1:0:0:0:
212,112,31158,5,8,1:0:0:0:
336,112,31383,5,8,1:0:0:0:
440,112,31533,2,0,B|440:156|440:156|392:156,1,88.000002685547,4|0,1:0|0:0,0:0:0:0:
248,216,31833,2,0,B|248:172|248:172|296:172,1,88.000002685547,2|0,3:0|0:0,0:0:0:0:
372,288,32133,2,0,B|308:352|308:352|244:288,1,176.000005371094,0|2,1:0|3:0,0:0:0:0:
424,232,32583,1,0,0:0:0:0:
424,232,32733,2,0,L|492:300,2,88.000002685547,0|0|2,1:0|0:0|3:0,0:0:0:0:
172,236,33183,2,0,L|36:372,1,176.000005371094,0|0,1:0|1:0,0:0:0:0:
60,236,33633,2,0,L|148:236,1,88.000002685547,2|0,3:0|0:0,0:0:0:0:
8,292,33933,6,0,L|8:104,1,176.000005371094,0|2,1:0|3:0,0:0:0:0:
8,36,34383,1,0,0:0:0:0:
88,116,34533,1,0,1:0:0:0:
88,36,34683,1,0,0:0:0:0:
168,116,34833,1,2,3:0:0:0:
168,36,34983,2,0,L|280:36,2,88.000002685547,0|0|0,0:0|1:0|0:0,0:0:0:0:
336,36,35433,1,2,3:0:0:0:
336,36,35583,2,0,L|336:144,1,88.000002685547,0|0,1:0|1:0,0:0:0:0:
336,356,35883,1,8,1:2:0:0:
336,268,36033,2,0,L|336:376,1,88.000002685547,8|0,1:2|1:0,0:0:0:0:
388,176,36333,6,0,L|456:244,1,88.000002685547,4|0,1:0|0:0,0:0:0:0:
220,152,36633,2,0,L|288:220,1,88.000002685547,2|0,3:0|0:0,0:0:0:0:
52,128,36933,2,0,L|120:196,2,88.000002685547,0|0|2,1:0|0:0|3:0,0:0:0:0:
168,244,37383,1,0,0:0:0:0:
60,352,37533,1,0,1:0:0:0:
0,304,37683,2,0,B|60:243|60:243|124:307,1,176.000005371094,0|0,0:0|1:0,0:0:0:0:
123,306,38133,1,0,1:0:0:0:
232,312,38283,5,0,1:0:0:0:
292,252,38433,1,8,1:2:0:0:
352,192,38583,1,8,1:2:0:0:
404,128,38733,6,0,L|492:128,2,88.000002685547,6|0|0,1:0|0:0|1:0,0:0:0:0:
300,128,39183,1,2,1:0:0:0:
492,312,39483,1,2,1:0:0:0:
492,52,39783,2,2,L|388:52,1,88.000002685547,6|0,1:0|0:0,0:1:0:0:
240,52,40083,1,2,1:0:0:0:
328,52,40233,6,0,L|224:52,1,88.000002685547,0|0,3:0|1:0,0:0:0:0:
208,52,40458,1,0,1:0:0:0:
176,52,40533,1,0,1:0:0:0:
172,140,40683,1,2,3:0:0:0:
136,140,40758,1,2,3:0:0:0:
100,140,40833,1,2,3:0:0:0:
100,240,40983,1,8,0:0:0:0:
56,240,41058,1,8,0:0:0:0:
12,240,41133,1,4,1:0:0:0:
180,372,41433,6,0,L|242:309,1,88.000002685547,2|0,3:0|0:0,0:0:0:0:
72,372,41733,2,0,L|212:232,1,176.000005371094,0|2,1:0|3:0,0:0:0:0:
380,372,42183,1,0,0:0:0:0:
380,372,42333,2,0,L|317:309,2,88.000002685547,0|0|2,1:0|0:0|3:0,0:0:0:0:
363,247,42783,2,0,L|488:372,1,176.000005371094,0|0,1:0|1:0,0:0:0:0:
380,248,43233,2,0,L|468:248,1,88.000002685547,2|0,3:0|1:0,0:0:0:0:
288,308,43533,6,0,L|288:120,1,176.000005371094,4|2,1:2|3:0,0:0:0:0:
288,52,43983,1,0,0:0:0:0:
208,132,44133,1,0,1:0:0:0:
208,52,44283,1,0,1:0:0:0:
128,132,44433,1,2,3:0:0:0:
128,52,44583,2,0,L|128:232,1,176.000005371094,2|0,0:0|1:0,0:0:0:0:
52,132,45033,1,2,3:0:0:0:
52,132,45183,2,0,L|-12:196,1,88.000002685547,0|0,1:0|1:0,0:0:0:0:
72,288,45483,1,8,1:2:0:0:
132,348,45633,1,8,1:2:0:0:
200,308,45783,1,0,1:0:0:0:
284,260,45933,6,0,B|252:228|252:228|200:228,1,88.000002685547,4|0,1:0|0:0,0:0:0:0:
404,356,46233,2,0,B|372:324|372:324|320:324,1,88.000002685547,2|0,3:0|0:0,0:0:0:0:
324,192,46533,2,0,B|356:160|356:160|400:160,2,88.000002685547,0|0|2,1:0|1:0|3:0,0:0:0:0:
324,92,46983,1,0,0:0:0:0:
324,16,47133,2,0,L|232:16,2,88.000002685547,0|0|2,1:0|1:0|3:0,0:0:0:0:
460,80,47583,2,0,L|396:16,1,88.000002685547,0|0,1:0|1:0,0:0:0:0:
512,136,47883,5,0,1:0:0:0:
512,216,48033,1,8,0:0:0:0:
512,296,48183,1,8,0:0:0:0:
512,376,48333,1,12,1:0:0:0:
432,376,49983,6,0,L|396:340,1,44.0000013427735,2|2,3:0|3:0,0:0:0:0:
360,376,50133,2,0,L|324:340,1,44.0000013427735,8|8,0:0|0:0,0:0:0:0:
288,376,50283,2,0,L|252:340,1,44.0000013427735,8|8,0:0|0:0,0:0:0:0:
216,376,50433,1,8,0:0:0:0:
68,216,50733,6,0,L|68:376,1,160,4|2,1:0|3:0,0:0:0:0:
144,376,51183,1,0,0:0:0:0:
144,220,51333,2,0,L|144:300,1,80,0|0,1:0|0:0,0:0:0:0:
144,144,51633,2,0,L|144:64,1,80,2|2,3:0|0:1,0:0:0:0:
144,144,51933,1,0,1:0:0:0:
224,144,52083,1,0,0:0:0:0:
304,144,52233,1,2,3:0:0:0:
384,144,52383,2,0,L|452:212,1,80,0|0,0:0|1:0,0:0:0:0:
360,280,52683,2,0,L|300:220,2,80,2|2|2,0:0|3:0|0:0,0:0:0:0:
416,336,53133,5,4,1:0:0:0:
412,72,53433,1,2,3:0:0:0:
336,72,53583,1,2,0:0:0:0:
324,60,53658,1,0,0:0:0:0:
312,48,53733,1,0,1:0:0:0:
236,48,53883,1,0,0:0:0:0:
224,36,53958,1,0,0:0:0:0:
212,24,54033,1,2,3:0:0:0:
204,116,54183,1,2,0:1:0:0:
128,16,54333,5,0,1:0:0:0:
132,20,54483,2,0,L|8:144,1,160
20,312,54933,1,0,1:0:0:0:
20,236,55083,2,0,L|84:172,2,80,0|8|8,0:0|0:0|0:0,0:0:0:0:
132,228,55533,2,0,L|292:228,1,160,0|2,1:0|3:0,0:0:0:0:
212,208,55983,2,0,L|212:260,2,40,2|2|0,0:0|0:0|1:0,0:0:0:0:
96,312,56283,1,0,0:0:0:0:
100,316,56433,2,0,L|188:316,1,80,2|2,3:0|0:1,0:0:0:0:
232,372,56733,5,0,1:0:0:0:
304,320,56883,2,0,L|336:287,2,40,2|2|2,0:0|0:0|3:0,0:0:0:0:
408,280,57183,2,0,L|440:247,2,40,2|2|0,0:0|0:0|1:0,0:0:0:0:
512,240,57483,1,2,0:0:0:0:
512,160,57633,5,0,1:0:0:0:
512,160,57708,1,0,1:0:0:0:
512,160,57783,1,0,1:0:0:0:
512,160,57858,1,0,1:0:0:0:
512,160,57933,2,0,L|348:160,1,160,4|2,1:0|3:0,0:0:0:0:
352,84,58383,2,0,L|272:84,1,80,0|2,0:0|1:2,0:0:0:0:
260,84,58608,1,0,0:0:0:0:
248,84,58683,1,0,0:0:0:0:
408,28,58833,2,0,L|464:84,1,80,2|0,3:0|0:0,0:0:0:0:
196,28,59133,6,0,B|180:28|180:28|180:44|180:44|164:44|164:44|164:60|164:60|148:60|148:60|148:76|148:76|132:76|132:76|132:92|132:92|116:92|116:92|116:108,1,160,2|2,3:2|0:0,0:0:0:0:
116,224,59583,1,2,3:0:0:0:
116,252,59658,1,2,3:0:0:0:
116,280,59733,2,0,L|156:320,1,40,2|2,3:0|3:0,0:0:0:0:
204,260,59883,2,0,L|244:300,1,40,2|2,3:0|3:0,0:0:0:0:
256,312,60033,1,8,0:0:0:0:
344,292,60183,1,8,0:0:0:0:
