osu file format v14

[General]
AudioFilename: audio.mp3
AudioLeadIn: 0
PreviewTime: 30858
Countdown: 0
SampleSet: Soft
StackLeniency: 0.4
Mode: 0
LetterboxInBreaks: 0
WidescreenStoryboard: 1

[Editor]
Bookmarks: 15783
DistanceSpacing: 0.3
BeatDivisor: 4
GridSize: 32
TimelineZoom: 3.399999

[Metadata]
Title:Kuuchuu Bunkai
TitleUnicode:空中分解
Artist:Three
ArtistUnicode:すりぃ
Creator:Ryuusei Aika
Version:Haruto's Extra
Source:
Tags:Collage Japanese Rock J-Rock JRock Male Vocal Surii ボーカロイド ボカロ VOCALOID 鏡音レン Kagamine Len 真ひろ まめでん ま子 Akitoshi Ujimatcha -ClariS- Yorita Yoshino Yorita_Yoshino Dored Yugu Skyflame Cami wyrio Firika AncuL -Eriri- Laura -Laura- Corinn -Mikan Mikan Bazz Bazz_B X Light X_Light XLT Reform Kujinn Seto Kousuke Seto_Kousuke Djulus -MikanMyMommy gary00737 HabiHolic Haruto Haruto_Aizawa Armin A_r_M_i_N Agatsu Garden kanor Error- -Keitaro SnowNiNo_ Sylas TheKoala CoLouRed GlaZeE CoLouRed_GlaZeE caren_sk CRN
BeatmapID:2003531
BeatmapSetID:952132

[Difficulty]
HPDrainRate:6
CircleSize:3.6
OverallDifficulty:8.7
ApproachRate:9.5
SliderMultiplier:1.76
SliderTickRate:1

[Events]
//Background and Video events
Video,3,"video.mp4"
0,0,"BG.jpg",0,0
//Break Periods
2,48533,49458
//Storyboard Layer 0 (Background)
//Storyboard Layer 1 (Fail)
//Storyboard Layer 2 (Pass)
//Storyboard Layer 3 (Foreground)
//Storyboard Layer 4 (Overlay)
//Storyboard Sound Samples

[TimingPoints]
333,300,4,2,1,55,1,0
333,-60.9756097560976,4,2,1,55,0,0
558,-135.135135135135,4,2,1,55,0,0
783,-92.5925925925926,4,2,1,55,0,0
1233,-66.6666666666667,4,2,1,99,0,0
1533,-100,4,2,1,77,0,0
3633,-74.6268656716418,4,2,1,77,0,0
4233,-100,4,2,1,77,0,0
9933,-100,4,2,1,77,0,0
11133,-100,4,2,1,77,0,0
11433,-100,4,2,0,44,0,0
15483,-69.4444444444444,4,2,1,66,0,0
15933,-151.515151515152,4,2,1,55,0,0
17133,-172.413793103448,4,2,1,55,0,0
18333,-135.135135135135,4,2,1,55,0,0
19533,-80.6451612903226,4,2,1,55,0,0
19833,-96.1538461538461,4,2,1,55,0,0
20283,-100,4,2,1,77,0,0
20733,-100,4,2,1,66,0,0
30333,-60.2409638554217,4,2,88,55,0,0
30933,-55.5555555555556,4,2,88,77,0,0
31383,-33.3333333333333,4,2,88,77,0,0
31533,-96.1538461538461,4,2,1,99,0,1
38733,-100,4,2,1,88,0,0
40683,-100,4,2,1,88,0,0
41133,-96.1538461538461,4,2,1,99,0,1
47883,-83.3333333333333,4,2,1,99,0,0
48333,-83.3333333333333,4,2,99,99,0,0
49983,-83.3333333333333,4,2,1,66,0,0
50133,-83.3333333333333,4,2,1,88,0,0
50733,-100,4,2,1,77,0,0
55833,-100,4,2,1,77,0,0
56208,-100,4,2,1,77,0,0
57333,-100,4,2,1,77,0,0
57933,-100,4,2,1,77,0,0

[Colours]
Combo1 : 255,120,55
Combo2 : 0,49,98
Combo3 : 128,64,64

[HitObjects]
25,267,333,6,0,B|77:250|77:250|94:223|94:223|155:202,1,144.320002202148,8|0,2:0|0:0,0:0:0:0:
214,134,558,6,0,P|221:103|218:67,1,65.1200015898438,8|0,2:0|0:0,0:0:0:0:
280,200,783,6,0,P|313:212|341:213,1,47.5200011601563,8|0,2:0|0:0,0:0:0:0:
221,269,933,6,0,B|204:312|204:312|216:364,1,95.0400023203126,8|0,2:0|0:0,0:0:0:0:
455,282,1233,6,2,P|437:176|332:151,1,198.000007553101,2|0,0:0|0:0,3:3:0:0:
286,189,1533,5,4,1:0:0:0:
286,189,1608,1,0,0:0:0:0:
286,189,1683,1,0,0:0:0:0:
439,376,1833,2,0,P|398:357|347:338,1,88,2|0,3:0|0:0,0:0:0:0:
289,284,2133,1,0,1:0:0:0:
449,93,2283,2,0,P|464:148|449:188,1,88,0|2,0:0|3:0,0:0:0:0:
370,236,2583,5,2,0:1:0:0:
227,157,2733,1,0,1:0:0:0:
305,16,2883,1,0,0:0:0:0:
449,93,3033,1,2,3:0:0:0:
289,284,3183,5,0,0:0:0:0:
342,126,3333,1,0,1:0:0:0:
370,236,3483,1,0,0:0:0:0:
143,99,3633,2,0,P|113:107|79:113,2,58.9599972110597,2|0|0,3:0|0:0|0:0,0:0:0:0:
328,376,3933,5,0,1:0:0:0:
328,376,4008,1,0,0:0:0:0:
328,376,4083,1,0,0:0:0:0:
142,195,4233,2,0,P|188:213|235:226,1,88,2|0,3:0|0:0,0:0:0:0:
188,308,4533,1,0,1:0:0:0:
342,126,4683,1,0,0:0:0:0:
512,340,4833,1,2,3:0:0:0:
370,236,4983,5,2,0:1:0:0:
321,371,5133,1,0,1:0:0:0:
413,328,5283,1,0,0:0:0:0:
278,279,5433,1,2,3:0:0:0:
433,156,5583,1,0,0:0:0:0:
213,38,5733,1,0,1:0:0:0:
278,279,5883,1,0,0:0:0:0:
278,279,6033,2,2,P|284:235|286:189,1,88,8|8,3:2|0:0,0:0:0:0:
195,155,6333,5,4,1:0:0:0:
195,155,6408,1,0,0:0:0:0:
195,155,6483,1,0,0:0:0:0:
392,55,6633,2,0,P|344:74|293:86,1,88,2|0,3:0|0:0,0:0:0:0:
81,238,6933,1,0,1:0:0:0:
195,155,7083,1,0,0:0:0:0:
290,372,7233,1,2,3:0:0:0:
278,279,7383,5,2,0:1:0:0:
185,291,7533,1,0,1:0:0:0:
197,384,7683,1,0,0:0:0:0:
353,223,7833,5,2,3:0:0:0:
105,143,7983,1,0,0:0:0:0:
290,372,8133,1,0,1:0:0:0:
396,98,8283,1,0,0:0:0:0:
278,279,8433,6,0,L|267:224,2,44,2|0|0,3:0|0:0|0:0,0:0:0:0:
423,152,8733,6,0,P|360:139|310:121,1,88,0|0,1:0|0:0,0:0:0:0:
301,66,8958,1,0,0:0:0:0:
300,58,9033,1,2,3:0:0:0:
481,248,9183,1,0,0:0:0:0:
477,261,9258,1,0,0:0:0:0:
473,274,9333,1,0,1:0:0:0:
290,372,9483,2,0,P|223:371|168:270,1,176
174,210,9933,5,2,3:0:0:0:
423,152,10083,1,2,0:0:0:0:
126,89,10233,5,2,3:0:0:0:
473,274,10383,1,2,0:0:0:0:
297,158,10533,5,2,3:0:0:0:
297,158,10608,1,0,0:0:0:0:
297,158,10683,2,0,L|289:229,1,44,2|0,3:0|0:0,0:0:0:0:
422,376,10833,2,0,P|399:354|373:343,1,44,8|8,0:0|0:0,0:0:0:0:
358,263,10983,2,0,P|335:285|309:296,1,44,8|8,0:0|0:0,0:0:0:0:
245,320,11133,5,8,0:0:0:0:
452,49,11433,5,8,0:0:0:0:
48,187,12033,5,8,0:0:0:0:
306,382,12633,5,8,0:0:0:0:
258,233,13233,5,8,0:0:0:0:
165,275,13833,5,8,0:0:0:0:
352,114,14433,5,8,0:0:0:0:
155,39,15033,5,8,0:0:0:0:
366,304,15333,5,2,0:0:0:0:
227,180,15483,1,8,0:0:0:0:
227,180,15633,2,0,P|273:192|316:198,1,63.360001546875,8|0,0:0|0:0,0:0:0:0:
185,275,15783,2,0,P|153:281|123:289,1,63.360001546875,8|0,0:0|0:0,0:0:0:0:
393,37,15933,6,0,P|436:60|444:129,1,116.159999645508,12|2,0:0|0:0,0:0:0:0:
392,198,16383,2,0,P|346:208|277:235,1,116.159999645508,2|2,0:0|0:0,0:0:0:0:
458,321,16833,2,0,P|462:288|466:260,1,58.0799998227539,2|0,0:0|0:0,0:0:0:0:
220,131,17133,6,0,B|162:129|175:164|117:163,1,102.080003115234,0|2,1:0|0:0,0:0:0:0:
58,226,17583,2,0,B|88:249|88:249|72:326,1,102.080003115234,2|2,0:0|0:0,0:0:0:0:
1,153,18033,2,0,P|-12:115|-4:91,1,51.0400015576172,2|0,0:0|0:0,0:0:0:0:
273,216,18333,6,0,B|317:205|317:205|352:223|352:223|396:211,1,130.240003179688,0|2,1:0|0:0,0:0:0:0:
450,138,18783,2,0,P|445:96|444:57,1,65.1200015898438,2|0,0:0|1:0,0:0:0:0:
512,210,19083,1,2,0:0:0:0:
453,356,19233,2,0,B|443:322|443:322|455:295,1,65.1200015898438,2|0,0:0|0:0,0:0:0:0:
455,295,19533,6,0,P|394:305|332:320,1,109.119995670899,0|0,1:0|0:0,0:0:0:0:
255,197,19833,5,2,0:0:0:0:
428,58,19983,2,0,P|366:48|312:34,1,91.5199994414063,2|0,0:0|1:0,0:0:0:0:
164,260,20283,5,8,0:0:0:0:
310,291,20433,1,8,0:0:0:0:
341,145,20583,1,8,0:0:0:0:
195,114,20733,6,0,P|150:104|103:89,1,88,0|0,1:0|0:0,0:0:0:0:
1,289,21033,2,0,P|36:204|137:188,1,176,8|0,0:0|1:0,0:0:0:0:
164,260,21483,1,0,1:0:0:0:
278,48,21633,2,0,L|292:137,1,88,8|0,0:0|0:0,0:0:0:0:
373,187,21933,6,0,P|407:169|469:157,1,88,0|0,1:0|0:0,0:0:0:0:
294,372,22233,1,8,0:0:0:0:
449,349,22383,2,0,B|354:330|391:281|285:266,1,176,0|0,0:0|1:0,0:0:0:0:
212,316,22833,2,0,L|119:296,1,88,8|0,0:0|0:0,0:0:0:0:
278,48,23133,6,0,P|268:99|288:146,1,88,0|0,1:0|0:0,0:0:0:0:
214,217,23433,2,0,P|174:182|124:176,1,88,8|0,0:0|0:0,0:0:0:0:
101,71,23733,2,0,P|150:54|180:13,1,88,0|0,1:0|1:0,0:0:0:0:
385,339,24033,1,8,0:0:0:0:
310,277,24183,1,0,0:0:0:0:
294,372,24333,6,0,P|233:352|174:342,1,88,0|0,1:0|1:0,0:0:0:0:
400,239,24633,1,8,0:0:0:0:
400,239,24783,2,0,P|415:189|334:82,1,176,8|0,0:0|1:0,0:0:0:0:
101,175,25233,2,0,B|142:192|142:192|184:180,1,88,8|0,1:2|1:0,0:0:0:0:
258,72,25533,6,0,P|264:123|278:172,1,88,4|0,1:0|0:0,0:0:0:0:
91,265,25833,2,0,P|85:316|71:365,1,88,8|0,0:0|0:0,0:0:0:0:
126,80,26133,2,0,L|40:65,1,88,0|0,1:0|0:0,0:0:0:0:
238,285,26433,2,0,L|324:269,1,88,8|0,0:0|0:0,0:0:0:0:
438,30,26733,5,0,1:0:0:0:
361,92,26883,1,0,0:0:0:0:
448,193,27033,1,8,0:0:0:0:
324,269,27183,2,0,P|267:277|201:184,1,176,8|0,0:0|1:0,0:0:0:0:
145,111,27633,2,0,P|94:102|43:83,1,88,8|0,0:0|0:0,0:0:0:0:
187,371,27933,6,0,P|228:357|272:350,1,88,0|0,1:0|0:0,0:0:0:0:
324,269,28233,2,0,P|347:221|335:172,1,88,8|0,0:0|0:0,0:0:0:0:
394,340,28533,2,0,L|488:364,1,88,0|0,1:0|0:0,0:0:0:0:
368,18,28833,1,8,0:0:0:0:
314,99,28983,1,0,0:0:0:0:
238,42,29133,6,0,L|144:55,1,88,0|0,1:0|1:0,0:0:0:0:
324,269,29433,1,8,0:0:0:0:
252,184,29583,2,0,B|173:166|162:237|84:221,1,176,8|0,0:0|1:0,0:0:0:0:
17,157,30033,5,8,0:0:0:0:
324,269,30183,1,8,0:0:0:0:
230,349,30333,6,0,L|289:363,14,36.5200005293884,2|0|0|0|0|0|0|0|0|0|0|0|0|0|0,1:0|0:0|0:0|0:0|0:0|0:0|0:0|0:0|0:0|0:0|0:0|0:0|0:0|0:0|0:0,0:0:0:0:
303,367,30933,6,0,B|357:314|328:215|328:215|312:262|261:275,2,237.599992749024,8|8|8,1:0|1:0|1:0,0:0:0:0:
44,98,31533,6,0,P|93:85|132:39,1,91.5199994414063,4|0,1:0|0:0,0:0:0:0:
174,144,31833,2,0,P|223:157|262:203,1,91.5199994414063,2|0,3:0|0:0,0:0:0:0:
64,278,32133,6,0,P|76:238|85:178,1,91.5199994414063,0|0,1:0|0:0,0:0:0:0:
304,37,32433,2,0,P|311:82|324:126,1,91.5199994414063,2|0,3:0|0:0,0:0:0:0:
303,367,32733,5,0,1:0:0:0:
373,296,32883,2,0,P|324:278|275:267,1,91.5199994414063,0|2,0:0|3:0,0:0:0:0:
252,184,33183,6,0,P|203:202|63:231,1,183.039998882813,0|0,1:0|1:0,0:0:0:0:
180,382,33633,2,0,P|199:324|192:289,1,91.5199994414063,2|0,3:0|0:0,0:0:0:0:
72,14,33933,6,0,P|128:13|169:85,1,137.279999162109,0|0,1:0|0:0,0:0:0:0:
109,142,34233,2,0,L|5:120,1,91.5199994414063,2|0,3:0|0:0,0:0:0:0:
194,295,34533,2,0,L|283:276,1,91.5199994414063,0|0,1:0|0:0,0:0:0:0:
404,45,34833,1,2,3:0:0:0:
360,131,34983,6,0,B|338:232|396:211|368:320,1,183.039998882813
449,170,35433,1,2,3:0:0:0:
223,30,35583,2,0,B|262:56|262:56|313:49,1,91.5199994414063,0|0,1:0|1:0,0:0:0:0:
441,370,35883,5,8,1:2:0:0:
370,310,36033,2,0,B|325:303|325:303|286:329,1,91.5199994414063,8|0,1:2|1:0,0:0:0:0:
15,166,36333,6,0,P|73:154|119:133,1,91.5199994414063,4|0,1:0|0:0,0:0:0:0:
167,217,36633,2,0,P|211:225|254:241,1,91.5199994414063,2|0,3:0|0:0,0:0:0:0:
34,262,36933,6,0,P|27:307|49:347,1,91.5199994414063,0|0,1:0|0:0,0:0:0:0:
305,153,37233,2,0,P|312:108|291:69,1,91.5199994414063,2|0,3:0|0:0,0:0:0:0:
167,217,37533,6,0,P|188:270|202:320,1,91.5199994414063,0|0,1:0|0:0,0:0:0:0:
23,56,37833,1,2,3:0:0:0:
78,186,37983,6,0,P|122:126|228:122,1,183.039998882813,0|0,1:0|1:0,0:0:0:0:
370,310,38433,2,0,L|463:286,1,91.5199994414063,8|8,1:2|1:2,0:0:0:0:
305,153,38733,5,6,1:0:0:0:
279,242,38883,1,0,0:0:0:0:
253,331,39033,1,0,1:0:0:0:
397,102,39183,5,2,1:0:0:0:
156,353,39483,5,2,1:0:0:0:
106,60,39783,6,2,P|171:72|197:134,1,132,6|0,1:0|0:0,0:0:0:0:
141,198,40083,2,0,P|82:181|37:168,1,88,2|0,1:0|3:0,0:0:0:0:
253,331,40383,1,0,1:0:0:0:
253,331,40458,1,0,1:0:0:0:
253,331,40533,1,0,1:0:0:0:
477,174,40683,5,2,3:0:0:0:
455,169,40758,1,2,3:0:0:0:
433,170,40833,1,2,3:0:0:0:
412,176,40908,1,2,3:0:0:0:
394,188,40983,1,8,0:0:0:0:
378,204,41058,1,8,0:0:0:0:
368,223,41133,6,0,L|353:130,1,91.5199994414063,4|0,1:0|0:0,0:0:0:0:
275,84,41433,2,0,P|230:73|183:37,1,91.5199994414063,2|0,3:0|0:0,0:0:0:0:
360,330,41733,6,0,P|397:304|442:293,1,91.5199994414063,0|0,1:0|0:0,0:0:0:0:
487,213,42033,2,0,P|477:166|469:111,1,91.5199994414063,2|0,3:0|0:0,0:0:0:0:
171,166,42333,5,0,1:0:0:0:
140,256,42483,1,0,0:0:0:0:
231,286,42633,1,2,3:0:0:0:
261,196,42783,2,0,B|159:220|198:267|107:289,1,183.039998882813,0|0,1:0|1:0,0:0:0:0:
46,221,43233,2,0,B|64:177|64:177|47:136,1,91.5199994414063,2|0,3:0|1:0,0:0:0:0:
294,359,43533,6,0,P|359:353|395:283,1,137.279999162109,4|0,1:2|0:0,0:0:0:0:
350,216,43833,2,0,P|282:202|225:183,1,91.5199994414063,2|0,3:0|0:0,0:0:0:0:
418,150,44133,2,0,P|448:86|491:68,1,91.5199994414063,0|0,1:0|1:0,0:0:0:0:
465,236,44433,1,2,3:0:0:0:
265,92,44583,6,0,B|198:114|198:114|171:152|171:152|108:175,1,183.039998882813,2|0,0:0|1:0,0:0:0:0:
23,206,45033,1,2,3:0:0:0:
218,368,45183,2,0,P|241:308|232:266,1,91.5199994414063,0|0,1:0|1:0,0:0:0:0:
95,60,45483,5,8,1:2:0:0:
367,167,45633,2,0,P|302:184|252:202,1,91.5199994414063,8|0,1:2|1:0,0:0:0:0:
237,282,45933,6,0,P|222:342|240:374,1,91.5199994414063,4|0,1:0|0:0,0:0:0:0:
455,210,46233,2,0,P|470:150|452:118,1,91.5199994414063,2|0,3:0|0:0,0:0:0:0:
278,54,46533,5,0,1:0:0:0:
322,198,46683,1,0,1:0:0:0:
366,342,46833,1,2,3:0:0:0:
366,342,46983,1,0,0:0:0:0:
213,151,47133,6,0,P|146:144|92:129,1,91.5199994414063,0|0,1:0|1:0,0:0:0:0:
226,373,47433,1,2,3:0:0:0:
31,282,47583,2,0,B|89:271|119:236|119:236|170:252|161:302,1,183.039998882813,0|0,1:0|1:0,0:0:0:0:
102,377,48033,5,8,0:0:0:0:
99,59,48183,1,8,0:0:0:0:
403,253,48333,1,12,1:0:0:0:
418,172,49983,5,2,3:0:0:0:
421,156,50058,1,2,3:0:0:0:
424,140,50133,1,8,0:0:0:0:
384,107,50208,1,8,0:0:0:0:
332,106,50283,1,8,0:0:0:0:
291,138,50358,1,8,0:0:0:0:
279,188,50433,1,8,0:0:0:0:
286,195,50733,5,4,1:0:0:0:
286,195,50808,1,0,0:0:0:0:
286,195,50883,1,0,0:0:0:0:
439,8,51033,2,0,P|398:27|347:46,1,88,2|0,3:0|0:0,0:0:0:0:
289,100,51333,1,0,1:0:0:0:
449,291,51483,2,0,P|464:236|449:196,1,88,0|2,0:0|3:0,0:0:0:0:
370,148,51783,5,2,0:1:0:0:
227,227,51933,1,0,1:0:0:0:
305,368,52083,1,0,0:0:0:0:
449,291,52233,1,2,3:0:0:0:
289,100,52383,5,0,0:0:0:0:
342,258,52533,1,0,1:0:0:0:
370,148,52683,1,2,0:0:0:0:
143,285,52833,2,0,P|113:277|79:271,2,44,2|0|0,3:0|0:0|0:0,0:0:0:0:
328,8,53133,5,4,1:0:0:0:
328,8,53208,1,0,0:0:0:0:
328,8,53283,1,0,0:0:0:0:
142,189,53433,2,0,P|188:171|235:158,1,88,2|2,3:0|0:0,0:0:0:0:
188,76,53733,1,0,1:0:0:0:
342,258,53883,1,0,0:0:0:0:
512,44,54033,1,2,3:0:0:0:
370,148,54183,5,2,0:1:0:0:
321,13,54333,1,0,1:0:0:0:
413,56,54483,1,0,0:0:0:0:
278,105,54633,1,2,3:0:0:0:
433,228,54783,1,0,0:0:0:0:
213,346,54933,1,0,1:0:0:0:
278,105,55083,1,0,0:0:0:0:
278,105,55233,2,0,P|284:149|286:195,1,88,8|8,0:0|0:0,0:0:0:0:
195,229,55533,5,0,1:0:0:0:
195,229,55608,1,0,0:0:0:0:
195,229,55683,1,0,0:0:0:0:
392,329,55833,2,0,P|344:310|293:298,1,88,2|2,3:0|0:0,0:0:0:0:
81,146,56133,1,0,1:0:0:0:
195,229,56283,1,0,0:0:0:0:
290,12,56433,1,2,3:0:0:0:
278,105,56583,5,2,0:1:0:0:
185,93,56733,1,0,1:0:0:0:
197,0,56883,1,2,0:0:0:0:
353,161,57033,5,2,3:0:0:0:
105,241,57183,1,2,0:0:0:0:
290,12,57333,1,0,1:0:0:0:
396,286,57483,1,2,0:0:0:0:
278,105,57633,6,0,L|267:160,2,44,0|0|0,1:0|1:0|1:0,0:0:0:0:
423,232,57933,6,0,P|360:245|310:263,1,88,4|0,1:0|0:0,0:0:0:0:
301,318,58158,1,0,0:0:0:0:
300,326,58233,1,2,3:0:0:0:
481,136,58383,1,0,0:0:0:0:
477,123,58458,1,0,0:0:0:0:
473,110,58533,1,2,1:2:0:0:
290,12,58683,2,0,P|223:13|168:114,1,176
205,181,59133,1,2,3:2:0:0:
215,178,59208,1,2,0:0:0:0:
226,175,59283,1,2,0:0:0:0:
237,173,59358,1,2,0:0:0:0:
247,170,59433,1,2,0:0:0:0:
148,253,59583,6,0,P|135:294|140:312,3,44,2|2|2|2,3:0|3:0|3:0|3:0,0:0:0:0:
347,159,59883,2,0,P|344:137|333:118,1,44,2|2,3:0|3:0,0:0:0:0:
301,252,60033,6,0,L|294:313,1,44,8|8,0:0|0:0,0:0:0:0:
198,384,60183,2,0,L|202:340,1,44,8|8,0:0|0:0,0:0:0:0:
