osu file format v14

[General]
AudioFilename: audio.mp3
AudioLeadIn: 0
PreviewTime: 30858
Countdown: 0
SampleSet: Soft
StackLeniency: 0.7
Mode: 0
LetterboxInBreaks: 0
WidescreenStoryboard: 1

[Editor]
DistanceSpacing: 2.9
BeatDivisor: 4
GridSize: 4
TimelineZoom: 2.999998

[Metadata]
Title:Kuuchuu Bunkai
TitleUnicode:空中分解
Artist:Three
ArtistUnicode:すりぃ
Creator:Ryuusei Aika
Version:Habi's Extra
Source:
Tags:Collage Japanese Rock J-Rock JRock Male Vocal Surii ボーカロイド ボカロ VOCALOID 鏡音レン Kagamine Len 真ひろ まめでん ま子 Akitoshi Ujimatcha -ClariS- Yorita Yoshino Yorita_Yoshino Dored Yugu Skyflame Cami wyrio Firika AncuL -Eriri- Laura -Laura- Corinn -Mikan Mikan Bazz Bazz_B X Light X_Light XLT Reform Kujinn Seto Kousuke Seto_Kousuke Djulus -MikanMyMommy gary00737 HabiHolic Haruto Haruto_Aizawa Armin A_r_M_i_N Agatsu Garden kanor Error- -Keitaro SnowNiNo_ Sylas TheKoala CoLouRed GlaZeE CoLouRed_GlaZeE caren_sk CRN
BeatmapID:1990188
BeatmapSetID:952132

[Difficulty]
HPDrainRate:7
CircleSize:4.3
OverallDifficulty:8.5
ApproachRate:9.5
SliderMultiplier:2
SliderTickRate:1

[Events]
//Background and Video events
Video,3,"video.mp4"
0,0,"BG.jpg",0,0
//Break Periods
//Storyboard Layer 0 (Background)
//Storyboard Layer 1 (Fail)
//Storyboard Layer 2 (Pass)
//Storyboard Layer 3 (Foreground)
//Storyboard Layer 4 (Overlay)
//Storyboard Sound Samples

[TimingPoints]
333,300,4,2,1,55,1,0
1233,-66.6666666666667,4,2,1,99,0,0
1458,-66.6666666666667,4,2,1,5,0,0
1533,-100,4,2,1,77,0,0
11133,-142.857142857143,4,2,1,77,0,0
11433,-142.857142857143,4,2,0,44,0,0
15483,-142.857142857143,4,2,1,66,0,0
15933,-142.857142857143,4,2,1,55,0,0
20283,-142.857142857143,4,2,1,77,0,0
20733,-100,4,2,1,66,0,0
30333,-200,4,2,88,55,0,0
30933,-76.9230769230769,4,2,88,77,0,0
31533,-100,4,2,1,99,0,0
38733,-100,4,2,1,88,0,0
40383,-100,4,2,1,66,0,0
40683,-100,4,2,1,77,0,0
41133,-100,4,2,1,99,0,0
48333,-100,4,2,99,99,0,0
49983,-100,4,2,1,66,0,0
50133,-100,4,2,1,88,0,0
50283,-100,4,2,1,66,0,0
50733,-100,4,2,1,77,0,0
57670,-100,4,2,1,11,0,0
57708,-100,4,2,1,77,0,0
57745,-100,4,2,1,11,0,0
57783,-100,4,2,1,77,0,0
57820,-100,4,2,1,11,0,0
57858,-100,4,2,1,77,0,0
57895,-100,4,2,1,11,0,0
57933,-100,4,2,1,77,0,0

[Colours]
Combo1 : 255,120,55
Combo2 : 0,49,98
Combo3 : 128,64,64

[HitObjects]
32,243,333,6,0,L|13:145,1,100,8|0,2:0|0:0,0:0:0:0:
84,77,558,2,0,L|103:175,1,100,8|0,2:0|0:0,0:0:0:0:
122,256,783,1,8,2:0:0:0:
247,137,933,6,0,P|320:143|371:91,1,150,8|0,2:0|0:0,0:0:0:0:
374,58,1233,6,2,L|352:281,1,225.000008583069,2|0,0:0|0:0,3:3:0:0:
268,320,1533,6,0,L|280:375,2,50,4|0|2,1:0|0:0|0:0,0:0:0:0:
222,109,1833,1,2,3:0:0:0:
94,234,1983,1,0,0:0:0:0:
195,21,2133,2,0,P|244:19|287:44,1,100,0|2,1:0|0:0,0:0:0:0:
209,132,2433,1,2,3:0:0:0:
40,85,2583,1,2,0:1:0:0:
202,237,2733,6,0,L|306:220,1,100,0|0,1:0|0:0,0:0:0:0:
483,77,3033,2,0,L|379:94,1,100,2|0,3:0|0:0,0:0:0:0:
283,31,3333,1,0,1:0:0:0:
334,206,3483,1,0,0:0:0:0:
203,98,3633,1,2,3:0:0:0:
203,98,3708,1,2,0:0:0:0:
203,98,3783,1,2,0:0:0:0:
271,281,3933,6,0,L|281:332,2,50,4|0|0,1:2|0:0|0:0,0:0:0:0:
326,116,4233,1,2,3:0:0:0:
195,214,4383,1,0,0:0:0:0:
404,172,4533,1,2,1:2:0:0:
169,201,4683,1,0,0:0:0:0:
369,274,4833,2,0,L|470:257,1,100,2|2,3:0|0:1,0:0:0:0:
318,91,5133,5,0,1:0:0:0:
293,353,5283,1,0,0:0:0:0:
138,201,5433,2,0,P|87:200|38:172,1,100,2|0,3:0|0:0,0:0:0:0:
114,98,5733,1,0,1:0:0:0:
114,98,5808,1,2,0:0:0:0:
114,98,5883,1,2,0:0:0:0:
60,290,6033,1,8,3:2:0:0:
23,41,6183,1,10,0:0:0:0:
86,295,6333,6,0,L|79:351,2,50,4|0|0,1:0|0:0|0:0,0:0:0:0:
185,159,6633,1,2,3:0:0:0:
5,209,6783,1,0,0:0:0:0:
193,270,6933,2,0,L|294:252,1,100,2|0,1:2|0:0,0:0:0:0:
479,102,7233,2,0,L|378:120,1,100,2|2,3:0|0:1,0:0:0:0:
296,57,7533,5,0,1:0:0:0:
322,200,7683,1,0,0:0:0:0:
291,34,7833,1,2,3:0:0:0:
266,277,7983,1,0,0:0:0:0:
144,119,8133,2,0,L|165:224,1,100,0|2,1:0|0:0,0:0:0:0:
99,287,8433,1,2,3:0:0:0:
139,26,8583,1,2,0:0:0:0:
19,211,8733,5,4,1:2:0:0:
19,211,8808,1,0,0:0:0:0:
19,211,8883,1,0,0:0:0:0:
238,155,9033,1,2,3:0:0:0:
84,303,9183,1,2,0:0:0:0:
263,168,9333,2,0,P|278:118|280:67,1,100,0|0,1:0|0:0,0:0:0:0:
172,4,9633,2,0,P|157:54|155:105,1,100,2|2,3:0|0:0,0:0:0:0:
219,269,9933,6,0,L|327:257,1,100,2|2,3:0|0:0,0:0:0:0:
400,249,10158,1,2,0:0:0:0:
417,246,10233,1,2,3:0:0:0:
320,136,10383,1,2,0:0:0:0:
494,186,10533,1,2,3:0:0:0:
293,124,10683,1,2,3:0:0:0:
356,338,10833,1,8,0:0:0:0:
306,328,10908,1,8,0:0:0:0:
257,319,10983,1,8,0:0:0:0:
208,310,11058,1,8,0:0:0:0:
159,301,11133,6,0,P|188:239|179:170,1,139.999995727539,8|8,0:0|0:0,0:0:0:0:
119,100,11583,1,0,0:0:0:0:
40,218,11733,2,0,L|57:289,1,69.9999978637696
175,370,12033,2,0,L|158:299,1,69.9999978637696,8|0,0:0|0:0,0:0:0:0:
258,136,12333,5,0,0:0:0:0:
222,227,12483,1,0,0:0:0:0:
185,69,12633,1,8,0:0:0:0:
351,130,12783,2,0,L|332:280,1,139.999995727539
264,330,13233,1,8,0:0:0:0:
415,301,13383,1,0,0:0:0:0:
252,349,13533,6,0,P|197:307|129:309,1,139.999995727539,0|8,0:0|0:0,0:0:0:0:
49,357,13983,1,0,0:0:0:0:
14,269,14133,2,0,L|0:199,1,69.9999978637696
80,127,14433,2,0,L|94:197,1,69.9999978637696,8|0,0:0|0:0,0:0:0:0:
180,258,14733,5,0,0:0:0:0:
264,209,14883,1,0,0:0:0:0:
264,305,15033,1,8,0:0:0:0:
180,258,15183,1,0,0:0:0:0:
188,163,15333,1,2,1:2:0:0:
227,370,15483,5,8,0:0:0:0:
330,141,15633,1,8,0:0:0:0:
75,252,15783,1,8,0:0:0:0:
97,49,15933,6,0,P|126:112|126:182,1,139.999995727539,12|2,0:0|0:0,0:0:0:0:
41,241,16383,1,2,0:0:0:0:
114,320,16533,2,0,L|186:310,1,69.9999978637696,0|2,1:0|0:0,0:0:0:0:
311,225,16833,2,0,L|239:235,1,69.9999978637696,2|0,0:0|0:0,0:0:0:0:
258,144,17133,5,0,1:0:0:0:
282,315,17283,1,2,0:0:0:0:
254,124,17433,1,2,0:0:0:0:
398,208,17583,1,2,0:0:0:0:
188,237,17733,2,0,P|152:229|116:221,1,69.9999978637696,0|2,1:0|0:0,0:0:0:0:
7,144,18033,2,0,P|43:136|79:128,1,69.9999978637696,2|0,0:0|0:0,0:0:0:0:
213,14,18333,6,0,L|195:160,1,139.999995727539,0|2,1:0|0:0,0:0:0:0:
172,329,18783,1,2,0:0:0:0:
262,285,18933,2,0,P|296:285|329:297,1,69.9999978637696,0|2,0:0|0:0,0:0:0:0:
458,230,19233,2,0,P|423:230|390:218,1,69.9999978637696,2|0,0:0|0:0,0:0:0:0:
326,153,19533,5,0,1:0:0:0:
395,46,19683,1,0,0:0:0:0:
260,23,19833,2,0,L|274:95,1,69.9999978637696,2|2,0:0|0:0,0:0:0:0:
268,218,20133,1,0,1:0:0:0:
126,164,20283,1,8,0:0:0:0:
287,226,20433,1,8,0:0:0:0:
72,254,20583,1,8,0:0:0:0:
305,320,20733,6,0,B|322:243|322:243|315:196|315:196|332:120,1,200,4|8,1:2|0:0,0:0:0:0:
405,195,21183,1,0,0:0:0:0:
203,261,21333,2,0,P|161:238|112:246,1,100,0|2,1:0|1:2,0:0:0:0:
0,94,21633,2,0,P|42:117|91:109,1,100,8|0,0:0|0:0,0:0:0:0:
257,50,21933,5,0,1:0:0:0:
157,170,22083,1,0,0:0:0:0:
171,9,22233,1,8,0:0:0:0:
236,229,22383,2,0,B|313:217|313:217|356:229|356:229|432:215,1,200,0|0,0:0|1:0,0:0:0:0:
377,147,22833,1,8,0:0:0:0:
295,303,22983,1,0,0:0:0:0:
292,99,23133,6,0,P|314:51|310:3,1,100,0|0,1:0|0:0,0:0:0:0:
127,75,23433,2,0,L|150:175,1,100,8|0,0:0|0:0,0:0:0:0:
241,280,23733,1,0,1:0:0:0:
75,241,23883,1,0,1:0:0:0:
264,285,24033,1,8,0:0:0:0:
48,334,24183,1,0,0:0:0:0:
332,351,24333,6,0,P|357:302|354:258,1,100,0|0,1:0|1:0,0:0:0:0:
293,175,24633,1,8,0:0:0:0:
17,235,24783,2,0,B|87:269|87:269|212:237,1,200,8|0,0:0|1:0,0:0:0:0:
128,171,25233,1,8,1:2:0:0:
177,334,25383,1,0,1:0:0:0:
292,201,25533,6,0,B|312:156|313:107|283:60|283:60|305:84|333:89,1,200,4|8,1:0|0:0,0:0:0:0:
349,9,25983,1,0,0:0:0:0:
202,135,26133,2,0,L|103:116,1,100,0|0,1:0|0:0,0:0:0:0:
0,248,26433,2,0,L|99:267,1,100,8|0,0:0|0:0,0:0:0:0:
264,214,26733,5,0,1:0:0:0:
167,343,26883,1,0,0:0:0:0:
131,136,27033,1,8,0:0:0:0:
276,312,27183,6,0,L|309:109,1,200,8|0,0:0|1:0,0:0:0:0:
241,29,27633,1,8,0:0:0:0:
409,96,27783,1,0,0:0:0:0:
188,126,27933,6,0,P|116:140|58:96,1,150,4|0,1:0|0:0,0:0:0:0:
54,69,28233,2,0,L|70:171,1,100,8|0,0:0|0:0,0:0:0:0:
166,247,28533,1,0,1:0:0:0:
3,224,28683,1,0,0:0:0:0:
189,250,28833,1,8,0:0:0:0:
29,314,28983,1,0,0:0:0:0:
141,157,29133,5,0,1:0:0:0:
104,365,29283,1,0,1:0:0:0:
291,294,29433,2,0,P|306:241|317:197,1,100,8|8,0:0|0:0,0:0:0:0:
254,92,29733,1,0,0:0:0:0:
421,160,29883,1,0,1:0:0:0:
213,196,30033,1,8,0:0:0:0:
445,152,30183,1,8,0:0:0:0:
481,229,30333,6,0,L|502:77,1,150,2|0,1:0|0:0,0:0:0:0:
436,24,30933,6,0,P|371:24|312:62,1,129.999994049073,8|0,1:0|0:0,0:0:0:0:
243,106,31158,2,0,L|117:78,1,129.999994049073,8|0,1:0|0:0,0:0:0:0:
14,181,31383,2,0,P|49:183|79:171,1,64.9999970245363,8|0,1:0|0:0,0:0:0:0:
258,85,31533,6,0,L|242:186,1,100,4|0,1:0|0:0,0:0:0:0:
389,346,31833,2,0,L|405:245,1,100,2|0,3:0|0:0,0:0:0:0:
240,281,32133,1,0,1:0:0:0:
408,160,32283,1,0,0:0:0:0:
254,297,32433,1,2,3:0:0:0:
349,90,32583,1,0,0:0:0:0:
155,227,32733,6,0,L|171:337,1,100,0|0,1:0|0:0,0:0:0:0:
226,154,33033,1,2,3:0:0:0:
48,112,33183,2,0,L|80:315,1,200,0|0,1:0|1:0,0:0:0:0:
232,130,33633,1,2,3:0:0:0:
161,364,33783,1,0,0:0:0:0:
310,205,33933,6,0,B|419:222|374:273|491:282,1,200,0|2,1:0|3:0,0:0:0:0:
469,193,34383,1,0,0:0:0:0:
237,273,34533,2,0,L|217:170,1,100,0|0,1:0|0:0,0:0:0:0:
281,82,34833,1,2,3:0:0:0:
97,32,34983,6,0,B|81:136|128:121|105:233,1,200
28,295,35433,1,2,3:0:0:0:
206,237,35583,1,0,0:0:0:0:
12,302,35733,1,0,1:0:0:0:
285,278,35883,1,8,1:2:0:0:
79,350,36033,1,8,1:2:0:0:
137,137,36183,1,0,1:0:0:0:
173,368,36333,6,0,P|221:351|272:360,1,100,4|0,1:0|0:0,0:0:0:0:
482,233,36633,2,0,P|434:250|383:241,1,100,2|0,3:0|0:0,0:0:0:0:
230,78,36933,1,0,1:0:0:0:
297,261,37083,1,0,0:0:0:0:
337,32,37233,2,0,L|320:132,1,100,2|0,3:0|0:0,0:0:0:0:
172,183,37533,5,0,1:0:0:0:
418,77,37683,2,0,L|401:177,1,100,0|2,0:0|3:0,0:0:0:0:
223,289,37983,2,0,P|159:217|62:220,1,200,2|0,0:0|1:0,0:0:0:0:
16,302,38433,1,8,1:2:0:0:
1,129,38583,1,8,1:2:0:0:
118,268,38733,6,0,L|99:369,1,100,6|0,1:0|0:0,0:0:0:0:
69,184,39033,1,0,1:0:0:0:
189,99,39183,2,0,P|240:98|284:123,1,100,2|0,1:0|0:0,0:0:0:0:
450,73,39483,2,0,P|399:74|355:49,1,100,2|0,1:0|0:0,0:0:0:0:
136,19,39783,6,2,L|170:221,1,200,6|2,1:0|1:0,0:0:0:0:
195,332,40233,1,0,3:0:0:0:
310,199,40383,1,0,1:0:0:0:
320,182,40458,1,0,1:0:0:0:
331,163,40533,1,0,1:0:0:0:
232,33,40683,2,0,L|244:87,2,50,2|2|2,3:0|3:0|3:0,0:0:0:0:
138,172,40983,1,8,0:0:0:0:
138,172,41058,1,8,0:0:0:0:
138,172,41133,6,0,L|32:153,1,100,4|0,1:0|0:0,0:0:0:0:
312,304,41433,2,0,L|418:285,1,100,2|0,3:0|0:0,0:0:0:0:
235,98,41733,2,0,L|129:79,1,100,0|0,1:0|0:0,0:0:0:0:
314,24,42033,1,2,3:0:0:0:
289,197,42183,1,0,0:0:0:0:
454,125,42333,6,0,P|411:103|362:107,1,100,0|0,1:0|0:0,0:0:0:0:
271,211,42633,1,2,3:0:0:0:
470,254,42783,2,0,L|503:50,1,200,0|0,1:0|1:0,0:0:0:0:
232,120,43233,1,2,3:0:0:0:
402,140,43383,1,0,1:0:0:0:
184,198,43533,6,0,B|140:161|135:96|166:56|166:56|152:75|132:83,1,200,4|2,1:2|3:0,0:0:0:0:
49,123,43983,1,0,0:0:0:0:
143,293,44133,2,0,L|243:274,1,100,0|0,1:0|1:0,0:0:0:0:
309,184,44433,1,2,3:0:0:0:
500,217,44583,6,0,B|430:196|430:196|381:208|381:208|305:182,1,200,2|0,0:0|1:0,0:0:0:0:
379,113,45033,1,2,3:0:0:0:
429,295,45183,1,0,1:0:0:0:
470,95,45333,2,0,P|478:43|466:-4,1,100,0|8,1:0|1:2,0:0:0:0:
294,54,45633,1,8,1:2:0:0:
454,183,45783,1,0,1:0:0:0:
286,151,45933,6,0,L|181:130,1,100,4|0,1:0|0:0,0:0:0:0:
10,222,46233,2,0,L|108:241,1,100,2|0,3:0|0:0,0:0:0:0:
303,357,46533,2,0,L|198:336,1,100,0|0,1:0|1:0,0:0:0:0:
116,153,46833,1,2,3:0:0:0:
286,263,46983,1,0,0:0:0:0:
200,105,47133,5,0,1:0:0:0:
161,311,47283,2,0,P|111:311|68:286,1,100,0|2,1:0|3:0,0:0:0:0:
5,131,47583,2,0,B|85:117|85:117|121:126|121:126|203:105,1,200,0|0,1:0|1:0,0:0:0:0:
139,34,48033,1,8,0:0:0:0:
219,253,48183,1,8,0:0:0:0:
356,63,48333,5,12,1:0:0:0:
385,79,49983,5,2,3:0:0:0:
388,90,50058,1,2,3:0:0:0:
390,100,50133,2,0,L|379:153,1,50,8|8,0:0|0:0,0:0:0:0:
285,187,50283,2,0,L|296:240,1,50,8|8,0:0|0:0,0:0:0:0:
351,322,50433,6,0,P|292:277|218:276,1,150,8|0,0:0|0:0,0:0:0:0:
144,325,50733,6,0,L|158:376,2,50,4|0|0,1:0|0:0|0:0,0:0:0:0:
158,144,51033,1,2,3:0:0:0:
58,279,51183,1,0,0:0:0:0:
118,51,51333,2,0,L|221:68,1,100,0|0,1:0|0:0,0:0:0:0:
344,120,51633,2,0,B|361:69|361:69|349:24,1,100,2|2,3:0|0:1,0:0:0:0:
253,180,51933,5,0,1:0:0:0:
435,160,52083,1,0,0:0:0:0:
283,290,52233,2,0,L|186:267,1,100,2|0,3:0|0:0,0:0:0:0:
37,186,52533,1,0,1:0:0:0:
90,348,52683,1,2,0:0:0:0:
128,130,52833,1,2,3:0:0:0:
128,130,52908,1,0,0:0:0:0:
128,130,52983,1,2,0:0:0:0:
197,320,53133,6,0,L|185:375,2,50,4|0|0,1:0|0:0|0:0,0:0:0:0:
236,92,53433,1,2,3:0:0:0:
134,240,53583,1,2,0:0:0:0:
308,169,53733,2,0,L|288:268,1,100,0|0,1:0|0:0,0:0:0:0:
383,350,54033,2,0,L|403:251,1,100,2|2,3:0|0:1,0:0:0:0:
324,77,54333,5,0,1:0:0:0:
474,190,54483,1,0,0:0:0:0:
350,53,54633,2,0,P|302:69|252:71,1,100,2|0,3:0|0:0,0:0:0:0:
110,55,54933,2,0,L|61:36,2,50,2|2|2,1:3|3:0|3:0,0:0:0:0:
243,153,55233,1,10,0:0:0:0:
66,138,55383,1,10,0:0:0:0:
270,135,55533,6,0,L|258:194,2,50,4|0|0,1:0|0:0|0:0,0:0:0:0:
202,73,55833,1,2,3:0:0:0:
45,237,55983,2,0,L|70:244,2,25,2|0|2,0:0|0:0|0:0,0:0:0:0:
109,273,56133,6,0,L|211:254,1,100,0|2,1:0|0:0,0:0:0:0:
441,114,56433,2,0,L|339:133,1,100,2|2,3:0|0:1,0:0:0:0:
180,117,56733,6,0,P|168:66|170:18,1,100,0|2,1:0|0:0,0:0:0:0:
331,257,57033,2,0,P|343:308|341:356,1,100,2|2,3:0|0:0,0:0:0:0:
130,222,57333,1,0,1:0:0:0:
358,157,57483,1,2,0:0:0:0:
154,246,57633,6,0,L|91:234,1,50,2|2,1:2|1:2,0:0:0:0:
102,315,57783,2,0,L|39:303,1,50,2|2,1:2|1:2,0:0:0:0:
9,223,57933,5,4,1:0:0:0:
9,223,58008,1,0,0:0:0:0:
9,223,58083,1,0,0:0:0:0:
92,52,58233,2,0,P|109:96|115:151,1,100,2|0,3:0|0:0,0:0:0:0:
271,295,58533,2,0,P|276:245|294:198,1,100,2|0,1:2|0:0,0:0:0:0:
377,145,58833,1,2,3:0:0:0:
192,185,58983,1,2,0:0:0:0:
351,54,59133,5,2,3:2:0:0:
375,50,59208,1,2,0:0:0:0:
400,54,59283,1,2,0:0:0:0:
423,63,59358,1,2,0:0:0:0:
443,78,59433,1,2,0:0:0:0:
267,110,59583,5,2,3:0:0:0:
267,110,59658,1,2,3:0:0:0:
267,110,59733,2,0,L|217:97,1,50,2|2,3:0|3:0,0:0:0:0:
22,112,59883,2,0,L|72:99,1,50,2|2,3:0|3:0,0:0:0:0:
146,31,60033,5,8,0:0:0:0:
145,80,60108,1,8,0:0:0:0:
145,130,60183,1,8,0:0:0:0:
145,180,60258,1,8,0:0:0:0:
