osu file format v14

[General]
AudioFilename: audio.mp3
AudioLeadIn: 0
PreviewTime:30858
Countdown: 0
SampleSet: Soft
StackLeniency: 0.7
Mode: 0
LetterboxInBreaks: 0
WidescreenStoryboard: 0

[Editor]
DistanceSpacing: 0.8
BeatDivisor: 4
GridSize: 4
TimelineZoom: 1.3

[Metadata]
Title:Kuuchuu Bunkai
TitleUnicode:空中分解
Artist:Three
ArtistUnicode:すりぃ
Creator:Ryuusei Aika
Version:GlazeE's Extreme
Source:
Tags:Collage Japanese Rock J-Rock JRock Male Vocal Surii ボーカロイド ボカロ VOCALOID 鏡音レン Kagamine Len 真ひろ まめでん ま子 Akitoshi Ujimatcha -ClariS- Yorita Yoshino Yorita_Yoshino Dored Yugu Skyflame Cami wyrio Firika AncuL -Eriri- Laura -Laura- Corinn -Mikan Mikan Bazz Bazz_B X Light X_Light XLT Reform Kujinn Seto Kousuke Seto_Kousuke Djulus -MikanMyMommy gary00737 HabiHolic Haruto Haruto_Aizawa Armin A_r_M_i_N Agatsu Garden kanor Error- -Keitaro SnowNiNo_ Sylas TheKoala CoLouRed GlaZeE CoLouRed_GlaZeE caren_sk CRN
BeatmapID:2043970
BeatmapSetID:952132

[Difficulty]
HPDrainRate:7
CircleSize:4
OverallDifficulty:9
ApproachRate:9.3
SliderMultiplier:2
SliderTickRate:1

[Events]
//Background and Video events
0,0,"BG.jpg",0,0
Video,3,"video.mp4"
//Break Periods
//Storyboard Layer 0 (Background)
//Storyboard Layer 1 (Fail)
//Storyboard Layer 2 (Pass)
//Storyboard Layer 3 (Foreground)
//Storyboard Layer 4 (Overlay)
//Storyboard Sound Samples

[TimingPoints]
333,300,4,2,1,55,1,0
1233,-80,4,2,1,99,0,0
1533,-100,4,2,1,77,0,0
5733,-80,4,2,1,77,0,0
6333,-100,4,2,1,77,0,0
11433,-133.333333333333,4,2,0,44,0,0
15483,-100,4,2,1,66,0,0
15933,-117.647058823529,4,2,1,66,0,0
20283,-100,4,2,1,77,0,0
20733,-100,4,2,1,66,0,0
30333,-133.333333333333,4,2,88,55,0,0
30933,-66.6666666666667,4,2,88,77,0,0
31533,-80,4,2,1,99,0,1
31683,-80,4,2,1,99,0,0
38733,-66.6666666666667,4,2,1,99,0,1
38883,-66.6666666666667,4,2,1,99,0,0
39258,-66.6666666666667,4,2,1,5,0,0
39333,-66.6666666666667,4,2,1,99,0,0
39558,-66.6666666666667,4,2,1,5,0,0
39783,-66.6666666666667,4,2,1,99,0,1
40083,-66.6666666666667,4,2,1,99,0,0
41133,-80,4,2,1,99,0,1
41283,-80,4,2,1,99,0,0
47883,-100,4,2,1,99,0,0
48333,-133.333333333333,4,2,99,99,0,0
48633,-133.333333333333,4,2,1,77,0,0
49983,-100,4,2,1,77,0,0
50133,-100,4,2,1,88,0,0
50733,-100,4,2,1,77,0,0

[Colours]
Combo1 : 255,120,55
Combo2 : 0,49,98
Combo3 : 128,64,64

[HitObjects]
98,47,333,5,8,2:0:0:0:
432,150,558,5,8,2:0:0:0:
116,268,783,5,8,2:0:0:0:
232,325,933,1,8,2:0:0:0:
316,33,1233,6,2,B|315:55|326:74|326:74|327:95|319:114|319:114|322:144|334:173,1,125,2|0,0:0|0:0,3:3:0:0:
461,298,1533,5,4,1:0:0:0:
461,298,1608,1,0,0:0:0:0:
461,298,1683,1,0,0:0:0:0:
276,354,1833,1,2,3:0:0:0:
320,191,1983,1,0,0:0:0:0:
218,118,2133,1,0,1:0:0:0:
179,244,2283,2,0,L|75:224,1,100,0|2,0:0|3:0,0:0:0:0:
60,50,2583,6,0,B|128:35|194:49|194:49|220:31|267:28,1,200,2|0,0:1|3:0,0:0:0:0:
330,43,2958,1,0,3:0:0:0:
399,80,3033,1,2,3:0:0:0:
248,114,3183,1,0,0:0:0:0:
484,62,3333,1,0,1:0:0:0:
186,176,3483,1,0,0:0:0:0:
426,271,3633,2,0,P|447:242|454:207,1,50,2|0,3:0|0:0,0:0:0:0:
385,111,3783,2,0,L|314:98,1,50
176,69,3933,5,0,1:0:0:0:
176,69,4008,1,0,0:0:0:0:
176,69,4083,1,0,0:0:0:0:
50,211,4233,1,2,3:0:0:0:
95,36,4383,1,0,0:0:0:0:
164,258,4533,1,0,1:0:0:0:
164,258,4683,2,0,B|197:240|235:248|235:248|277:216,1,100,0|2,0:0|3:0,0:0:0:0:
468,68,4983,6,0,B|453:110|453:110|478:170|488:212|488:212|470:264,1,200,2|0,0:1|3:0,0:0:0:0:
446,326,5358,1,0,3:0:0:0:
379,361,5433,1,2,3:0:0:0:
308,148,5583,1,0,0:0:0:0:
486,213,5733,2,2,P|435:252|360:233,1,125,0|0,1:0|0:0,0:1:0:0:
128,138,6033,2,2,P|108:75|154:16,1,125,8|8,3:0|0:0,0:1:0:0:
468,68,6333,5,4,1:0:0:0:
468,68,6408,1,0,0:0:0:0:
468,68,6483,1,0,0:0:0:0:
392,271,6633,1,2,3:0:0:0:
379,83,6783,1,0,0:0:0:0:
208,149,6933,1,0,1:0:0:0:
300,311,7083,2,0,B|234:296|234:296|180:309,1,100,0|2,0:0|3:0,0:0:0:0:
49,171,7383,6,0,B|51:134|36:108|36:108|41:63|83:37|83:37|107:45|145:32,1,200,2|0,0:1|3:0,0:0:0:0:
203,30,7758,1,0,3:0:0:0:
276,22,7833,1,2,3:0:0:0:
233,187,7983,1,0,0:0:0:0:
22,142,8133,1,0,1:0:0:0:
201,270,8283,1,0,0:0:0:0:
322,130,8433,2,0,L|266:108,1,50,2|0,3:0|0:0,0:0:0:0:
110,129,8583,2,0,P|99:158|99:185,1,50
113,329,8733,5,0,1:0:0:0:
113,329,8808,1,0,0:0:0:0:
113,329,8883,1,0,0:0:0:0:
315,354,9033,1,2,3:0:0:0:
344,214,9183,1,0,0:0:0:0:
327,371,9333,1,0,1:0:0:0:
216,223,9483,1,0,0:0:0:0:
216,223,9633,1,2,3:0:0:0:
382,100,9783,5,2,0:0:0:0:
391,98,9858,1,2,0:0:0:0:
400,96,9933,2,0,L|394:166,1,50,2|0,3:0|0:0,0:0:0:0:
155,140,10083,5,2,0:0:0:0:
145,136,10158,1,2,0:0:0:0:
135,132,10233,2,0,L|156:211,1,50,2|0,3:0|0:0,0:0:0:0:
367,242,10383,5,2,0:0:0:0:
375,247,10458,1,2,0:0:0:0:
383,252,10533,2,0,L|333:292,1,50,2|0,3:0|0:0,0:0:0:0:
115,296,10683,2,0,L|175:324,1,50,2|0,3:0|0:0,0:0:0:0:
278,117,10833,5,8,0:0:0:0:
291,165,10908,1,8,0:0:0:0:
269,210,10983,1,8,0:0:0:0:
276,259,11058,1,8,0:0:0:0:
270,308,11133,1,8,0:0:0:0:
102,147,11433,6,0,L|20:162,1,75.0000028610231,8|0,0:0|0:0,0:0:0:0:
175,136,11733,1,0,0:0:0:0:
57,73,11883,2,0,P|117:65|211:45,1,150.000005722046
282,32,12333,1,0,0:0:0:0:
256,133,12483,1,0,0:0:0:0:
256,133,12633,1,8,0:0:0:0:
348,80,12783,1,0,0:0:0:0:
402,307,13083,5,0,0:0:0:0:
450,240,13233,2,0,P|446:203|438:159,1,75.0000028610231,8|0,0:0|0:0,0:0:0:0:
326,282,13533,2,0,P|254:286|157:260,2,150.000005722046,0|8|0,0:0|0:0|0:0,0:0:0:0:
366,203,14283,1,0,0:0:0:0:
402,307,14433,1,8,0:0:0:0:
402,307,14583,1,0,0:0:0:0:
437,182,14733,6,0,P|393:194|359:205,1,75.0000028610231
145,212,15033,2,0,P|189:200|223:189,1,75.0000028610231,8|0,0:0|0:0,0:0:0:0:
293,158,15333,1,2,0:0:0:0:
283,330,15483,5,8,0:0:0:0:
283,330,15633,1,8,0:0:0:0:
283,330,15783,1,8,0:0:0:0:
378,124,15933,6,0,L|178:107,1,170.000003242493,12|2,0:0|0:0,0:0:0:0:
208,109,16383,1,2,0:0:0:0:
280,193,16533,1,0,1:0:0:0:
197,226,16683,2,0,P|151:220|123:192,1,85.0000016212464,2|2,0:0|0:0,0:0:0:0:
312,78,16983,5,0,0:0:0:0:
362,216,17133,2,0,L|460:190,1,85.0000016212464,0|2,1:0|0:0,0:0:0:0:
312,78,17433,1,2,0:0:0:0:
312,78,17583,1,2,0:0:0:0:
362,216,17733,2,0,L|338:303,1,85.0000016212464,0|2,1:0|0:0,0:0:0:0:
335,314,17958,1,0,0:0:0:0:
331,330,18033,1,2,0:0:0:0:
430,272,18183,1,0,0:0:0:0:
245,303,18333,6,0,P|196:296|159:263,1,85.0000016212464,0|0,1:0|0:0,0:0:0:0:
150,115,18633,2,0,P|184:89|241:93,1,85.0000016212464,2|2,0:0|0:0,0:0:0:0:
168,275,18933,2,0,L|122:200,2,85.0000016212464,0|2|2,1:0|0:0|0:0,0:0:0:0:
234,209,19383,1,0,0:0:0:0:
348,187,19533,5,0,1:0:0:0:
348,187,19683,2,0,P|390:197|440:205,1,85.0000016212464,0|2,0:0|0:0,0:0:0:0:
267,132,19983,1,2,0:0:0:0:
346,74,20133,1,0,1:0:0:0:
321,283,20283,5,8,0:0:0:0:
165,152,20433,1,8,0:0:0:0:
417,107,20583,1,8,0:0:0:0:
199,263,20733,6,0,P|157:308|116:354,2,100,0|0|8,1:0|0:0|0:0,0:0:0:0:
398,230,21183,1,0,0:0:0:0:
135,195,21333,1,0,1:0:0:0:
135,195,21483,2,0,P|144:144|154:81,1,100,0|8,1:0|0:0,0:0:0:0:
303,241,21783,1,0,0:0:0:0:
84,283,21933,5,0,1:0:0:0:
260,169,22083,1,0,0:0:0:0:
398,230,22233,1,8,0:0:0:0:
229,156,22383,2,0,L|21:72,1,200,8|0,0:0|1:0,0:0:0:0:
84,283,22833,5,8,0:0:0:0:
48,101,22983,1,0,0:0:0:0:
235,174,23133,2,0,P|301:165|348:158,1,100,0|0,1:0|0:0,0:0:0:0:
116,45,23433,2,0,P|182:36|229:29,1,100,8|0,0:0|0:0,0:0:0:0:
401,90,23733,1,0,1:0:0:0:
336,260,23883,1,0,1:0:0:0:
336,260,24033,1,8,0:0:0:0:
241,118,24183,5,0,0:0:0:0:
425,175,24333,1,0,1:0:0:0:
323,284,24483,1,0,1:0:0:0:
220,97,24633,1,8,0:0:0:0:
455,171,24783,2,0,L|339:186,1,100,8|0,0:0|0:0,0:0:0:0:
263,327,25083,1,0,1:0:0:0:
108,63,25233,5,8,1:2:0:0:
136,226,25383,1,0,1:0:0:0:
318,114,25533,2,0,B|259:104|203:93,1,100,4|0,1:0|0:0,0:0:0:0:
290,289,25833,1,8,0:0:0:0:
475,169,25983,1,0,0:0:0:0:
475,169,26133,2,0,P|466:233|459:283,1,100,0|0,1:0|0:0,0:0:0:0:
268,326,26433,2,0,P|210:322|165:286,1,100,8|0,0:0|0:0,0:0:0:0:
80,130,26733,5,0,1:0:0:0:
266,91,26883,1,0,0:0:0:0:
96,113,27033,1,8,0:0:0:0:
284,77,27183,2,0,B|313:82|336:65|336:65|340:120|358:157|358:157|341:233,1,200,8|0,0:0|1:0,0:0:0:0:
393,358,27633,1,8,0:0:0:0:
245,175,27783,1,0,0:0:0:0:
96,316,27933,6,0,P|149:321|203:288,1,100,0|0,1:0|0:0,0:0:0:0:
347,205,28233,2,0,L|471:222,1,100,8|0,0:0|0:0,0:0:0:0:
434,80,28533,1,0,1:0:0:0:
182,155,28683,1,0,0:0:0:0:
182,155,28833,1,8,0:0:0:0:
360,224,28983,1,0,0:0:0:0:
183,320,29133,5,0,1:0:0:0:
317,304,29283,1,0,1:0:0:0:
171,131,29433,1,8,0:0:0:0:
72,258,29583,2,0,P|82:315|93:371,1,100,8|0,0:0|0:0,0:0:0:0:
339,302,29883,1,0,1:0:0:0:
189,118,30033,1,8,0:0:0:0:
81,237,30183,1,8,0:0:0:0:
235,220,30333,6,0,L|261:222,15,18.7500007152558,2|0|0|0|0|0|0|0|0|0|0|0|0|0|0|0,1:0|0:0|0:0|0:0|0:0|0:0|0:0|0:0|0:0|0:0|0:0|0:0|0:0|0:0|0:0|0:0,0:0:0:0:
275,236,30933,6,0,B|374:250,1,75.0000028610231,8|0,1:0|0:0,0:0:0:0:
126,56,31158,6,0,B|211:68,1,75.0000028610231,8|0,1:0|0:0,0:0:0:0:
38,305,31383,6,0,B|123:318,1,75.0000028610231,8|0,1:0|0:0,0:0:0:0:
293,348,31533,6,0,P|356:333|428:317,1,125,4|0,1:0|0:0,0:0:0:0:
477,109,31833,2,0,P|431:59|354:63,1,125,2|0,3:0|0:0,0:0:0:0:
157,205,32133,2,0,P|70:189|16:178,1,125,0|0,1:0|0:0,0:0:0:0:
292,34,32433,5,2,3:0:0:0:
383,244,32583,1,0,3:0:0:0:
383,244,32658,1,0,3:0:0:0:
383,244,32733,1,0,1:0:0:0:
166,128,32883,1,0,0:0:0:0:
286,338,33033,1,2,3:0:0:0:
450,106,33183,2,0,B|425:104|398:115|398:115|327:88|292:34|292:34|266:59|225:70,1,250,0|0,1:0|1:0,0:0:0:0:
92,146,33633,5,2,3:0:0:0:
277,227,33783,1,0,0:0:0:0:
106,270,33933,2,0,L|92:145,1,125,0|0,1:0|0:0,0:0:0:0:
240,65,34233,1,2,3:0:0:0:
240,65,34383,1,0,0:0:0:0:
384,153,34533,5,0,1:0:0:0:
208,302,34683,1,0,0:0:0:0:
243,161,34833,1,2,3:0:0:0:
489,234,34983,2,0,P|412:258|350:277,1,125,0|0,0:0|1:0,0:0:0:0:
145,201,35283,5,0,0:0:0:0:
178,341,35433,1,2,3:0:0:0:
344,260,35583,1,0,1:0:0:0:
135,124,35733,5,0,1:0:0:0:
454,169,35883,1,8,1:2:0:0:
68,236,36033,1,8,1:2:0:0:
363,178,36183,1,0,1:0:0:0:
53,112,36333,6,0,B|69:241,1,125,4|0,1:0|0:0,0:0:0:0:
302,336,36633,2,0,P|382:338|439:291,1,125,2|0,3:0|0:0,0:0:0:0:
482,75,36933,1,0,1:0:0:0:
235,38,37083,1,0,3:0:0:0:
178,275,37233,1,2,3:0:0:0:
235,38,37383,1,0,0:0:0:0:
330,258,37533,5,0,1:0:0:0:
122,145,37683,1,0,3:0:0:0:
122,145,37758,1,0,3:0:0:0:
122,145,37833,1,2,3:0:0:0:
441,71,37983,2,0,P|377:58|298:43,1,125,0|0,1:0|1:0,0:0:0:0:
108,38,38283,5,0,1:0:0:0:
340,185,38433,1,8,1:2:0:0:
63,248,38583,1,8,1:2:0:0:
411,349,38733,2,0,B|437:194,1,150.000005722046,6|0,1:0|1:0,0:0:0:0:
453,129,38958,1,0,1:0:0:0:
456,114,39033,1,0,1:0:0:0:
162,265,39183,6,0,P|189:296|233:310,1,75.0000028610231,2|0,1:0|0:0,0:0:0:0:
152,274,39483,6,0,P|179:305|223:319,1,75.0000028610231,2|0,1:0|0:0,0:0:0:0:
450,49,39783,6,2,B|401:28|335:62|335:62|282:24|212:38|212:38|233:61|234:105,1,300.000011444092,6|2,1:0|1:0,0:1:0:0:
265,158,40158,1,0,3:0:0:0:
265,158,40233,2,0,P|275:192|309:223,1,75.0000028610231,0|0,3:0|3:0,0:0:0:0:
428,238,40383,2,0,P|383:265|357:305,1,75.0000028610231,2|0,3:1|3:0,0:0:0:0:
191,331,40533,5,0,3:0:0:0:
137,334,40608,1,0,3:0:0:0:
83,317,40683,1,2,3:0:0:0:
49,279,40758,1,2,3:0:0:0:
51,257,40833,5,2,3:0:0:0:
86,298,40908,1,2,3:0:0:0:
141,316,40983,1,8,0:0:0:0:
194,314,41058,1,8,0:0:0:0:
245,299,41133,2,0,B|383:280,1,125,4|0,1:0|0:0,0:0:0:0:
290,24,41433,2,0,B|137:46,1,125,2|0,3:0|0:0,0:0:0:0:
31,206,41733,5,0,1:0:0:0:
244,126,41883,1,0,0:0:0:0:
31,206,42033,1,2,3:0:0:0:
250,259,42183,1,0,0:0:0:0:
113,65,42333,5,0,1:0:0:0:
351,157,42483,1,0,0:0:0:0:
144,293,42633,1,2,3:0:0:0:
435,141,42783,2,0,B|261:174|261:174|162:136,1,250,0|0,1:0|1:0,0:0:0:0:
127,329,43233,5,2,3:0:0:0:
164,138,43383,1,0,1:0:0:0:
220,345,43533,2,0,P|224:282|228:215,1,125,4|0,1:2|0:0,0:0:0:0:
326,326,43833,1,2,3:0:0:0:
308,155,43983,1,0,0:0:0:0:
432,319,44133,5,0,1:0:0:0:
440,106,44283,1,0,1:0:0:0:
465,325,44433,1,2,3:0:0:0:
470,123,44583,2,0,P|404:104|341:85,1,125,2|0,0:0|1:0,0:0:0:0:
179,66,44883,1,0,1:0:0:0:
66,206,45033,1,2,3:0:0:0:
237,124,45183,1,0,1:0:0:0:
281,306,45333,5,0,1:0:0:0:
58,116,45483,1,8,1:2:0:0:
387,291,45633,1,8,1:2:0:0:
16,196,45783,1,0,1:0:0:0:
444,206,45933,6,0,P|447:141|450:58,1,125,4|0,1:0|0:0,0:0:0:0:
215,343,46233,2,0,P|220:275|224:216,1,125,2|0,3:0|0:0,0:0:0:0:
370,97,46533,5,0,1:0:0:0:
220,40,46683,1,0,1:0:0:0:
215,343,46833,1,2,3:0:0:0:
444,206,46983,1,0,0:0:0:0:
98,164,47133,1,0,1:0:0:0:
348,186,47283,5,0,1:0:0:0:
348,186,47358,1,0,3:0:0:0:
348,186,47433,1,2,3:0:0:0:
73,66,47583,1,0,1:0:0:0:
374,184,47733,1,0,1:0:0:0:
21,242,47883,1,0,1:0:0:0:
400,182,48033,5,8,0:0:0:0:
55,52,48183,1,8,0:0:0:0:
291,351,48333,1,12,1:0:0:0:
138,209,48633,5,2,0:0:0:0:
138,209,48783,2,0,P|137:169|138:120,1,75.0000028610231,2|0,0:0|0:0,0:0:0:0:
226,88,49083,2,0,P|226:125|226:177,1,75.0000028610231,2|0,0:0|0:0,0:0:0:0:
312,36,49383,2,0,P|313:75|314:141,1,75.0000028610231,2|0,0:0|0:0,0:0:0:0:
386,182,49683,1,2,0:0:0:0:
432,104,49833,1,2,0:0:0:0:
476,269,49983,5,2,3:0:0:0:
466,297,50058,1,2,3:0:0:0:
456,325,50133,1,8,0:0:0:0:
407,313,50208,1,8,0:0:0:0:
358,301,50283,1,8,0:0:0:0:
309,289,50358,1,8,0:0:0:0:
260,277,50433,1,8,0:0:0:0:
40,139,50733,5,4,1:0:0:0:
40,139,50808,1,0,0:0:0:0:
40,139,50883,1,0,0:0:0:0:
193,173,51033,1,2,3:0:0:0:
302,82,51183,1,0,0:0:0:0:
169,160,51333,1,0,1:0:0:0:
169,160,51483,2,0,L|191:263,1,100,0|2,0:0|3:0,0:0:0:0:
407,313,51783,6,0,B|448:301|464:281|464:281|460:247|450:213|450:213|465:174|463:132,1,200,2|0,0:1|3:0,0:0:0:0:
394,126,52158,1,0,3:0:0:0:
322,101,52233,1,2,3:0:0:0:
475,35,52383,1,0,0:0:0:0:
419,171,52533,1,0,1:0:0:0:
249,77,52683,1,2,0:0:0:0:
371,28,52833,2,0,P|387:46|400:77,1,50,2|0,3:0|0:0,0:0:0:0:
378,239,52983,2,0,P|350:266|319:274,1,50,2|0,0:0|0:0,0:0:0:0:
173,238,53133,5,4,1:0:0:0:
173,238,53208,1,0,0:0:0:0:
173,238,53283,1,0,0:0:0:0:
80,333,53433,1,2,3:0:0:0:
44,172,53583,1,2,0:0:0:0:
80,333,53733,2,0,L|206:319,1,100,0|0,1:0|0:0,0:0:0:0:
222,318,53958,1,0,0:0:0:0:
222,318,54033,1,2,3:0:0:0:
423,196,54183,6,0,B|211:172,1,200,2|0,0:1|3:0,0:0:0:0:
160,141,54558,1,0,3:0:0:0:
98,105,54633,1,2,3:0:0:0:
263,198,54783,1,0,0:0:0:0:
64,273,54933,5,0,1:0:0:0:
209,308,55083,1,0,0:0:0:0:
368,280,55233,5,8,0:0:0:0:
436,138,55383,1,8,0:0:0:0:
230,59,55533,5,0,1:0:0:0:
230,59,55608,1,0,0:0:0:0:
230,59,55683,1,0,0:0:0:0:
186,212,55833,1,2,3:0:0:0:
343,64,55983,2,0,L|351:89,4,25,2|0|2|0|0,0:0|0:0|0:0|0:0|1:0,0:0:0:0:
142,132,56283,1,0,0:0:0:0:
142,132,56433,1,2,3:0:0:0:
396,285,56583,6,0,B|355:287|325:270|325:270|296:306|256:320|256:320|191:313,1,200,2|2,0:1|0:0,0:0:0:0:
146,295,56958,1,2,0:0:0:0:
77,272,57033,2,0,L|59:201,1,50,2|0,3:0|0:0,0:0:0:0:
142,132,57183,1,2,0:0:0:0:
212,152,57258,1,2,0:0:0:0:
281,175,57333,2,0,L|320:121,1,50,0|0,1:0|0:0,0:0:0:0:
289,333,57483,1,2,0:0:0:0:
46,143,57633,5,0,1:0:0:0:
81,107,57708,1,0,1:0:0:0:
129,92,57783,1,0,1:0:0:0:
179,88,57858,1,0,1:0:0:0:
227,102,57933,2,0,L|276:108,2,50,4|0|0,1:0|0:0|0:0,0:0:0:0:
383,242,58233,5,2,3:0:0:0:
478,147,58383,1,0,0:0:0:0:
273,195,58533,1,2,1:2:0:0:
414,253,58683,1,0,0:0:0:0:
250,351,58833,1,2,3:0:0:0:
266,172,58983,2,0,L|273:107,1,50
358,37,59133,5,2,3:2:0:0:
365,76,59208,1,2,0:0:0:0:
404,75,59283,1,2,0:0:0:0:
416,113,59358,1,2,0:0:0:0:
455,108,59433,1,2,0:0:0:0:
155,115,59583,5,2,3:0:0:0:
111,155,59658,1,2,3:0:0:0:
91,211,59733,1,2,3:0:0:0:
95,270,59808,1,2,3:0:0:0:
125,321,59883,1,2,3:0:0:0:
177,349,59958,1,2,3:0:0:0:
236,355,60033,1,8,0:0:0:0:
295,344,60108,1,8,0:0:0:0:
354,333,60183,1,8,0:0:0:0:
413,322,60258,1,8,0:0:0:0:
