osu file format v14

[General]
AudioFilename: audio.mp3
AudioLeadIn: 0
PreviewTime:30858
Countdown: 0
SampleSet: Soft
StackLeniency: 0.7
Mode: 0
LetterboxInBreaks: 0
WidescreenStoryboard: 0

[Editor]
Bookmarks: 31533,50733
DistanceSpacing: 0.1
BeatDivisor: 8
GridSize: 4
TimelineZoom: 3.399999

[Metadata]
Title:Kuuchuu Bunkai
TitleUnicode:空中分解
Artist:Three
ArtistUnicode:すりぃ
Creator:Ryuusei Aika
Version:Garden's Extra
Source:
Tags:Collage Japanese Rock J-Rock JRock Male Vocal Surii ボーカロイド ボカロ VOCALOID 鏡音レン Kagamine Len 真ひろ まめでん ま子 Akitoshi Ujimatcha -ClariS- Yorita Yoshino Yorita_Yoshino Dored Yugu Skyflame Cami wyrio Firika AncuL -Eriri- Laura -Laura- Corinn -Mikan Mikan Bazz Bazz_B X Light X_Light XLT Reform Kujinn Seto Kousuke Seto_Kousuke Djulus -MikanMyMommy gary00737 HabiHolic Haruto Haruto_Aizawa Armin A_r_M_i_N Agatsu Garden kanor Error- -Keitaro SnowNiNo_ Sylas TheKoala CoLouRed GlaZeE CoLouRed_GlaZeE caren_sk CRN
BeatmapID:1989562
BeatmapSetID:952132

[Difficulty]
HPDrainRate:7
CircleSize:4.2
OverallDifficulty:9
ApproachRate:9.4
SliderMultiplier:1.8
SliderTickRate:1

[Events]
//Background and Video events
Video,3,"video.mp4"
0,0,"BG.jpg",0,0
//Break Periods
2,48533,49443
//Storyboard Layer 0 (Background)
//Storyboard Layer 1 (Fail)
//Storyboard Layer 2 (Pass)
//Storyboard Layer 3 (Foreground)
//Storyboard Layer 4 (Overlay)
//Storyboard Sound Samples

[TimingPoints]
333,300,4,2,1,55,1,0
333,-133.333333333333,4,2,1,55,0,0
1233,-80,4,2,1,99,0,0
1458,-80,4,2,1,5,0,0
1533,-90.9090909090909,4,2,1,77,0,0
3933,-76.9230769230769,4,2,1,77,0,0
4233,-90.9090909090909,4,2,1,77,0,0
6333,-76.9230769230769,4,2,1,77,0,0
6633,-90.9090909090909,4,2,1,77,0,0
9933,-100,4,2,1,77,0,0
11133,-100,4,2,1,77,0,0
11433,-100,4,2,0,44,0,0
15483,-100,4,2,1,66,0,0
15933,-133.333333333333,4,2,1,55,0,0
19533,-133.333333333333,4,2,1,55,0,0
20283,-133.333333333333,4,2,1,77,0,0
20733,-133.333333333333,4,2,1,66,0,0
30333,-133.333333333333,4,2,88,55,0,0
30933,-66.6666666666667,4,2,88,77,0,0
31383,-66.6666666666667,4,2,88,77,0,0
31533,-83.3333333333333,4,2,1,99,0,0
38733,-66.6666666666667,4,2,1,88,0,0
40383,-83.3333333333333,4,2,1,66,0,0
40683,-83.3333333333333,4,2,1,77,0,0
41133,-83.3333333333333,4,2,1,99,0,0
47883,-83.3333333333333,4,2,1,99,0,0
48333,-83.3333333333333,4,2,99,99,0,0
49983,-83.3333333333333,4,2,1,66,0,0
50133,-50,4,2,1,88,0,0
50283,-50,4,2,1,66,0,0
50733,-90.9090909090909,4,2,1,77,0,0
53133,-76.9230769230769,4,2,1,77,0,0
53433,-90.9090909090909,4,2,1,77,0,0
55533,-76.9230769230769,4,2,1,77,0,0
55833,-133.333333333333,4,2,1,77,0,0
56133,-90.9090909090909,4,2,1,77,0,0
56208,-90.9090909090909,4,2,1,77,0,0
57333,-90.9090909090909,4,2,1,77,0,0
57670,-90.9090909090909,4,2,1,11,0,0
57708,-90.9090909090909,4,2,1,77,0,0
57745,-90.9090909090909,4,2,1,11,0,0
57783,-90.9090909090909,4,2,1,77,0,0
57820,-90.9090909090909,4,2,1,11,0,0
57858,-90.9090909090909,4,2,1,77,0,0
57895,-90.9090909090909,4,2,1,11,0,0
57933,-90.9090909090909,4,2,1,77,0,0
59283,-181.818181818182,4,2,1,77,0,0
59583,-90.9090909090909,4,2,1,77,0,0

[Colours]
Combo1 : 255,120,55
Combo2 : 0,49,98
Combo3 : 128,64,64

[HitObjects]
328,315,333,6,0,P|377:325|428:332,1,101.250003862381,8|8,2:0|2:0,0:0:0:0:
229,284,783,2,0,P|225:317|219:350,1,67.5000025749208,8|8,2:0|2:0,0:0:0:0:
216,358,1233,6,2,B|172:316|172:316|132:321|63:344,1,168.75,2|0,0:0|0:0,3:3:0:0:
47,351,1533,5,4,1:0:0:0:
182,184,1683,1,2,0:0:0:0:
182,184,1758,1,2,0:0:0:0:
182,184,1833,1,2,3:0:0:0:
95,144,1983,2,0,L|38:151,1,49.5000015106202
301,0,2133,5,0,1:0:0:0:
291,85,2283,2,0,L|280:183,1,99.0000030212403,2|2,0:0|3:0,0:0:0:0:
421,274,2583,5,2,0:1:0:0:
316,296,2733,1,0,1:0:0:0:
427,258,2883,1,0,0:0:0:0:
313,310,3033,5,2,3:0:0:0:
504,348,3183,1,0,0:0:0:0:
445,167,3333,5,0,1:0:0:0:
398,378,3483,1,0,0:0:0:0:
313,310,3633,1,2,3:0:0:0:
313,310,3708,1,2,0:0:0:0:
313,310,3783,1,2,0:0:0:0:
229,241,3933,6,0,B|165:211|98:255|98:255|111:303,1,175.499991966248,4|0,1:2|0:0,0:0:0:0:
120,285,4233,2,0,L|129:174,1,99.0000030212403,2|0,3:0|0:0,0:0:0:0:
134,163,4458,1,2,0:0:0:0:
134,163,4533,1,2,1:2:0:0:
22,7,4683,2,0,B|2:51|2:51|50:91,1,99.0000030212403,0|2,0:0|3:0,0:0:0:0:
232,176,4983,5,2,0:1:0:0:
257,62,5133,1,0,1:0:0:0:
242,185,5283,1,0,0:0:0:0:
246,51,5433,5,2,3:0:0:0:
376,0,5583,1,0,0:0:0:0:
242,185,5733,5,0,1:0:0:0:
242,185,5808,1,2,0:0:0:0:
242,185,5883,1,2,0:0:0:0:
48,95,6033,1,8,3:2:0:0:
48,95,6108,1,2,0:0:0:0:
48,95,6183,1,10,0:0:0:0:
369,131,6333,6,0,B|311:172|324:247|324:247|380:288,1,175.499991966248,4|0,1:0|0:0,0:0:0:0:
375,280,6633,2,0,P|415:251|463:252,1,99.0000030212403,2|0,3:0|0:0,0:0:0:0:
487,265,6858,1,2,0:0:0:0:
487,265,6933,1,2,1:2:0:0:
218,364,7083,2,0,L|119:357,1,99.0000030212403,0|2,0:0|3:0,0:0:0:0:
324,371,7383,5,2,0:1:0:0:
375,280,7533,1,0,1:0:0:0:
334,384,7683,1,0,0:0:0:0:
365,266,7833,5,2,3:0:0:0:
218,364,7983,1,0,0:0:0:0:
45,320,8133,5,0,1:0:0:0:
45,320,8208,1,2,0:0:0:0:
45,320,8283,1,2,0:0:0:0:
150,280,8433,1,2,3:0:0:0:
150,280,8508,1,2,0:0:0:0:
150,280,8583,1,2,0:0:0:0:
250,236,8733,6,0,B|306:180|274:98|274:98|216:78,1,198.000006042481,4|2,1:2|3:0,0:0:0:0:
467,184,9183,1,2,0:0:0:0:
467,184,9258,1,2,0:0:0:0:
467,184,9333,1,0,1:0:0:0:
210,77,9483,2,0,L|328:56,1,99.0000030212403,0|2,0:0|3:0,0:0:0:0:
505,103,9783,5,2,0:0:0:0:
380,213,9933,1,2,3:0:0:0:
419,7,10083,5,2,0:0:0:0:
419,7,10158,1,2,0:0:0:0:
419,7,10233,1,2,3:0:0:0:
325,286,10383,1,2,0:0:0:0:
325,286,10458,1,2,0:0:0:0:
325,286,10533,1,2,3:0:0:0:
467,184,10683,1,2,3:0:0:0:
186,214,10833,5,8,0:0:0:0:
210,211,10908,1,8,0:0:0:0:
235,208,10983,1,8,0:0:0:0:
259,205,11058,1,8,0:0:0:0:
284,202,11133,1,8,0:0:0:0:
416,297,11433,5,8,0:0:0:0:
416,297,12033,1,8,0:0:0:0:
53,190,12633,5,8,0:0:0:0:
53,190,13233,1,8,0:0:0:0:
395,29,13833,5,8,0:0:0:0:
395,30,14433,1,8,0:0:0:0:
202,312,15033,5,8,0:0:0:0:
210,301,15333,5,2,1:2:0:0:
308,338,15483,1,8,0:0:0:0:
374,254,15633,5,8,0:0:0:0:
216,290,15783,1,8,0:0:0:0:
59,324,15933,5,12,0:0:0:0:
333,167,16233,5,2,0:0:0:0:
260,208,16383,2,0,L|185:199,1,67.5000025749208,2|0,0:0|1:0,0:0:0:0:
0,40,16683,5,2,0:0:0:0:
73,81,16833,2,0,L|139:72,1,67.5000025749208,2|0,0:0|0:0,0:0:0:0:
374,30,17133,5,0,1:0:0:0:
318,88,17283,1,2,0:0:0:0:
333,167,17433,1,2,0:0:0:0:
404,205,17583,1,2,0:0:0:0:
467,154,17733,5,0,1:0:0:0:
318,88,17883,2,0,P|313:66|309:40,2,33.7500012874604,2|2|2,0:0|0:0|0:0,0:0:0:0:
239,235,18183,1,0,0:0:0:0:
406,304,18333,6,0,P|394:239|384:170,1,135.000005149842,0|2,1:0|0:0,0:0:0:0:
384,170,18783,1,2,0:0:0:0:
98,206,19083,5,2,0:0:0:0:
171,248,19233,2,0,L|246:240,1,67.5000025749208,2|0,0:0|0:0,0:0:0:0:
451,44,19533,1,0,1:0:0:0:
458,53,19833,5,2,0:0:0:0:
385,95,19983,2,0,L|310:87,1,67.5000025749208,2|0,0:0|1:0,0:0:0:0:
89,191,20283,5,8,0:0:0:0:
238,240,20433,1,8,0:0:0:0:
77,199,20583,1,8,0:0:0:0:
305,94,20733,5,4,1:2:0:0:
223,51,20883,2,0,L|214:117,1,67.5000025749208,0|8,0:0|0:0,0:0:0:0:
417,192,21183,1,0,0:0:0:0:
238,240,21333,5,0,1:0:0:0:
320,283,21483,2,0,L|329:216,1,67.5000025749208,2|8,1:2|0:0,0:0:0:0:
141,331,21783,5,0,0:0:0:0:
223,374,21933,1,0,1:0:0:0:
60,359,22083,5,0,0:0:0:0:
233,384,22233,1,8,0:0:0:0:
335,245,22383,2,0,L|326:178,1,67.5000025749208
152,9,22683,5,0,1:0:0:0:
200,74,22833,1,8,0:0:0:0:
180,152,22983,1,0,0:0:0:0:
107,187,23133,6,0,L|39:179,1,67.5000025749208,0|0,1:0|0:0,0:0:0:0:
275,35,23433,2,0,L|350:43,1,67.5000025749208,8|0,0:0|0:0,0:0:0:0:
257,272,23733,5,0,1:0:0:0:
180,152,23883,1,0,1:0:0:0:
130,323,24033,5,8,0:0:0:0:
269,266,24183,1,0,0:0:0:0:
512,310,24333,5,0,1:0:0:0:
375,367,24483,1,0,1:0:0:0:
394,219,24633,1,8,0:0:0:0:
426,299,24783,5,8,0:0:0:0:
78,171,25083,5,0,1:0:0:0:
149,123,25233,2,0,L|141:55,1,67.5000025749208,8|0,1:2|1:0,0:0:0:0:
72,341,25533,5,4,1:0:0:0:
1,293,25683,2,0,L|9:215,1,67.5000025749208,0|8,0:0|0:0,0:0:0:0:
274,240,25983,1,0,0:0:0:0:
72,341,26133,5,0,1:0:0:0:
212,301,26283,2,0,L|144:293,1,67.5000025749208,0|8,0:0|0:0,0:0:0:0:
418,283,26583,5,0,0:0:0:0:
216,384,26733,1,0,1:0:0:0:
349,384,26883,5,0,0:0:0:0:
311,312,27033,1,8,0:0:0:0:
274,240,27183,2,0,L|280:173,1,67.5000025749208,8|0,0:0|1:0,0:0:0:0:
394,2,27483,5,0,1:0:0:0:
498,132,27633,1,8,0:0:0:0:
394,2,27783,1,0,0:0:0:0:
292,88,27933,6,0,L|359:81,1,67.5000025749208,4|0,1:0|0:0,0:0:0:0:
498,132,28233,2,0,L|430:138,1,67.5000025749208,8|0,0:0|0:0,0:0:0:0:
303,276,28533,5,0,1:0:0:0:
441,226,28683,1,0,0:0:0:0:
343,185,28833,5,8,0:0:0:0:
317,276,28983,1,0,0:0:0:0:
291,367,29133,5,0,1:0:0:0:
247,209,29283,1,0,1:0:0:0:
204,52,29433,5,8,0:0:0:0:
276,87,29583,2,0,L|365:72,1,67.5000025749208,8|0,0:0|0:0,0:0:0:0:
393,13,29883,5,0,1:0:0:0:
276,87,30033,1,8,0:0:0:0:
157,151,30183,1,8,0:0:0:0:
343,185,30333,6,0,L|334:170,14,16.8750006437302,2|0|0|0|0|0|0|0|0|0|0|0|0|0|0,1:0|0:0|0:0|0:0|0:0|0:0|0:0|0:0|0:0|0:0|0:0|0:0|0:0|0:0|0:0,0:0:0:0:
368,266,30933,6,0,P|381:165|403:66,2,202.500007724762,8|8|8,1:0|1:0|1:0,0:0:0:0:
172,283,31533,6,0,B|210:243|210:243|262:250,1,107.999996704102,4|0,1:0|0:0,0:0:0:0:
508,343,31833,2,0,B|400:355,1,107.999996704102,2|0,3:0|0:0,0:0:0:0:
250,342,32133,5,0,1:0:0:0:
368,266,32283,1,0,0:0:0:0:
312,151,32433,1,2,3:0:0:0:
390,96,32583,1,0,0:0:0:0:
350,32,32733,5,0,1:0:0:0:
404,86,32883,2,0,P|456:75|510:69,1,107.999996704102,0|2,0:0|3:0,0:0:0:0:
262,250,33183,2,0,P|183:231|102:227,1,161.999995056153,0|0,1:0|0:0,0:0:0:0:
85,230,33483,1,0,1:0:0:0:
331,322,33633,2,0,B|366:282|366:282|356:228,1,107.999996704102,2|0,3:0|0:0,0:0:0:0:
293,158,33933,1,0,1:0:0:0:
293,158,34233,5,2,3:0:0:0:
237,348,34383,1,0,0:0:0:0:
230,229,34533,5,0,1:0:0:0:
306,286,34683,1,0,0:0:0:0:
254,265,34833,5,2,3:0:0:0:
287,242,34983,2,0,P|347:254|393:258,1,107.999996704102,0|0,0:0|1:0,0:0:0:0:
453,81,35283,5,0,0:0:0:0:
293,158,35433,1,2,3:0:0:0:
146,59,35583,1,0,0:0:0:0:
93,133,35733,5,0,1:0:0:0:
232,35,35883,1,8,1:2:0:0:
375,139,36033,1,8,1:2:0:0:
510,0,36183,1,0,1:0:0:0:
391,144,36333,6,0,P|382:197|374:250,1,107.999996704102,4|0,1:0|0:0,0:0:0:0:
98,384,36633,2,0,B|64:342|64:342|76:289,1,107.999996704102,2|0,3:0|0:0,0:0:0:0:
128,126,36933,5,0,1:0:0:0:
181,317,37083,1,0,0:0:0:0:
334,365,37233,5,2,3:0:0:0:
374,250,37383,1,0,0:0:0:0:
487,112,37533,5,0,1:0:0:0:
512,189,37683,2,0,P|464:182|396:175,1,107.999996704102,0|2,0:0|3:0,0:0:0:0:
184,334,37983,2,0,P|108:340|11:357,1,161.999995056153,2|0,0:0|0:0,0:0:0:0:
7,359,38283,1,0,1:0:0:0:
311,209,38433,2,0,P|320:158|337:98,1,107.999996704102,8|8,1:2|1:2,0:0:0:0:
146,249,38733,6,0,B|272:222|216:314|332:300,1,202.500007724762,6|0,1:0|0:0,0:0:0:0:
349,297,39033,1,0,1:0:0:0:
265,30,39183,6,0,B|223:85|223:85|243:152,1,135.000005149842,2|0,1:0|0:0,0:0:0:0:
184,334,39483,6,0,B|123:341|123:341|108:332|108:332|52:340,1,135.000005149842,2|0,1:0|0:0,0:0:0:0:
394,384,39783,6,2,B|400:338|382:306|382:306|407:282|407:282|383:242|412:179,1,202.500007724762,6|0,1:0|0:0,0:0:0:0:
414,176,40083,1,2,1:0:0:0:
291,363,40233,1,0,3:0:0:0:
146,249,40383,5,0,1:0:0:0:
146,249,40458,1,0,1:0:0:0:
146,249,40533,2,0,L|229:234,1,53.9999983520508,0|0,1:0|0:0,0:0:0:0:
294,138,40683,2,0,L|241:148,1,53.9999983520508,2|2,3:0|3:0,0:0:0:0:
27,99,40833,1,2,3:0:0:0:
66,92,40908,1,2,3:0:0:0:
106,85,40983,1,8,0:0:0:0:
146,78,41058,1,8,0:0:0:0:
186,71,41133,1,4,1:0:0:0:
74,336,41433,6,0,B|33:295|33:295|44:249|62:195,1,161.999995056153,2|0,3:0|0:0,0:0:0:0:
72,173,41733,5,0,1:0:0:0:
228,326,41883,1,0,0:0:0:0:
342,250,42033,1,2,3:0:0:0:
418,331,42183,1,0,0:0:0:0:
504,297,42333,5,0,1:0:0:0:
426,349,42483,2,0,P|379:353|315:368,1,107.999996704102,0|2,0:0|3:0,0:0:0:0:
4,266,42783,2,0,P|91:251|166:234,1,161.999995056153,0|0,1:0|0:0,0:0:0:0:
182,226,43083,1,0,1:0:0:0:
409,67,43233,2,0,B|376:29|376:29|308:36,1,107.999996704102,2|0,3:0|1:0,0:0:0:0:
218,24,43533,6,0,P|244:100|263:179,1,161.999995056153,4|0,1:2|0:0,0:0:0:0:
269,199,43833,1,2,3:0:0:0:
164,138,43983,1,0,0:0:0:0:
313,284,44133,5,0,1:0:0:0:
463,175,44283,1,0,1:0:0:0:
309,301,44433,5,2,3:0:0:0:
407,337,44583,2,0,P|398:287|392:229,1,107.999996704102,2|0,0:0|1:0,0:0:0:0:
318,34,44883,5,0,1:0:0:0:
266,108,45033,1,2,3:0:0:0:
320,200,45183,1,0,1:0:0:0:
205,313,45333,5,0,1:0:0:0:
337,211,45483,1,8,1:2:0:0:
250,105,45633,1,8,1:2:0:0:
332,23,45783,1,0,1:0:0:0:
236,103,45933,6,0,P|184:110|128:114,1,107.999996704102,4|0,1:0|0:0,0:0:0:0:
351,221,46233,2,0,B|402:226|402:226|445:190,1,107.999996704102,2|0,3:0|0:0,0:0:0:0:
329,130,46533,5,0,1:0:0:0:
289,297,46683,1,0,1:0:0:0:
166,384,46833,5,2,3:0:0:0:
126,281,46983,1,0,0:0:0:0:
23,242,47133,5,0,1:0:0:0:
140,287,47283,1,0,1:0:0:0:
281,207,47433,1,2,3:0:0:0:
464,345,47583,1,0,1:0:0:0:
464,345,47883,5,0,1:0:0:0:
370,384,48033,2,0,P|377:330|382:276,1,107.999996704102,8|8,0:0|0:0,0:0:0:0:
329,130,48333,1,12,1:0:0:0:
105,104,49983,5,2,3:0:0:0:
105,104,50058,1,2,3:0:0:0:
105,104,50133,2,0,B|87:144|87:144|119:181,1,90,8|8,0:0|0:0,0:0:0:0:
299,213,50283,2,0,P|256:218|202:230,1,90,8|8,0:0|0:0,0:0:0:0:
15,345,50433,1,8,0:0:0:0:
15,345,50733,6,0,P|44:340|74:338,2,49.5000015106202,4|0|0,1:0|0:0|0:0,0:0:0:0:
152,384,51033,2,0,P|144:342|140:283,1,99.0000030212403,2|0,3:0|0:0,0:0:0:0:
145,260,51258,1,0,0:0:0:0:
144,260,51333,1,0,1:0:0:0:
378,289,51483,2,0,B|338:315|338:315|289:300,1,99.0000030212403,0|2,0:0|3:0,0:0:0:0:
83,168,51783,5,2,0:1:0:0:
233,217,51933,1,0,1:0:0:0:
202,62,52083,1,0,0:0:0:0:
177,151,52233,5,2,3:0:0:0:
177,151,52383,1,0,0:0:0:0:
266,132,52533,5,0,1:0:0:0:
147,236,52683,1,2,0:0:0:0:
114,81,52833,1,2,3:0:0:0:
114,81,52908,1,0,0:0:0:0:
114,81,52983,1,2,0:0:0:0:
254,236,53133,6,0,B|317:265|383:215|383:215|378:170,1,175.499991966248,4|0,1:0|0:0,0:0:0:0:
364,166,53433,2,0,L|356:265,1,99.0000030212403,2|2,3:0|0:0,0:0:0:0:
373,291,53658,1,0,0:0:0:0:
373,291,53733,2,0,L|445:275,1,49.5000015106202,0|0,1:0|0:0,0:0:0:0:
512,347,53883,2,0,L|463:357,2,49.5000015106202,0|0|2,0:0|0:0|3:0,0:0:0:0:
470,200,54183,5,2,0:1:0:0:
373,384,54333,1,0,1:0:0:0:
486,202,54483,1,0,0:0:0:0:
309,70,54633,5,2,3:0:0:0:
364,166,54783,1,0,0:0:0:0:
290,256,54933,5,2,1:3:0:0:
280,252,55008,1,2,3:0:0:0:
273,245,55083,1,2,3:0:0:0:
268,236,55158,1,2,3:0:0:0:
264,226,55233,2,0,P|269:194|277:167,1,49.5000015106202,10|0,0:0|0:0,0:0:0:0:
374,159,55383,2,0,P|367:185|361:222,1,49.5000015106202,10|0,0:0|0:0,0:0:0:0:
103,360,55533,6,0,B|146:360|169:315|169:315|220:291|282:337,1,175.499991966248,4|0,1:0|0:0,0:0:0:0:
273,332,55833,1,2,3:0:0:0:
78,136,55983,2,0,L|55:129,4,16.8750006437302,2|0|2|0|0,0:0|0:0|0:0|0:0|1:0,0:0:0:0:
163,218,56283,2,0,P|173:169|186:121,1,99.0000030212403,2|2,0:0|3:0,0:0:0:0:
417,211,56583,5,2,0:1:0:0:
338,89,56733,1,0,1:0:0:0:
429,208,56883,6,0,L|435:171,4,24.7500007553101,2|0|2|0|2,0:0|0:0|0:0|0:0|3:0,0:0:0:0:
348,79,57183,2,0,L|354:42,4,24.7500007553101,2|0|2|0|0,0:0|0:0|0:0|0:0|1:0,0:0:0:0:
310,288,57483,5,2,0:0:0:0:
137,259,57633,6,0,L|100:298,1,24.7500007553101,2|0,1:2|0:0,0:0:0:0:
126,252,57708,2,0,L|83:275,1,24.7500007553101,2|0,1:2|0:0,0:0:0:0:
120,241,57783,2,0,L|76:248,1,24.7500007553101,2|0,1:2|0:0,0:0:0:0:
119,228,57858,2,0,L|80:222,1,24.7500007553101,2|0,1:2|0:0,0:0:0:0:
127,216,57933,6,0,L|284:196,1,148.50000453186,4|0,1:0|0:0,0:0:0:0:
321,273,58233,2,0,B|292:313|292:313|306:365,1,99.0000030212403,2|0,3:0|0:0,0:0:0:0:
318,384,58458,1,2,0:0:0:0:
318,384,58533,1,2,1:2:0:0:
507,231,58683,2,0,L|408:242,1,99.0000030212403,0|2,0:0|3:0,0:0:0:0:
277,110,58983,1,2,0:0:0:0:
277,110,59133,6,0,L|343:102,1,49.5000015106202,2|2,3:2|0:0,0:0:0:0:
415,156,59283,6,0,L|384:160,3,24.7500007553101,2|2|2|2,0:0|0:0|0:0|0:0,0:0:0:0:
490,105,59583,6,0,L|495:55,1,49.5000015106202,2|2,3:0|3:0,0:0:0:0:
507,231,59733,2,0,L|512:181,1,49.5000015106202,2|2,3:0|3:0,0:0:0:0:
469,356,59883,2,0,L|474:306,1,49.5000015106202,2|2,3:0|3:0,0:0:0:0:
408,242,60033,5,8,0:0:0:0:
408,246,60108,1,8,0:0:0:0:
408,250,60183,1,8,0:0:0:0:
408,254,60258,1,8,0:0:0:0:
