osu file format v14

[General]
AudioFilename: audio.mp3
AudioLeadIn: 0
PreviewTime: 30858
Countdown: 0
SampleSet: Soft
StackLeniency: 0.4
Mode: 0
LetterboxInBreaks: 0
WidescreenStoryboard: 1

[Editor]
Bookmarks: 41958,60333
DistanceSpacing: 2.9
BeatDivisor: 8
GridSize: 32
TimelineZoom: 2.499999

[Metadata]
Title:Kuuchuu Bunkai
TitleUnicode:空中分解
Artist:Three
ArtistUnicode:すりぃ
Creator:Ryuusei Aika
Version:Firika's Insane
Source:
Tags:Collage Japanese Rock J-Rock JRock Male Vocal Surii ボーカロイド ボカロ VOCALOID 鏡音レン Kagamine Len 真ひろ まめでん ま子 Akitoshi Ujimatcha -ClariS- Yorita Yoshino Yorita_Yoshino Dored Yugu Skyflame Cami wyrio Firika AncuL -Eriri- Laura -Laura- Corinn -Mikan Mikan Bazz Bazz_B X Light X_Light XLT Reform Kujinn Seto Kousuke Seto_Kousuke Djulus -MikanMyMommy gary00737 HabiHolic Haruto Haruto_Aizawa Armin A_r_M_i_N Agatsu Garden kanor Error- -Keitaro SnowNiNo_ Sylas TheKoala CoLouRed GlaZeE CoLouRed_GlaZeE caren_sk CRN
BeatmapID:2042014
BeatmapSetID:952132

[Difficulty]
HPDrainRate:5.2
CircleSize:4
OverallDifficulty:8
ApproachRate:9.1
SliderMultiplier:1.77
SliderTickRate:1

[Events]
//Background and Video events
Video,3,"video.mp4"
0,0,"BG.jpg",0,0
//Break Periods
//Storyboard Layer 0 (Background)
//Storyboard Layer 1 (Fail)
//Storyboard Layer 2 (Pass)
//Storyboard Layer 3 (Foreground)
//Storyboard Layer 4 (Overlay)
//Storyboard Sound Samples

[TimingPoints]
333,300,4,2,1,55,1,0
333,-129.87012987013,4,2,1,55,0,0
1233,-85.4700854700855,4,2,1,99,0,0
1533,-100,4,2,1,77,0,0
6333,-100,4,2,1,77,0,0
11433,-149.253731343284,4,2,0,44,0,0
15483,-129.87012987013,4,2,1,66,0,0
15933,-129.87012987013,4,2,1,55,0,0
20283,-129.87012987013,4,2,1,77,0,0
20733,-100,4,2,1,66,0,0
30333,-270.270270270275,4,2,88,55,0,0
30933,-85.4700854700855,4,2,88,77,0,0
31533,-93.4579439252336,4,2,1,99,0,0
38733,-93.4579439252336,4,2,1,88,0,0
40383,-93.4579439252336,4,2,1,66,0,0
40683,-93.4579439252336,4,2,1,77,0,0
41133,-93.4579439252336,4,2,1,99,0,0
48333,-114.942528735632,4,2,99,99,0,0
48633,-100,4,2,99,99,0,0
49983,-100,4,2,1,66,0,0
50133,-100,4,2,1,88,0,0
50283,-100,4,2,1,66,0,0
50433,-85.4700854700855,4,2,1,66,0,0
50733,-100,4,2,1,77,0,0
57670,-100,4,2,1,11,0,0
57708,-100,4,2,1,77,0,0
57745,-100,4,2,1,11,0,0
57783,-100,4,2,1,77,0,0
57820,-100,4,2,1,11,0,0
57858,-100,4,2,1,77,0,0
57895,-100,4,2,1,11,0,0
57933,-100,4,2,1,77,0,0
59133,-270.27027027027,4,2,1,77,0,0
59583,-85.4700854700855,4,2,1,77,0,0

[Colours]
Combo1 : 255,120,55
Combo2 : 0,49,98
Combo3 : 128,64,64

[HitObjects]
373,81,333,6,0,P|426:80|473:114,2,102.21749797237,8|8|8,2:0|2:0|2:0,0:0:0:0:
265,141,933,1,8,2:0:0:0:
255,151,1233,6,2,B|205:133|205:133|105:154,1,155.317500592489,2|0,0:0|0:0,3:3:0:0:
44,220,1533,6,0,P|50:295|83:328,1,88.5,4|2,1:0|0:0,0:0:0:0:
72,320,1758,1,2,0:0:0:0:
72,320,1833,2,0,L|160:331,1,88.5,2|0,3:0|0:0,0:0:0:0:
176,345,2058,1,0,0:0:0:0:
176,345,2133,2,0,P|231:313|276:321,1,88.5,0|2,1:0|0:0,0:0:0:0:
335,349,2433,1,2,3:0:0:0:
416,244,2583,6,0,L|503:256,2,88.5,2|0|0,0:1|1:0|0:0,0:0:0:0:
334,208,3033,2,0,P|324:143|346:100,1,88.5,2|0,3:0|0:0,0:0:0:0:
401,69,3333,2,0,L|450:64,2,44.25,0|0|0,1:0|0:0|0:0,0:0:0:0:
320,35,3633,1,2,3:0:0:0:
298,37,3708,1,2,0:0:0:0:
276,40,3783,1,2,0:0:0:0:
168,117,3933,6,0,L|75:104,1,88.5,4|0,1:2|0:0,0:0:0:0:
62,92,4158,1,0,0:0:0:0:
62,92,4233,2,0,P|30:135|33:194,1,88.5,2|0,3:0|0:0,0:0:0:0:
31,190,4458,1,2,0:0:0:0:
31,190,4533,2,0,L|50:292,1,88.5,2|0,1:2|0:0,0:0:0:0:
67,363,4833,1,2,3:0:0:0:
189,311,4983,6,0,P|251:319|296:356,2,88.5,2|0|0,0:1|1:0|0:0,0:0:0:0:
132,243,5433,2,0,L|219:226,1,88.5,2|0,3:0|0:0,0:0:0:0:
288,171,5733,2,0,L|293:127,2,44.25,0|2|2,1:0|0:0|0:0,0:0:0:0:
360,249,6033,1,8,3:2:0:0:
357,270,6108,1,2,0:0:0:0:
355,292,6183,1,10,0:0:0:0:
470,356,6333,6,0,L|483:256,1,88.5,4|0,1:0|0:0,0:0:0:0:
494,250,6558,1,0,0:0:0:0:
494,250,6633,2,0,P|501:194|469:152,1,88.5,2|0,3:0|0:0,0:0:0:0:
468,155,6858,1,2,0:0:0:0:
468,155,6933,2,0,L|379:141,1,88.5,2|0,1:2|0:0,0:0:0:0:
293,127,7233,1,2,3:0:0:0:
184,49,7383,6,0,P|141:47|100:63,2,88.5,2|0|0,0:1|1:0|0:0,0:0:0:0:
155,134,7833,2,0,P|130:170|124:214,1,88.5,2|0,3:0|0:0,0:0:0:0:
162,293,8133,2,0,L|208:300,2,44.25,0|2|2,1:0|0:0|0:0,0:0:0:0:
86,340,8433,1,2,3:0:0:0:
64,337,8508,1,2,0:0:0:0:
42,334,8583,1,2,0:0:0:0:
28,202,8733,6,0,P|77:185|123:211,1,88.5,4|0,1:2|0:0,0:0:0:0:
124,214,8958,1,0,0:0:0:0:
124,214,9033,2,0,L|212:223,1,88.5,2|2,3:0|0:0,0:0:0:0:
226,240,9258,1,2,0:0:0:0:
226,240,9333,2,0,P|285:252|339:226,1,88.5,0|0,1:0|0:0,0:0:0:0:
382,192,9633,1,2,3:0:0:0:
312,80,9783,6,0,L|219:89,2,88.5,2|2|2,0:0|3:0|0:0,0:0:0:0:
328,64,10158,1,2,0:0:0:0:
328,64,10233,2,0,P|392:47|432:71,1,88.5,2|2,3:0|0:0,0:0:0:0:
427,69,10458,1,2,0:0:0:0:
427,69,10533,2,0,L|419:158,1,88.5,2|2,3:0|3:0,0:0:0:0:
357,244,10833,1,8,0:0:0:0:
336,247,10908,1,8,0:0:0:0:
314,246,10983,1,8,0:0:0:0:
293,239,11058,1,8,0:0:0:0:
274,227,11133,2,0,L|282:138,1,88.5,8|0,0:0|0:0,0:0:0:0:
190,288,11433,5,8,0:0:0:0:
187,293,12033,1,8,0:0:0:0:
184,298,12633,1,8,0:0:0:0:
181,303,13233,1,8,0:0:0:0:
178,308,13833,1,8,0:0:0:0:
175,313,14433,1,8,0:0:0:0:
172,318,15033,2,0,P|125:351|63:335,1,118.589994390427,8|2,0:0|1:2,0:0:0:0:
44,232,15483,5,8,0:0:0:0:
96,152,15633,1,8,0:0:0:0:
189,133,15783,1,8,0:0:0:0:
269,186,15933,6,0,L|256:323,1,136.289997296494,12|2,0:0|0:0,0:0:0:0:
326,365,16383,1,2,0:0:0:0:
326,365,16533,2,0,P|372:314|455:344,1,136.289997296494,0|2,1:0|0:0,0:0:0:0:
512,174,17133,2,0,P|466:123|383:153,1,136.289997296494,0|2,1:0|0:0,0:0:0:0:
339,180,17583,1,2,0:0:0:0:
339,180,17733,2,0,L|203:199,1,136.289997296494,0|2,1:0|0:0,0:0:0:0:
42,223,18333,6,0,L|24:85,1,136.289997296494,0|2,1:0|0:0,0:0:0:0:
94,42,18783,1,2,0:0:0:0:
94,42,18933,2,0,P|139:89|204:79,1,136.289997296494,0|2,1:0|0:0,0:0:0:0:
365,38,19533,2,0,P|411:25|479:84,1,136.289997296494,0|2,1:0|0:0,0:0:0:0:
495,155,19983,1,2,0:0:0:0:
495,155,20133,1,0,1:0:0:0:
419,234,20283,5,8,0:0:0:0:
330,200,20433,1,8,0:0:0:0:
243,238,20583,1,8,0:0:0:0:
209,327,20733,6,0,L|121:340,1,88.5,4|0,1:2|0:0,0:0:0:0:
44,295,21033,1,8,0:0:0:0:
122,166,21183,1,0,0:0:0:0:
122,166,21333,2,0,P|130:233|107:272,2,88.5,0|2|8,1:0|1:2|0:0,0:0:0:0:
53,109,21783,1,0,0:0:0:0:
156,25,21933,6,0,L|244:38,1,88.5,0|0,1:0|0:0,0:0:0:0:
313,95,22233,1,8,0:0:0:0:
414,8,22383,2,0,P|438:45|445:88,1,88.5
400,213,22683,1,0,1:0:0:0:
487,199,22833,1,8,0:0:0:0:
455,281,22983,1,0,0:0:0:0:
322,314,23133,6,0,L|313:227,1,88.5,0|0,1:0|0:0,0:0:0:0:
243,356,23433,2,0,P|191:308|126:319,1,132.75,8|0,0:0|0:0,0:0:0:0:
115,327,23733,2,0,L|105:239,1,88.5,0|0,1:0|1:0,0:0:0:0:
155,165,24033,2,0,L|242:174,1,88.5,8|0,0:0|0:0,0:0:0:0:
81,116,24333,1,0,1:0:0:0:
81,116,24483,1,0,1:0:0:0:
130,42,24633,1,8,0:0:0:0:
204,91,24783,2,0,L|291:100,1,88.5,8|0,0:0|0:0,0:0:0:0:
455,61,25083,5,0,1:0:0:0:
381,110,25233,1,8,1:2:0:0:
461,150,25383,1,0,1:0:0:0:
341,190,25533,6,0,B|324:231|324:231|341:369,1,177,4|8,1:0|0:0,0:0:0:0:
473,357,25983,1,0,0:0:0:0:
502,273,26133,1,0,1:0:0:0:
418,244,26283,2,0,L|331:258,1,88.5,0|8,0:0|0:0,0:0:0:0:
243,273,26583,1,0,0:0:0:0:
130,328,26733,5,0,1:0:0:0:
130,328,26883,1,0,0:0:0:0:
214,357,27033,1,8,0:0:0:0:
243,273,27183,2,0,L|229:186,1,88.5,8|0,0:0|1:0,0:0:0:0:
167,121,27483,2,0,L|80:107,2,88.5,0|8|0,1:0|0:0|0:0,0:0:0:0:
288,64,27933,6,0,P|342:61|388:81,1,88.5,4|0,1:0|0:0,0:0:0:0:
437,134,28233,2,0,L|428:223,1,88.5,8|0,0:0|0:0,0:0:0:0:
375,345,28533,1,0,1:0:0:0:
375,345,28683,1,0,0:0:0:0:
304,291,28833,1,8,0:0:0:0:
250,362,28983,1,0,0:0:0:0:
128,269,29133,5,0,1:0:0:0:
162,351,29283,1,0,1:0:0:0:
216,280,29433,1,8,0:0:0:0:
182,179,29583,2,0,L|94:187,1,88.5,8|0,0:0|0:0,0:0:0:0:
32,87,29883,1,0,1:0:0:0:
110,46,30033,1,8,0:0:0:0:
185,92,30183,1,8,0:0:0:0:
260,138,30333,6,0,L|270:135,14,8.18625019985962,2|0|0|0|0|0|0|0|0|0|0|0|0|0|0,1:0|0:0|0:0|0:0|0:0|0:0|0:0|0:0|0:0|0:0|0:0|0:0|0:0|0:0|0:0,0:0:0:0:
283,117,30933,6,0,L|268:275,2,155.317500592489,8|8|8,1:0|1:0|1:0,0:0:0:0:
407,48,31533,6,0,P|454:53|490:83,1,94.694997110138,4|0,1:0|0:0,0:0:0:0:
416,143,31833,2,0,P|434:197|415:248,1,94.694997110138,2|0,3:0|0:0,0:0:0:0:
268,271,32133,1,0,1:0:0:0:
337,197,32283,1,0,0:0:0:0:
366,293,32433,1,2,3:0:0:0:
337,197,32583,1,0,0:0:0:0:
297,367,32733,5,0,1:0:0:0:
175,294,32883,2,0,L|73:308,1,94.694997110138,0|2,0:0|3:0,0:0:0:0:
33,164,33183,2,0,L|221:184,1,189.389994220276,0|0,1:0|1:0,0:0:0:0:
296,126,33633,2,0,B|287:79|287:79|241:91,1,94.694997110138,2|0,3:0|0:0,0:0:0:0:
423,183,33933,6,0,L|437:90,1,94.694997110138,0|0,1:0|0:0,0:0:0:0:
407,277,34233,1,2,3:0:0:0:
407,277,34383,1,0,0:0:0:0:
337,135,34533,1,0,1:0:0:0:
337,135,34683,1,0,0:0:0:0:
195,205,34833,1,2,3:0:0:0:
278,42,34983,6,0,P|369:28|437:90,1,189.389994220276
492,167,35433,2,0,L|479:260,1,94.694997110138,2|0,3:0|0:0,0:0:0:0:
342,330,35733,1,0,1:0:0:0:
413,194,35883,1,8,1:2:0:0:
435,345,36033,1,8,1:2:0:0:
329,237,36183,1,0,1:0:0:0:
217,366,36333,6,0,L|110:377,1,94.694997110138,4|0,1:0|0:0,0:0:0:0:
56,307,36633,2,0,L|67:200,1,94.694997110138,2|0,3:0|0:0,0:0:0:0:
164,81,36933,1,0,1:0:0:0:
175,176,37083,1,0,0:0:0:0:
76,118,37233,1,2,3:0:0:0:
87,23,37383,1,0,0:0:0:0:
252,44,37533,5,0,1:0:0:0:
175,175,37683,2,0,P|138:202|88:206,1,94.694997110138,0|2,0:0|3:0,0:0:0:0:
10,373,37983,2,0,P|69:304|158:321,1,189.389994220276,2|0,0:0|1:0,0:0:0:0:
238,268,38433,2,0,L|341:259,1,94.694997110138,8|8,1:2|1:2,0:0:0:0:
492,292,38733,5,6,1:0:0:0:
421,229,38883,1,0,0:0:0:0:
403,322,39033,1,0,1:0:0:0:
510,199,39183,1,2,1:0:0:0:
403,322,39483,5,2,1:0:0:0:
510,198,39783,6,2,P|441:138|354:162,1,189.389994220276,6|2,1:0|1:0,0:0:0:0:
297,239,40233,1,0,3:0:0:0:
212,196,40383,1,0,1:0:0:0:
207,172,40458,1,0,1:0:0:0:
203,149,40533,1,0,1:0:0:0:
251,68,40683,2,0,L|306:74,2,47.347498555069,2|2|2,3:0|3:0|3:0,0:0:0:0:
166,24,40983,2,0,L|111:30,1,47.347498555069,8|8,0:0|0:0,0:0:0:0:
52,81,41133,6,0,P|37:126|43:173,1,94.694997110138,4|0,1:0|0:0,0:0:0:0:
90,256,41433,2,0,L|185:270,1,94.694997110138,2|0,3:0|0:0,0:0:0:0:
335,210,41733,1,0,1:0:0:0:
242,196,41883,1,0,0:0:0:0:
277,284,42033,1,2,3:0:0:0:
242,196,42183,1,0,0:0:0:0:
219,358,42333,5,0,1:0:0:0:
335,210,42483,2,0,P|389:195|437:198,1,94.694997110138,0|2,0:0|3:0,0:0:0:0:
508,313,42783,2,0,B|470:341|470:341|324:324,1,189.389994220276,0|0,1:0|1:0,0:0:0:0:
208,263,43233,2,0,L|219:358,1,94.694997110138,2|0,3:0|1:0,0:0:0:0:
333,186,43533,6,0,L|427:196,2,94.694997110138,4|0|2,1:2|0:0|3:0,0:0:0:0:
203,241,43983,1,0,0:0:0:0:
123,112,44133,1,0,1:0:0:0:
123,112,44283,1,0,1:0:0:0:
250,29,44433,1,2,3:0:0:0:
48,55,44583,6,0,P|33:144|102:202,1,189.389994220276,2|0,0:0|1:0,0:0:0:0:
192,174,45033,2,0,P|239:169|282:187,1,94.694997110138,2|0,3:0|1:0,0:0:0:0:
372,312,45333,1,0,1:0:0:0:
227,263,45483,1,8,1:2:0:0:
373,218,45633,1,8,1:2:0:0:
281,340,45783,1,0,1:0:0:0:
192,174,45933,6,0,L|203:64,1,94.694997110138,4|0,1:0|0:0,0:0:0:0:
271,16,46233,2,0,P|336:10|382:25,1,94.694997110138,2|0,3:0|0:0,0:0:0:0:
477,104,46533,1,0,1:0:0:0:
420,225,46683,1,0,1:0:0:0:
388,136,46833,1,2,3:0:0:0:
509,193,46983,1,0,0:0:0:0:
358,297,47133,5,0,1:0:0:0:
388,136,47283,1,0,1:0:0:0:
452,314,47433,1,2,3:0:0:0:
326,208,47583,2,0,P|270:200|214:211,1,94.694997110138,0|0,1:0|0:0,0:0:0:0:
107,273,47883,2,0,L|95:372,2,94.694997110138,0|8|8,1:0|0:0|0:0,0:0:0:0:
41,92,48333,5,12,1:0:0:0:
41,92,49983,5,2,3:0:0:0:
41,92,50058,1,2,3:0:0:0:
41,92,50133,2,0,L|92:86,2,44.25,8|8|8,0:0|0:0|0:0,0:0:0:0:
156,22,50433,2,0,B|182:67|182:67|161:187,1,155.317500592489,8|0,0:0|0:0,0:0:0:0:
101,231,50733,6,0,L|114:322,1,88.5,4|0,1:0|0:0,0:0:0:0:
131,332,50958,1,0,0:0:0:0:
131,332,51033,2,0,P|182:309|227:323,1,88.5,2|0,3:0|0:0,0:0:0:0:
232,325,51258,1,0,0:0:0:0:
232,325,51333,2,0,L|321:335,1,88.5,0|0,1:0|0:0,0:0:0:0:
426,347,51633,1,2,3:0:0:0:
321,227,51783,6,0,L|410:237,1,88.5,2|0,0:1|1:0,0:0:0:0:
478,180,52083,1,0,0:0:0:0:
470,172,52158,1,0,0:0:0:0:
462,164,52233,2,0,P|454:115|481:69,1,88.5,2|0,3:0|0:0,0:0:0:0:
354,15,52533,2,0,P|370:55|361:98,1,88.5,0|2,1:0|0:0,0:0:0:0:
284,143,52833,1,2,3:0:0:0:
262,145,52908,1,0,0:0:0:0:
240,147,52983,1,2,0:0:0:0:
117,97,53133,6,0,L|128:207,1,88.5,4|0,1:0|0:0,0:0:0:0:
142,200,53358,1,0,0:0:0:0:
142,200,53433,1,2,3:0:0:0:
93,272,53583,1,2,0:0:0:0:
100,282,53658,1,0,0:0:0:0:
107,290,53733,2,0,L|198:280,1,88.5,0|0,1:0|0:0,0:0:0:0:
213,293,53958,1,0,0:0:0:0:
213,293,54033,1,2,3:0:0:0:
287,340,54183,1,2,0:1:0:0:
361,264,54333,6,0,L|455:278,1,88.5,0|0,1:0|0:0,0:0:0:0:
505,209,54633,2,0,L|470:120,1,88.5,2|0,3:0|0:0,0:0:0:0:
386,112,54933,1,2,1:3:0:0:
386,112,55083,1,2,3:0:0:0:
330,181,55233,1,10,0:0:0:0:
330,181,55383,1,10,0:0:0:0:
210,84,55533,6,0,L|114:100,1,88.5,4|0,1:0|0:0,0:0:0:0:
102,91,55758,1,0,0:0:0:0:
102,91,55833,1,2,3:0:0:0:
36,150,55983,2,0,L|13:146,2,22.125,2|0|2,0:0|0:0|0:0,0:0:0:0:
55,162,56133,2,0,P|65:229|57:254,1,88.5,0|2,1:0|0:0,0:0:0:0:
108,321,56433,2,0,L|200:309,1,88.5,2|2,3:0|0:1,0:0:0:0:
284,250,56733,5,0,1:0:0:0:
284,250,56883,2,0,L|288:220,2,22.125,2|0|2,0:0|0:0|0:0,0:0:0:0:
346,313,57033,1,2,3:0:0:0:
346,313,57183,2,0,L|342:343,2,22.125,2|0|2,0:0|0:0|0:0,0:0:0:0:
421,266,57333,1,0,1:0:0:0:
442,262,57408,1,0,0:0:0:0:
464,259,57483,1,2,0:0:0:0:
490,174,57633,2,0,L|482:130,3,44.25,2|2|2|2,1:2|1:2|1:2|1:2,0:0:0:0:
493,101,57933,6,0,L|317:122,1,177,4|2,1:0|3:0,0:0:0:0:
232,96,58383,1,0,0:0:0:0:
150,130,58533,1,2,1:2:0:0:
140,124,58608,1,0,0:0:0:0:
130,118,58683,1,0,0:0:0:0:
232,96,58833,2,0,L|242:8,1,88.5,2|2,3:0|0:0,0:0:0:0:
317,121,59133,6,0,P|341:141|352:171,1,65.490001598877,2|2,3:2|0:0,0:0:0:0:
276,242,59583,6,0,L|270:297,5,51.7725001974964,2|2|2|2|2|2,3:0|3:0|3:0|3:0|3:0|3:0,0:0:0:0:
256,215,60033,2,0,L|202:231,1,51.7725001974964,8|8,0:0|0:0,0:0:0:0:
253,199,60183,2,0,L|198:214,1,51.7725001974964,8|8,0:0|0:0,0:0:0:0:
