osu file format v14

[General]
AudioFilename: audio.mp3
AudioLeadIn: 0
PreviewTime:30858
Countdown: 0
SampleSet: Soft
StackLeniency: 0.7
Mode: 0
LetterboxInBreaks: 0
WidescreenStoryboard: 0

[Editor]
DistanceSpacing: 1
BeatDivisor: 4
GridSize: 4
TimelineZoom: 3.599998

[Metadata]
Title:Kuuchuu Bunkai
TitleUnicode:空中分解
Artist:Three
ArtistUnicode:すりぃ
Creator:Ryuusei Aika
Version:Extra
Source:
Tags:Collage Japanese Rock J-Rock JRock Male Vocal Surii ボーカロイド ボカロ VOCALOID 鏡音レン Kagamine Len 真ひろ まめでん ま子 Akitoshi Ujimatcha -ClariS- Yorita Yoshino Yorita_Yoshino Dored Yugu Skyflame Cami wyrio Firika AncuL -Eriri- Laura -Laura- Corinn -Mikan Mikan Bazz Bazz_B X Light X_Light XLT Reform Kujinn Seto Kousuke Seto_Kousuke Djulus -MikanMyMommy gary00737 HabiHolic Haruto Haruto_Aizawa Armin A_r_M_i_N Agatsu Garden kanor Error- -Keitaro SnowNiNo_ Sylas TheKoala CoLouRed GlaZeE CoLouRed_GlaZeE caren_sk CRN
BeatmapID:1988248
BeatmapSetID:952132

[Difficulty]
HPDrainRate:6
CircleSize:4
OverallDifficulty:8.4
ApproachRate:9.2
SliderMultiplier:1.8
SliderTickRate:1

[Events]
//Background and Video events
Video,3,"video.mp4"
0,0,"BG.jpg",0,0
//Break Periods
2,48533,49373
//Storyboard Layer 0 (Background)
//Storyboard Layer 1 (Fail)
//Storyboard Layer 2 (Pass)
//Storyboard Layer 3 (Foreground)
//Storyboard Layer 4 (Overlay)
//Storyboard Sound Samples

[TimingPoints]
333,300,4,2,1,55,1,0
333,-133.333333333333,4,2,1,55,0,0
1233,-66.6666666666667,4,2,1,99,0,0
1458,-100,4,2,1,5,0,0
1533,-100,4,2,1,77,0,1
1608,-100,4,2,1,77,0,0
9933,-80,4,2,1,77,0,0
11133,-200,4,2,1,77,0,0
11433,-200,4,2,0,44,0,0
15483,-100,4,2,1,66,0,0
15933,-133.333333333333,4,2,1,55,0,0
20283,-80,4,2,1,77,0,0
20733,-100,4,2,1,66,0,0
30333,-100,4,2,88,55,0,0
30933,-100,4,3,88,77,0,0
31533,-80,4,2,1,99,0,1
38733,-66.6666666666667,4,2,1,88,0,1
41133,-80,4,2,1,99,0,1
47883,-66.6666666666667,4,2,1,99,0,1
48333,-1000,4,2,99,99,0,0
49983,-100,4,2,1,66,0,0
50133,-100,4,2,1,88,0,0
50733,-100,4,2,1,77,0,1
50808,-100,4,2,1,77,0,0
55833,-66.6666666666667,4,2,1,77,0,0
56208,-100,4,2,1,77,0,0
57333,-66.6666666666667,4,2,1,77,0,0
57633,-100,4,2,1,77,0,0

[Colours]
Combo1 : 255,120,55
Combo2 : 0,49,98
Combo3 : 128,64,64

[HitObjects]
33,33,333,5,8,2:0:0:0:
235,45,558,1,8,2:0:0:0:
437,58,783,1,8,2:0:0:0:
512,104,933,1,8,2:0:0:0:
512,104,1233,6,2,B|437:71|408:173|255:110,1,202.500007724762,2|0,0:0|0:0,3:0:0:0:
138,78,1533,5,4,1:0:0:0:
153,185,1683,1,0,0:0:0:0:
261,172,1833,1,2,3:0:0:0:
153,185,1983,1,2,0:0:0:0:
200,122,2133,5,0,1:0:0:0:
75,137,2283,2,0,P|65:211|71:282,1,135
81,290,2583,2,0,L|145:287,1,45,2|0,2:1|0:0,0:0:0:0:
217,245,2733,5,0,1:0:0:0:
217,245,2883,1,0,0:0:0:0:
186,359,3033,1,2,3:0:0:0:
186,359,3183,1,0,0:0:0:0:
151,326,3333,5,0,1:0:0:0:
282,316,3483,1,0,0:0:0:0:
385,351,3633,1,2,3:0:0:0:
410,372,3783,1,0,0:0:0:0:
394,222,3933,5,0,1:0:0:0:
406,115,4083,1,0,0:0:0:0:
298,105,4233,1,2,3:0:0:0:
286,212,4383,1,0,0:0:0:0:
455,176,4533,5,0,1:0:0:0:
346,165,4683,2,0,P|341:100|348:25,1,135
371,3,4983,2,0,L|326:0,1,45,2|0,2:1|0:0,0:0:0:0:
244,33,5133,5,0,1:0:0:0:
209,135,5283,1,0,0:0:0:0:
228,21,5433,1,2,3:0:0:0:
193,123,5583,1,0,0:0:0:0:
147,27,5733,6,0,L|95:34,1,45,0|0,1:0|0:0,0:0:0:0:
55,111,5883,2,0,L|35:159,1,45
57,258,6033,1,8,3:2:0:0:
65,293,6108,1,8,0:0:0:0:
54,328,6183,1,8,0:0:0:0:
38,283,6258,1,8,0:0:0:0:
82,254,6333,6,0,B|134:226|158:299|244:270,1,135,4|0,1:0|0:0,0:0:0:0:
229,274,6633,1,2,3:0:0:0:
343,237,6783,1,0,0:0:0:0:
220,181,6933,1,0,1:0:0:0:
265,242,7083,2,0,P|270:286|262:365,1,90,0|2,0:0|3:0,0:0:0:0:
406,292,7383,5,2,2:1:0:0:
406,292,7458,1,0,0:0:0:0:
406,292,7533,1,0,1:0:0:0:
345,358,7683,1,0,0:0:0:0:
486,304,7833,1,2,3:0:0:0:
425,370,7983,1,0,0:0:0:0:
415,208,8133,5,0,1:0:0:0:
405,100,8283,1,0,0:0:0:0:
326,111,8433,1,2,3:0:0:0:
335,219,8583,1,0,0:0:0:0:
401,130,8733,6,0,L|243:155,1,135,0|0,1:0|0:0,0:0:0:0:
246,155,9033,1,2,3:0:0:0:
274,57,9183,1,0,0:0:0:0:
168,29,9333,1,0,1:0:0:0:
274,57,9483,1,0,0:0:0:0:
264,35,9633,6,0,L|243:86,1,45,2|0,3:0|0:0,0:0:0:0:
99,80,9783,2,0,L|120:131,1,45
193,164,9933,6,0,P|142:169|52:213,1,112.5,2|2,3:0|0:0,0:0:0:0:
73,208,10158,1,2,0:0:0:0:
69,174,10233,6,0,P|47:220|40:320,1,112.5,2|2,3:0|0:0,0:0:0:0:
47,299,10458,1,2,0:0:0:0:
30,344,10533,5,2,3:0:0:0:
63,313,10608,1,2,3:0:0:0:
107,308,10683,2,0,L|172:313,1,56.25,2|0,3:0|0:0,0:0:0:0:
218,380,10833,5,8,0:0:0:0:
192,331,10908,1,8,0:0:0:0:
202,277,10983,1,8,0:0:0:0:
243,240,11058,1,8,0:0:0:0:
302,242,11133,1,8,0:0:0:0:
302,242,11433,6,0,L|358:245,1,45,8|0,0:0|0:0,0:0:0:0:
431,287,11733,1,0,0:0:0:0:
431,287,11883,2,0,L|386:289,1,45,0|8,0:0|0:0,0:0:0:0:
304,324,12183,1,0,0:0:0:0:
304,324,12333,2,0,P|302:351|305:374,1,45
384,320,12633,2,0,P|386:347|383:370,1,45,8|0,0:0|0:0,0:0:0:0:
485,216,13083,5,0,0:0:0:0:
474,296,13233,1,8,0:0:0:0:
485,216,13383,1,0,0:0:0:0:
496,136,13533,2,0,P|496:186|502:242,1,90,0|8,0:0|0:0,0:0:0:0:
415,54,14133,2,0,P|415:104|409:160,1,90,0|8,0:0|0:0,0:0:0:0:
411,143,14583,1,0,0:0:0:0:
451,84,14733,5,0,0:0:0:0:
451,84,14883,1,0,0:0:0:0:
436,13,15033,1,8,0:0:0:0:
436,13,15183,1,0,0:0:0:0:
450,28,15333,2,0,L|435:26,1,11.25,2|0,0:0|0:0,0:0:0:0:
363,42,15483,6,0,L|310:47,1,45,8|0,0:0|0:0,0:0:0:0:
252,107,15633,2,0,L|205:82,1,45,8|0,0:0|0:0,0:0:0:0:
96,110,15783,2,0,L|67:64,1,45,8|0,0:0|0:0,0:0:0:0:
135,0,15933,5,12,0:0:0:0:
46,210,16233,6,0,L|41:285,1,67.5000025749208,2|2,0:0|0:0,0:0:0:0:
41,277,16533,1,0,1:0:0:0:
95,333,16683,2,0,L|170:338,1,67.5000025749208,2|2,0:0|0:0,0:0:0:0:
162,337,16983,1,0,0:0:0:0:
80,345,17133,5,0,1:0:0:0:
120,255,17283,1,2,0:0:0:0:
216,295,17433,1,2,0:0:0:0:
120,255,17583,2,0,P|123:289|115:351,1,67.5000025749208,2|0,0:0|1:0,0:0:0:0:
14,375,17883,5,2,0:0:0:0:
123,359,18033,1,2,0:0:0:0:
205,384,18183,1,0,0:0:0:0:
185,371,18333,6,0,P|178:304|183:219,1,135.000005149842,0|2,1:0|0:0,0:0:0:0:
256,268,18783,1,2,0:0:0:0:
331,236,18933,2,0,P|332:270|329:303,1,67.5000025749208,0|2,1:0|0:0,0:0:0:0:
258,384,19233,2,0,P|254:350|255:316,1,67.5000025749208,2|0,0:0|0:0,0:0:0:0:
378,286,19533,5,0,1:0:0:0:
420,359,19683,1,0,0:0:0:0:
368,307,19833,1,2,0:0:0:0:
410,380,19983,1,2,0:0:0:0:
498,348,20133,1,0,1:0:0:0:
420,247,20283,6,0,P|400:226|384:202,1,56.25,8|0,0:0|0:0,0:0:0:0:
285,205,20433,2,0,P|277:177|276:148,1,56.25,8|0,0:0|0:0,0:0:0:0:
176,77,20583,2,0,P|183:49|196:23,1,56.25,8|0,0:0|0:0,0:0:0:0:
311,0,20733,5,0,1:0:0:0:
311,0,20883,1,0,0:0:0:0:
369,88,21033,1,8,0:0:0:0:
465,40,21183,2,0,L|340:56,1,90,0|0,0:0|1:0,0:0:0:0:
210,100,21483,2,0,L|120:88,1,90,0|8,1:0|0:0,0:0:0:0:
58,24,21783,1,0,0:0:0:0:
137,118,21933,5,0,1:0:0:0:
197,27,22083,1,0,0:0:0:0:
288,87,22233,1,8,0:0:0:0:
228,178,22383,2,0,P|210:242|203:338,1,135
204,357,22683,2,0,P|199:312|187:269,1,90,0|8,1:0|0:0,0:0:0:0:
144,193,22983,1,0,0:0:0:0:
28,312,23133,6,0,P|72:318|117:318,1,90,0|0,1:0|0:0,0:0:0:0:
110,121,23433,2,0,P|103:165|103:210,1,90,8|0,0:0|0:0,0:0:0:0:
195,258,23733,5,0,1:0:0:0:
293,232,23883,1,0,1:0:0:0:
195,258,24033,1,8,0:0:0:0:
169,160,24183,1,0,0:0:0:0:
231,196,24333,5,0,1:0:0:0:
222,329,24483,1,0,1:0:0:0:
222,329,24633,1,8,0:0:0:0:
355,338,24783,2,0,P|361:269|356:185,1,135,8|0,0:0|0:0,0:0:0:0:
339,226,25083,6,0,L|384:220,1,45,0|0,1:0|0:0,0:0:0:0:
427,145,25233,2,0,L|498:155,1,45,8|0,1:2|0:0,0:0:0:0:
455,275,25383,2,0,L|428:240,1,45,0|0,1:0|0:0,0:0:0:0:
384,125,25533,2,0,B|300:108|304:172|196:145,1,180,4|8,1:0|0:0,0:0:0:0:
308,166,25983,5,0,0:0:0:0:
379,105,26133,1,0,1:0:0:0:
366,9,26283,2,0,P|362:51|373:135,1,90,0|8,0:0|0:0,0:0:0:0:
442,51,26583,1,0,0:0:0:0:
277,19,26733,5,0,1:0:0:0:
187,49,26883,1,0,0:0:0:0:
44,30,27033,1,8,0:0:0:0:
134,0,27183,2,0,P|138:39|132:103,1,90,8|0,0:0|1:0,0:0:0:0:
134,89,27483,5,0,1:0:0:0:
69,166,27633,1,8,0:0:0:0:
47,249,27783,1,0,0:0:0:0:
14,142,27933,6,0,L|211:132,1,180,0|8,1:0|0:0,0:0:0:0:
193,132,28383,1,0,0:0:0:0:
148,276,28533,2,0,P|144:227|145:167,1,90,0|0,1:0|0:0,0:0:0:0:
211,333,28833,2,0,P|259:329|319:330,1,90,8|0,0:0|0:0,0:0:0:0:
396,380,29133,5,0,1:0:0:0:
303,348,29283,1,0,1:0:0:0:
246,293,29433,1,8,0:0:0:0:
232,248,29583,2,0,L|226:337,1,90,8|0,0:0|0:0,0:0:0:0:
60,338,29883,5,0,1:0:0:0:
155,364,30033,1,8,0:0:0:0:
60,338,30183,1,8,0:0:0:0:
45,355,30333,6,0,L|39:387,14,22.5,2|0|0|0|0|0|0|0|0|0|0|0|0|0|0,1:0|0:0|0:0|0:0|0:0|0:0|0:0|0:0|0:0|0:0|0:0|0:0|0:0|0:0|0:0,0:0:0:0:
115,296,30933,5,8,1:0:0:0:
112,272,31008,1,2,3:0:0:0:
251,230,31158,5,8,1:0:0:0:
256,184,31233,1,2,3:0:0:0:
428,117,31383,5,8,1:0:0:0:
418,45,31458,1,2,3:0:0:0:
445,54,31533,6,0,P|394:62|325:66,1,112.5,4|0,1:0|0:0,0:0:0:0:
67,54,31833,2,0,P|118:62|187:66,1,112.5,2|0,3:0|0:0,0:0:0:0:
287,0,32133,5,0,1:0:0:0:
287,0,32283,1,0,0:0:0:0:
178,24,32433,1,2,3:0:0:0:
202,133,32583,1,0,0:0:0:0:
347,84,32733,5,0,1:0:0:0:
240,50,32883,1,0,0:0:0:0:
206,156,33033,1,2,3:0:0:0:
277,136,33183,2,0,P|281:207|278:323,1,168.75,0|0,1:0|0:0,0:0:0:0:
272,321,33483,5,0,1:0:0:0:
256,225,33633,1,2,3:0:0:0:
308,171,33783,1,0,0:0:0:0:
316,195,33933,2,0,L|72:219,1,225,0|2,1:0|3:0,0:0:0:0:
43,171,34383,5,0,0:0:0:0:
149,201,34533,2,0,L|260:212,1,112.5,0|0,1:0|0:0,0:0:0:0:
260,212,34833,1,2,3:0:0:0:
199,265,34983,1,0,0:0:0:0:
127,384,35133,6,0,P|123:327|128:258,1,112.5,0|0,1:0|0:0,0:0:0:0:
333,154,35433,2,0,P|336:210|332:266,1,112.5,2|0,3:0|1:0,0:0:0:0:
245,372,35733,1,0,1:0:0:0:
247,201,35883,5,2,3:0:0:0:
326,347,36033,1,2,3:0:0:0:
472,268,36183,1,0,1:0:0:0:
393,122,36333,5,0,1:0:0:0:
380,201,36483,1,0,0:0:0:0:
255,84,36633,5,2,3:0:0:0:
242,5,36783,1,0,0:0:0:0:
139,147,36933,5,0,1:0:0:0:
126,226,37083,1,0,0:0:0:0:
139,147,37233,1,2,3:0:0:0:
152,68,37383,1,0,0:0:0:0:
310,94,37533,5,0,1:0:0:0:
266,167,37683,2,0,P|261:220|261:334,1,112.5,0|2,0:0|3:0,0:0:0:0:
385,24,37983,2,0,P|390:77|390:191,1,112.5,0|0,1:0|1:0,0:0:0:0:
345,215,38283,5,0,0:0:0:0:
210,199,38433,1,2,3:0:0:0:
75,183,38583,1,0,0:0:0:0:
290,163,38733,6,0,L|109:182,1,135.000005149842,2|0,3:1|1:0,0:0:0:0:
16,190,39033,1,0,0:0:0:0:
134,48,39183,2,0,P|128:112|140:277,1,202.500007724762,2|0,3:1|0:0,0:0:0:0:
0,272,39483,2,0,P|100:263|201:270,1,202.500007724762,2|0,3:1|0:0,0:0:0:0:
370,322,39783,5,2,3:1:0:0:
286,253,39933,1,0,0:0:0:0:
183,304,40083,1,2,1:0:0:0:
267,373,40233,1,0,3:0:0:0:
320,298,40383,5,0,1:0:0:0:
288,279,40458,1,0,1:0:0:0:
255,281,40533,1,0,1:0:0:0:
428,384,40683,2,0,L|420:310,1,67.5000025749208,2|2,3:0|3:0,0:0:0:0:
485,151,40833,2,0,L|492:218,1,67.5000025749208,2|2,3:0|3:0,0:0:0:0:
448,305,40983,5,8,0:0:0:0:
407,346,41058,1,8,0:0:0:0:
350,334,41133,2,0,P|347:278|351:210,1,112.5,4|0,1:0|0:0,0:0:0:0:
415,25,41433,2,0,P|417:80|413:148,1,112.5,2|0,3:0|0:0,0:0:0:0:
272,229,41733,5,0,1:0:0:0:
426,168,41883,1,0,0:0:0:0:
442,91,42033,1,2,3:0:0:0:
365,75,42183,1,0,0:0:0:0:
466,70,42333,5,0,1:0:0:0:
395,125,42483,2,0,B|346:96|324:165|255:129,1,112.5,0|2,0:0|3:0,0:0:0:0:
166,75,42783,1,0,1:0:0:0:
166,75,42933,5,0,0:0:0:0:
272,124,43083,1,0,1:0:0:0:
281,45,43233,1,2,3:0:0:0:
163,159,43383,1,0,1:0:0:0:
83,16,43533,2,0,P|77:98|77:186,1,168.75,4|0,1:2|0:0,0:0:0:0:
89,206,43833,5,2,3:0:0:0:
41,111,43983,1,0,0:0:0:0:
136,63,44133,1,0,1:0:0:0:
173,147,44283,2,0,P|173:201|170:260,1,112.5,0|2,1:0|3:0,0:0:0:0:
75,379,44583,5,2,0:0:0:0:
75,379,44733,1,0,1:0:0:0:
42,283,44883,1,0,1:0:0:0:
106,314,45033,2,0,L|239:298,1,112.5,2|0,3:0|1:0,0:0:0:0:
217,300,45333,1,0,0:0:0:0:
360,155,45483,5,0,1:0:0:0:
218,188,45633,1,2,3:0:0:0:
232,283,45783,1,0,1:0:0:0:
374,250,45933,5,4,1:0:0:0:
374,250,46083,1,0,0:0:0:0:
283,124,46233,1,2,3:0:0:0:
283,124,46383,1,0,0:0:0:0:
408,33,46533,5,0,1:0:0:0:
239,15,46683,1,0,1:0:0:0:
221,184,46833,1,2,3:0:0:0:
239,15,46983,1,0,0:0:0:0:
393,65,47133,5,0,1:0:0:0:
187,78,47283,1,0,0:0:0:0:
200,284,47433,1,2,3:0:0:0:
403,266,47583,2,0,L|396:381,1,112.5,0|0,1:0|0:0,0:0:0:0:
463,119,47883,5,0,1:0:0:0:
317,139,48033,1,2,3:0:0:0:
340,332,48183,1,0,1:0:0:0:
75,373,48333,1,12,1:0:0:0:
6,102,49983,5,2,3:0:0:0:
1,66,50058,1,2,3:0:0:0:
20,26,50133,1,8,0:0:0:0:
67,0,50208,1,8,0:0:0:0:
137,16,50283,1,8,0:0:0:0:
183,82,50358,1,8,0:0:0:0:
190,74,50433,2,0,B|248:58|263:108|358:92,1,135,8|0,0:0|0:0,0:0:0:0:
410,45,50733,6,0,P|435:41|455:42,2,45,4|0|0,1:0|0:0|0:0,0:0:0:0:
348,93,50958,1,2,0:0:0:0:
369,85,51033,2,0,P|393:94|409:105,2,45,2|0|0,3:0|0:0|0:0,0:0:0:0:
426,179,51258,1,2,0:0:0:0:
448,183,51333,2,0,P|464:202|472:220,2,45,0|0|0,1:0|0:0|0:0,0:0:0:0:
483,112,51558,1,2,0:0:0:0:
496,131,51633,1,2,3:0:0:0:
397,256,51783,2,0,L|389:300,1,45,2|0,2:1|0:0,0:0:0:0:
290,361,51933,5,0,1:0:0:0:
395,334,52083,1,0,0:0:0:0:
316,279,52233,1,2,3:0:0:0:
211,306,52383,1,0,0:0:0:0:
297,375,52533,5,0,1:0:0:0:
324,217,52683,1,2,0:0:0:0:
237,204,52833,1,2,3:0:0:0:
221,293,52983,1,2,0:0:0:0:
178,69,53133,6,0,P|173:114|170:195,1,90,4|0,1:0|0:0,0:0:0:0:
182,150,53358,1,2,0:0:0:0:
154,134,53433,2,0,P|145:155|133:193,1,45,2|0,3:0|0:0,0:0:0:0:
166,259,53583,2,0,P|155:254|136:248,1,22.5,2|0,0:0|0:0,0:0:0:0:
139,268,53658,2,0,P|128:263|109:257,1,22.5,2|0,0:0|0:0,0:0:0:0:
106,278,53733,6,0,L|98:370,1,90,0|0,1:0|0:0,0:0:0:0:
77,304,53958,1,2,0:0:0:0:
90,249,54033,1,2,3:0:0:0:
19,155,54183,2,0,L|23:201,1,45,2|0,2:1|0:0,0:0:0:0:
11,325,54333,5,0,1:0:0:0:
1,236,54483,1,0,0:0:0:0:
105,80,54633,5,2,3:0:0:0:
95,169,54783,2,0,L|198:161,1,90,0|0,0:0|1:0,0:0:0:0:
84,50,55083,2,0,L|158:71,1,45
270,70,55233,5,8,0:0:0:0:
234,84,55308,1,8,0:0:0:0:
213,126,55383,1,8,0:0:0:0:
228,179,55458,1,8,0:0:0:0:
253,204,55533,6,0,B|310:201|282:177|351:182,1,90,0|0,1:0|0:0,0:0:0:0:
424,102,55833,2,0,P|410:141|414:186,1,67.5000025749208,2|0,3:0|0:0,0:0:0:0:
502,210,55983,2,0,L|466:217,1,33.7500012874604,2|0,0:0|0:0,0:0:0:0:
475,207,56058,2,0,L|439:214,1,33.7500012874604,2|0,0:0|0:0,0:0:0:0:
432,228,56133,1,0,1:0:0:0:
320,273,56283,6,0,P|317:318|320:373,1,90,0|2,0:0|3:0,0:0:0:0:
397,314,56583,1,2,2:1:0:0:
237,363,56733,1,0,1:0:0:0:
330,375,56883,6,0,P|330:357|330:343,1,22.5,2|0,0:0|0:0,0:0:0:0:
312,343,56958,2,0,P|311:325|312:311,1,22.5,2|0,0:0|0:0,0:0:0:0:
327,285,57033,1,2,3:0:0:0:
165,229,57183,6,0,P|164:246|165:261,1,22.5,2|0,0:0|0:0,0:0:0:0:
183,261,57258,2,0,P|183:278|183:293,1,22.5,2|0,0:0|0:0,0:0:0:0:
230,291,57333,2,0,B|174:283|151:323|81:307,1,135.000005149842,0|0,1:0|0:0,0:0:0:0:
30,231,57633,5,2,0:0:0:0:
20,213,57708,1,2,0:0:0:0:
10,195,57783,1,2,0:0:0:0:
0,177,57858,1,2,0:0:0:0:
30,155,57933,6,0,L|185:144,1,135,4|0,1:0|0:0,0:0:0:0:
192,144,58233,1,2,3:0:0:0:
283,25,58383,2,0,P|281:51|281:85,1,45
287,136,58533,2,0,P|288:123|288:106,1,22.5,2|0,1:2|0:0,0:0:0:0:
266,103,58608,2,0,P|265:90|265:73,1,22.5,2|0,0:0|0:0,0:0:0:0:
293,49,58683,5,0,0:0:0:0:
362,147,58833,1,2,3:0:0:0:
253,223,58983,2,0,L|332:209,1,45
376,179,59133,5,2,3:2:0:0:
412,134,59208,1,2,0:0:0:0:
412,91,59283,1,2,0:0:0:0:
397,69,59358,1,2,0:0:0:0:
385,60,59433,1,2,0:0:0:0:
313,265,59583,5,2,3:0:0:0:
350,219,59658,1,2,3:0:0:0:
410,205,59733,1,2,3:0:0:0:
461,236,59808,1,2,3:0:0:0:
485,292,59883,1,2,3:0:0:0:
473,350,59958,1,2,3:0:0:0:
425,384,60033,5,8,0:0:0:0:
353,368,60108,1,8,0:0:0:0:
281,352,60183,1,8,0:0:0:0:
214,384,60258,5,8,0:0:0:0:
