osu file format v14

[General]
AudioFilename: audio.mp3
AudioLeadIn: 0
PreviewTime:30858
Countdown: 0
SampleSet: Soft
StackLeniency: 0.4
Mode: 0
LetterboxInBreaks: 0
WidescreenStoryboard: 1

[Editor]
DistanceSpacing: 1.3
BeatDivisor: 4
GridSize: 16
TimelineZoom: 1.999999

[Metadata]
Title:Kuuchuu Bunkai
TitleUnicode:空中分解
Artist:Three
ArtistUnicode:すりぃ
Creator:Ryuusei Aika
Version:Dored's Insane
Source:
Tags:Collage Japanese Rock J-Rock JRock Male Vocal Surii ボーカロイド ボカロ VOCALOID 鏡音レン Kagamine Len 真ひろ まめでん ま子 Akitoshi Ujimatcha -ClariS- Yorita Yoshino Yorita_Yoshino Dored Yugu Skyflame Cami wyrio Firika AncuL -Eriri- Laura -Laura- Corinn -Mikan Mikan Bazz Bazz_B X Light X_Light XLT Reform Kujinn Seto Kousuke Seto_Kousuke Djulus -MikanMyMommy gary00737 HabiHolic Haruto Haruto_Aizawa Armin A_r_M_i_N Agatsu Garden kanor Error- -Keitaro SnowNiNo_ Sylas TheKoala CoLouRed GlaZeE CoLouRed_GlaZeE caren_sk CRN
BeatmapID:2043292
BeatmapSetID:952132

[Difficulty]
HPDrainRate:5.5
CircleSize:3.8
OverallDifficulty:7
ApproachRate:8.5
SliderMultiplier:1.6
SliderTickRate:1

[Events]
//Background and Video events
Video,3,"video.mp4"
0,0,"BG.jpg",0,0
//Break Periods
//Storyboard Layer 0 (Background)
//Storyboard Layer 1 (Fail)
//Storyboard Layer 2 (Pass)
//Storyboard Layer 3 (Foreground)
//Storyboard Layer 4 (Overlay)
//Storyboard Sound Samples

[TimingPoints]
333,300,4,2,1,55,1,0
333,-111.111111111111,4,2,1,55,0,0
1233,-71.4285714285714,4,2,1,99,0,1
1533,-100,4,2,1,77,0,0
5733,-100,4,2,1,77,0,0
6333,-100,4,2,1,77,0,0
11133,-125,4,2,1,55,0,0
11433,-125,4,2,0,44,0,0
15483,-125,4,2,1,66,0,0
15933,-125,4,2,1,55,0,0
20283,-125,4,2,1,77,0,0
20733,-111.111111111111,4,2,1,66,0,0
30333,-111.111111111111,4,2,88,55,0,0
30933,-111.111111111111,4,2,88,77,0,0
31533,-90.9090909090909,4,2,1,99,0,1
48333,-100,4,2,99,99,0,0
48633,-100,4,2,1,77,0,0
49983,-100,4,2,1,77,0,0
50133,-100,4,2,1,88,0,0
50733,-100,4,2,1,77,0,0

[Colours]
Combo1 : 255,120,55
Combo2 : 0,49,98
Combo3 : 128,64,64

[HitObjects]
448,336,333,6,0,P|456:282|466:229,2,107.999996704102,8|8|8,2:0|2:0|2:0,0:0:0:0:
362,282,933,1,8,2:0:0:0:
362,282,1233,6,2,B|318:266|274:295|291:317|252:342|212:335,1,167.999994873047,2|0,0:0|0:0,3:3:0:0:
161,324,1533,6,0,P|165:345|167:363,2,40,4|0|0,1:0|0:0|0:0,0:0:0:0:
212,232,1833,2,0,P|175:216|136:219,1,80,2|0,3:0|0:0,0:0:0:0:
28,122,2133,2,0,P|67:125|104:110,1,80,0|0,1:0|0:0,0:0:0:0:
173,32,2433,1,2,3:0:0:0:
260,143,2583,6,0,P|191:107|173:31,1,160,2|0,0:1|0:0,0:0:0:0:
275,16,3033,2,0,P|314:23|353:30,1,80,2|0,3:0|0:0,0:0:0:0:
364,134,3333,1,0,1:0:0:0:
468,123,3483,1,0,0:0:0:0:
457,19,3633,1,2,3:0:0:0:
457,19,3708,1,0,0:0:0:0:
457,19,3783,1,0,0:0:0:0:
364,134,3933,6,0,L|324:137,2,40,0|0|0,1:0|0:0|0:0,0:0:0:0:
468,123,4233,2,0,L|454:202,1,80,2|0,3:0|0:0,0:0:0:0:
423,372,4533,2,0,L|410:294,1,80,0|0,1:0|0:0,0:0:0:0:
322,238,4833,1,2,3:0:0:0:
165,211,4983,6,0,L|322:238,1,160,2|0,0:1|0:0,0:0:0:0:
318,339,5433,2,0,L|240:353,1,80,2|0,3:0|0:0,0:0:0:0:
143,313,5733,1,0,1:0:0:0:
44,345,5883,1,0,0:0:0:0:
66,243,6033,2,2,L|52:165,1,80,8|8,3:2|0:0,0:0:0:0:
8,69,6333,6,0,L|14:30,2,40,4|0|0,1:0|0:0|0:0,0:0:0:0:
111,79,6633,2,0,P|150:76|186:92,1,80,2|0,3:0|0:0,0:0:0:0:
329,3,6933,2,0,P|288:6|249:9,1,80,0|0,1:0|0:0,0:0:0:0:
289,107,7233,1,2,3:0:0:0:
425,144,7383,6,0,P|365:94|289:107,1,160,2|0,0:1|0:0,0:0:0:0:
226,190,7833,2,0,P|233:229|239:268,1,80,2|0,3:0|0:0,0:0:0:0:
302,352,8133,1,0,1:0:0:0:
386,289,8283,1,0,0:0:0:0:
449,373,8433,1,2,3:0:0:0:
449,373,8508,1,0,0:0:0:0:
449,373,8583,1,0,0:0:0:0:
470,226,8733,6,0,L|509:232,2,40,0|0|0,1:0|0:0|0:0,0:0:0:0:
386,289,9033,2,0,P|378:249|372:210,1,80,2|0,3:0|0:0,0:0:0:0:
393,104,9333,2,0,P|432:102|472:97,2,80,0|0|2,1:0|0:0|3:0,0:0:0:0:
321,35,9783,1,0,0:0:0:0:
296,137,9933,6,0,L|282:215,1,80,2|2,3:0|0:0,0:0:0:0:
220,64,10233,2,0,P|187:41|147:37,1,80,2|2,3:0|0:0,0:0:0:0:
139,140,10533,2,0,L|145:179,2,40,2|0|2,3:0|0:0|3:0,0:0:0:0:
53,80,10833,2,0,L|46:40,2,40,8|8|8,0:0|0:0|0:0,0:0:0:0:
45,183,11133,5,8,0:0:0:0:
81,268,11433,5,8,0:0:0:0:
154,323,12033,1,8,0:0:0:0:
244,334,12633,1,8,0:0:0:0:
327,298,13233,1,8,0:0:0:0:
380,225,13833,1,8,0:0:0:0:
389,135,14433,1,8,0:0:0:0:
351,52,15033,2,0,P|339:114|328:178,1,128,8|2,0:0|0:0,0:0:0:0:
255,245,15483,5,8,0:0:0:0:
232,159,15633,1,8,0:0:0:0:
208,73,15783,1,8,0:0:0:0:
169,221,15933,6,0,P|109:239|54:209,1,128,12|2,0:0|0:0,0:0:0:0:
62,119,16383,1,2,0:0:0:0:
62,119,16533,2,0,P|94:113|125:107,1,64,0|2,1:0|0:0,0:0:0:0:
208,73,16833,1,2,0:0:0:0:
208,73,17133,6,0,P|238:81|268:89,1,64,0|2,1:0|0:0,0:0:0:0:
351,52,17433,1,2,0:0:0:0:
351,52,17583,2,0,P|400:90|462:82,1,128,2|2,0:0|0:0,0:0:0:0:
431,204,18033,1,2,0:0:0:0:
508,158,18183,1,0,0:0:0:0:
432,293,18333,6,0,P|400:286|369:281,1,64,0|0,1:0|0:0,0:0:0:0:
433,382,18633,2,0,P|401:375|370:370,1,64,2|2,0:0|0:0,0:0:0:0:
215,371,18933,1,0,1:0:0:0:
292,326,19083,1,2,0:0:0:0:
291,236,19233,2,0,P|284:204|279:173,1,64,2|0,0:0|0:0,0:0:0:0:
214,281,19533,6,0,P|182:286|151:292,1,64,0|0,1:0|0:0,0:0:0:0:
94,362,19833,1,2,0:0:0:0:
94,362,19983,2,0,P|60:309|0:295,1,128,2|8,0:0|0:0,0:0:0:0:
154,166,20433,1,8,0:0:0:0:
89,227,20583,1,8,0:0:0:0:
40,91,20733,6,0,P|33:126|26:161,1,71.9999978027344,0|0,1:0|0:0,0:0:0:0:
134,80,21033,2,0,P|169:73|204:67,1,71.9999978027344,8|0,0:0|0:0,0:0:0:0:
289,93,21333,1,0,1:0:0:0:
154,166,21483,2,0,P|189:159|224:153,1,71.9999978027344,0|8,1:0|0:0,0:0:0:0:
309,179,21783,1,0,0:0:0:0:
386,48,21933,6,0,P|379:83|373:118,1,71.9999978027344,0|0,1:0|0:0,0:0:0:0:
370,242,22233,1,8,0:0:0:0:
309,179,22383,2,0,P|239:182|200:240,1,143.999995605469,0|0,0:0|1:0,0:0:0:0:
257,305,22833,2,0,P|292:311|327:318,1,71.9999978027344,8|0,0:0|0:0,0:0:0:0:
406,382,23133,6,0,P|413:346|419:311,1,71.9999978027344,0|0,1:0|0:0,0:0:0:0:
462,235,23433,2,0,P|454:199|448:164,1,71.9999978027344,8|0,0:0|0:0,0:0:0:0:
386,48,23733,1,0,1:0:0:0:
475,75,23883,1,0,1:0:0:0:
359,137,24033,2,0,P|323:129|288:123,1,71.9999978027344,8|0,0:0|0:0,0:0:0:0:
204,83,24333,6,0,P|210:47|216:12,1,71.9999978027344,0|0,1:0|1:0,0:0:0:0:
288,123,24633,1,8,0:0:0:0:
164,167,24783,2,0,P|93:165|53:107,1,143.999995605469,8|0,0:0|1:0,0:0:0:0:
204,83,25233,1,8,1:2:0:0:
120,43,25383,1,0,1:0:0:0:
164,167,25533,6,0,P|170:202|176:237,1,71.9999978027344,4|0,1:0|0:0,0:0:0:0:
90,277,25833,2,0,P|55:283|20:289,1,71.9999978027344,8|0,0:0|0:0,0:0:0:0:
176,237,26133,1,0,1:0:0:0:
130,363,26283,2,0,P|165:369|200:375,1,71.9999978027344,0|8,0:0|0:0,0:0:0:0:
250,295,26583,1,0,0:0:0:0:
370,363,26733,6,0,P|335:369|300:375,1,71.9999978027344,0|0,1:0|0:0,0:0:0:0:
250,295,27033,1,8,0:0:0:0:
388,270,27183,2,0,P|424:211|400:146,1,143.999995605469,8|0,0:0|1:0,0:0:0:0:
306,152,27633,2,0,P|309:187|312:223,1,71.9999978027344,8|0,0:0|0:0,0:0:0:0:
347,67,27933,6,0,P|313:58|277:63,1,71.9999978027344,0|0,1:0|0:0,0:0:0:0:
267,210,28233,2,0,P|292:184|306:151,1,71.9999978027344,8|0,0:0|0:0,0:0:0:0:
181,67,28533,2,0,P|190:101|211:130,1,71.9999978027344,0|0,1:0|0:0,0:0:0:0:
276,63,28833,1,8,0:0:0:0:
120,0,28983,1,0,0:0:0:0:
212,131,29133,6,0,P|177:124|142:118,1,71.9999978027344,0|0,1:0|1:0,0:0:0:0:
84,198,29433,1,8,0:0:0:0:
35,38,29583,2,0,P|42:73|49:109,1,71.9999978027344,8|0,0:0|0:0,0:0:0:0:
142,118,29883,1,0,1:0:0:0:
84,198,30033,2,0,P|119:204|154:212,1,71.9999978027344,8|8,0:0|0:0,0:0:0:0:
231,287,30333,6,0,L|213:287,14,17.9999994506836,2|0|0|0|0|0|0|0|0|0|0|0|0|0|0,1:0|0:0|0:0|0:0|0:0|0:0|0:0|0:0|0:0|0:0|0:0|0:0|0:0|0:0|0:0,0:0:0:0:
284,287,30933,5,8,1:0:0:0:
155,362,31158,5,8,1:0:0:0:
155,212,31383,5,8,1:0:0:0:
325,189,31533,6,0,L|238:173,1,88.000002685547,4|0,1:0|0:0,0:0:0:0:
357,104,31833,2,0,L|270:88,1,88.000002685547,2|0,3:0|0:0,0:0:0:0:
389,19,32133,2,0,L|302:3,1,88.000002685547,0|0,1:0|0:0,0:0:0:0:
446,89,32433,1,2,3:0:0:0:
357,104,32583,1,0,0:0:0:0:
478,5,32733,5,0,1:0:0:0:
461,175,32883,2,0,P|454:132|446:89,1,88.000002685547,0|2,0:0|3:0,0:0:0:0:
512,309,33183,2,0,P|448:252|366:271,1,176.000005371094,0|0,1:0|1:0,0:0:0:0:
293,370,33633,1,2,3:0:0:0:
360,277,33783,1,0,0:0:0:0:
200,303,33933,5,0,1:0:0:0:
192,299,34233,2,0,P|185:256|177:213,1,88.000002685547,2|0,3:0|0:0,0:0:0:0:
115,91,34533,2,0,P|92:128|92:171,1,88.000002685547,0|0,1:0|0:0,0:0:0:0:
206,120,34833,1,2,3:0:0:0:
28,238,34983,6,0,P|108:263|176:212,1,176.000005371094
206,120,35433,1,2,3:0:0:0:
99,4,35583,2,0,P|107:47|114:90,1,88.000002685547,0|0,1:0|1:0,0:0:0:0:
28,237,35883,5,8,1:2:0:0:
92,171,36033,1,8,1:2:0:0:
176,211,36183,1,0,1:0:0:0:
95,361,36333,6,0,P|102:317|110:274,1,88.000002685547,4|0,1:0|0:0,0:0:0:0:
202,316,36633,2,0,P|230:281|258:248,1,88.000002685547,2|0,3:0|0:0,0:0:0:0:
319,331,36933,1,0,1:0:0:0:
360,237,37083,1,0,0:0:0:0:
421,320,37233,2,0,P|458:342|501:341,1,88.000002685547,2|0,3:0|0:0,0:0:0:0:
512,144,37533,5,0,1:0:0:0:
446,221,37683,2,0,P|402:229|359:236,1,88.000002685547,0|2,0:0|3:0,0:0:0:0:
266,90,37983,2,0,P|329:147|412:130,1,176.000005371094,0|0,1:0|1:0,0:0:0:0:
353,58,38433,1,8,1:2:0:0:
512,144,38583,1,8,1:2:0:0:
359,235,38733,5,6,1:0:0:0:
349,236,39033,5,0,1:0:0:0:
293,335,39183,1,2,1:0:0:0:
283,336,39483,5,2,1:0:0:0:
273,337,39783,6,2,P|225:265|141:262,1,176.000005371094,6|2,1:0|1:0,0:0:0:0:
69,350,40233,1,0,3:0:0:0:
29,242,40383,2,0,L|21:198,2,44.0000013427735,0|0|0,1:0|1:0|1:0,0:0:0:0:
142,262,40683,2,0,L|149:305,2,44.0000013427735,2|2|2,3:0|3:0|3:0,0:0:0:0:
128,83,40983,1,8,0:0:0:0:
128,83,41058,1,8,0:0:0:0:
128,83,41133,6,0,L|112:169,1,88.000002685547,4|0,1:0|0:0,0:0:0:0:
220,55,41433,2,0,L|204:141,1,88.000002685547,2|0,3:0|0:0,0:0:0:0:
312,27,41733,2,0,L|296:113,1,88.000002685547,0|0,1:0|0:0,0:0:0:0:
274,207,42033,1,2,3:0:0:0:
388,85,42183,1,0,0:0:0:0:
203,141,42333,5,0,1:0:0:0:
366,179,42483,2,0,P|358:222|350:265,1,88.000002685547,0|2,0:0|3:0,0:0:0:0:
220,360,42783,2,0,B|250:348|265:325|265:325|313:385|396:362,1,176.000005371094,0|0,1:0|1:0,0:0:0:0:
455,303,43233,1,2,3:0:0:0:
357,268,43383,1,0,1:0:0:0:
462,308,43533,6,0,P|469:264|477:221,1,88.000002685547,4|0,1:2|0:0,0:0:0:0:
471,93,43833,2,0,P|428:100|387:84,1,88.000002685547,2|0,3:0|0:0,0:0:0:0:
228,35,44133,2,0,P|268:18|311:26,1,88.000002685547,0|0,1:0|1:0,0:0:0:0:
203,141,44433,1,2,3:0:0:0:
311,26,44583,6,0,P|295:112|280:199,1,176.000005371094,2|0,0:0|1:0,0:0:0:0:
145,218,45033,1,2,3:0:0:0:
308,292,45183,2,0,P|265:284|222:276,1,88.000002685547,0|0,1:0|1:0,0:0:0:0:
45,349,45483,5,8,1:2:0:0:
133,312,45633,1,8,1:2:0:0:
209,369,45783,1,0,1:0:0:0:
144,217,45933,6,0,L|129:131,1,88.000002685547,4|0,1:0|0:0,0:0:0:0:
19,74,46233,2,0,L|34:160,1,88.000002685547,2|0,3:0|0:0,0:0:0:0:
226,154,46533,1,0,1:0:0:0:
129,131,46683,1,0,1:0:0:0:
198,59,46833,2,0,P|241:53|280:71,1,88.000002685547,2|0,3:0|0:0,0:0:0:0:
410,142,47133,6,0,P|367:150|324:158,1,88.000002685547,0|0,1:0|1:0,0:0:0:0:
226,154,47433,1,2,3:0:0:0:
369,245,47583,2,0,P|412:253|455:261,1,88.000002685547,0|0,1:0|1:0,0:0:0:0:
223,366,47883,5,0,1:0:0:0:
252,272,48033,1,8,0:0:0:0:
226,154,48183,1,8,0:0:0:0:
128,61,48333,1,12,1:0:0:0:
226,154,49983,5,2,3:0:0:0:
226,154,50058,1,2,3:0:0:0:
226,154,50133,2,0,L|265:147,3,40,8|8|8|8,0:0|0:0|0:0|0:0,0:0:0:0:
197,183,50433,2,0,P|148:149|90:154,1,120,8|0,0:0|0:0,0:0:0:0:
46,182,50733,6,0,P|43:162|39:142,2,40,4|0|0,1:0|0:0|0:0,0:0:0:0:
113,260,51033,2,0,L|191:273,1,80,2|0,3:0|0:0,0:0:0:0:
78,357,51333,2,0,L|0:370,1,80,0|0,1:0|0:0,0:0:0:0:
113,260,51633,1,2,3:0:0:0:
188,358,51783,6,0,B|233:360|266:327|255:313|290:282|324:285,1,160,2|0,0:1|0:0,0:0:0:0:
405,372,52233,2,0,P|366:378|328:366,1,80,2|0,3:0|0:0,0:0:0:0:
421,250,52533,1,0,1:0:0:0:
323,284,52683,1,2,0:0:0:0:
342,182,52833,1,2,3:0:0:0:
342,182,52908,1,0,0:0:0:0:
342,182,52983,1,2,0:0:0:0:
440,148,53133,6,0,L|479:154,2,40,4|0|0,1:0|0:0|0:0,0:0:0:0:
361,80,53433,2,0,P|321:73|282:66,1,80,2|2,3:0|0:0,0:0:0:0:
186,107,53733,2,0,P|193:146|199:185,1,80,0|0,1:0|0:0,0:0:0:0:
282,66,54033,1,2,3:0:0:0:
143,10,54183,6,0,B|102:8|74:36|74:36|34:17|-6:38,1,160,2|0,0:1|0:0,0:0:0:0:
22,138,54633,2,0,P|61:145|100:151,1,80,2|0,3:0|0:0,0:0:0:0:
199,185,54933,1,0,1:0:0:0:
120,253,55083,1,0,0:0:0:0:
218,287,55233,2,0,P|237:322|237:361,1,80,8|8,0:0|0:0,0:0:0:0:
324,304,55533,6,0,L|330:265,2,40,0|0|0,1:0|0:0|0:0,0:0:0:0:
400,372,55833,1,2,3:0:0:0:
487,315,55983,1,2,0:0:0:0:
487,315,56058,1,2,0:0:0:0:
487,315,56133,2,0,P|479:275|473:236,1,80,0|0,1:0|0:0,0:0:0:0:
386,178,56433,1,2,3:0:0:0:
512,65,56583,6,0,B|388:98|388:98|408:99|419:105,1,160,2|2,0:1|0:0,0:0:0:0:
351,24,57033,2,0,P|311:23|276:42,1,80,2|2,3:0|0:0,0:0:0:0:
214,127,57333,2,0,P|253:126|288:145,1,80,0|2,1:0|0:0,0:0:0:0:
309,247,57633,1,0,1:0:0:0:
307,258,57708,1,0,1:0:0:0:
306,270,57783,1,0,1:0:0:0:
305,282,57858,1,0,1:0:0:0:
304,294,57933,6,0,P|224:286|144:280,1,160,4|2,1:0|3:0,0:0:0:0:
51,350,58383,2,0,P|44:310|37:271,1,80,0|2,0:0|1:2,0:0:0:0:
98,186,58683,2,0,P|104:146|111:107,1,80,0|2,0:0|3:0,0:0:0:0:
131,4,58983,1,0,0:0:0:0:
214,127,59133,6,0,B|259:117|259:117|284:84|284:84|315:103|352:101,1,160,2|2,3:2|0:0,0:0:0:0:
438,160,59583,2,0,L|427:198,1,40,2|2,3:0|3:0,0:0:0:0:
355,318,59733,2,0,L|344:279,1,40,2|2,3:0|3:0,0:0:0:0:
263,200,59883,2,0,L|252:238,1,40,2|2,3:0|3:0,0:0:0:0:
180,358,60033,2,0,L|169:319,1,40,8|8,0:0|0:0,0:0:0:0:
98,186,60183,5,8,0:0:0:0:
