osu file format v14

[General]
AudioFilename: audio.mp3
AudioLeadIn: 0
PreviewTime:30858
Countdown: 0
SampleSet: Soft
StackLeniency: 0.7
Mode: 0
LetterboxInBreaks: 0
WidescreenStoryboard: 1

[Editor]
DistanceSpacing: 1.9
BeatDivisor: 8
GridSize: 4
TimelineZoom: 3.799999

[Metadata]
Title:Kuuchuu Bunkai
TitleUnicode:空中分解
Artist:Three
ArtistUnicode:すりぃ
Creator:Ryuusei Aika
Version:Djulus' Extra
Source:
Tags:Collage Japanese Rock J-Rock JRock Male Vocal Surii ボーカロイド ボカロ VOCALOID 鏡音レン Kagamine Len 真ひろ まめでん ま子 Akitoshi Ujimatcha -ClariS- Yorita Yoshino Yorita_Yoshino Dored Yugu Skyflame Cami wyrio Firika AncuL -Eriri- Laura -Laura- Corinn -Mikan Mikan Bazz Bazz_B X Light X_Light XLT Reform Kujinn Seto Kousuke Seto_Kousuke Djulus -MikanMyMommy gary00737 HabiHolic Haruto Haruto_Aizawa Armin A_r_M_i_N Agatsu Garden kanor Error- -Keitaro SnowNiNo_ Sylas TheKoala CoLouRed GlaZeE CoLouRed_GlaZeE caren_sk CRN
BeatmapID:1991143
BeatmapSetID:952132

[Difficulty]
HPDrainRate:6.7
CircleSize:4
OverallDifficulty:8.3
ApproachRate:9.3
SliderMultiplier:2
SliderTickRate:1

[Events]
//Background and Video events
0,0,"BG.jpg",0,0
Video,3,"video.mp4"
//Break Periods
//Storyboard Layer 0 (Background)
//Storyboard Layer 1 (Fail)
//Storyboard Layer 2 (Pass)
//Storyboard Layer 3 (Foreground)
//Storyboard Layer 4 (Overlay)
//Storyboard Sound Samples

[TimingPoints]
333,300,4,2,1,55,1,0
1233,-80,4,2,1,99,0,0
1533,-100,4,2,1,77,0,0
5733,-80,4,2,1,77,0,0
6333,-100,4,2,1,77,0,0
11433,-133.333333333333,4,2,0,44,0,0
15483,-83.3333333333333,4,2,1,66,0,0
15933,-133.333333333333,4,2,1,55,0,0
20283,-83.3333333333333,4,2,1,77,0,0
20733,-133.333333333333,4,2,1,66,0,0
30333,-133.333333333333,4,2,88,55,0,0
30933,-66.6666666666667,4,2,88,77,0,0
31533,-80,4,2,1,99,0,1
31683,-80,4,2,1,99,0,0
32133,-111.111111111111,4,2,1,99,0,0
38733,-66.6666666666667,4,2,1,99,0,1
38883,-66.6666666666667,4,2,1,99,0,0
40233,-111.111111111111,4,2,1,99,0,0
41133,-111.111111111111,4,2,1,99,0,1
41283,-111.111111111111,4,2,1,99,0,0
47883,-111.111111111111,4,2,1,99,0,0
48333,-133.333333333333,4,2,99,99,0,0
48633,-133.333333333333,4,2,1,77,0,0
49983,-100,4,2,1,77,0,0
50133,-100,4,2,1,88,0,0
50733,-100,4,2,1,77,0,0
59133,-66.6666666666667,4,2,1,77,0,0
59433,-100,4,2,1,77,0,0

[Colours]
Combo1 : 255,120,55
Combo2 : 0,49,98
Combo3 : 128,64,64

[HitObjects]
107,28,333,5,8,2:0:0:0:
182,91,558,5,8,2:0:0:0:
195,195,783,5,8,2:0:0:0:
80,273,933,5,8,2:0:0:0:
80,273,1233,6,2,B|174:237|155:320|282:325,1,187.5,2|0,0:0|0:0,3:3:0:0:
324,353,1533,5,4,1:0:0:0:
337,325,1608,1,0,0:0:0:0:
325,291,1683,1,0,0:0:0:0:
451,163,1833,1,2,3:0:0:0:
501,299,1983,1,0,0:0:0:0:
325,176,2133,1,0,1:0:0:0:
506,46,2283,6,0,B|449:60|449:60|437:87|437:87|357:104,1,150
376,99,2583,2,0,P|423:112|482:131,1,100,2|0,0:1|1:0,0:0:0:0:
351,325,2883,1,0,0:0:0:0:
483,208,3033,1,2,3:0:0:0:
507,291,3183,1,0,0:0:0:0:
379,204,3333,1,0,1:0:0:0:
428,377,3483,5,0,0:0:0:0:
265,238,3633,1,2,3:0:0:0:
287,214,3708,1,0,0:0:0:0:
261,187,3783,1,0,0:0:0:0:
277,157,3858,1,0,0:0:0:0:
277,157,3933,6,0,L|259:89,1,50,0|0,1:0|0:0,0:0:0:0:
174,25,4083,1,0,0:0:0:0:
32,206,4233,2,0,B|89:185|89:185|105:153|105:153|190:122,1,150,2|0,3:0|0:0,0:0:0:0:
167,143,4533,1,0,1:0:0:0:
45,89,4683,1,0,0:0:0:0:
173,260,4833,6,0,L|237:268,1,50,2|0,3:0|0:0,0:0:0:0:
306,322,4983,2,0,B|252:315|222:267|222:267|242:324|180:378,1,200,2|0,0:1|0:0,0:0:0:0:
309,236,5433,5,2,3:0:0:0:
370,201,5583,1,0,0:0:0:0:
504,342,5733,5,0,1:0:0:0:
430,325,5883,1,0,0:0:0:0:
490,215,6033,5,8,3:2:0:0:
336,2,6183,2,0,L|316:64,1,62.5,8|0,0:0|0:0,0:0:0:0:
400,200,6333,5,4,1:0:0:0:
426,173,6408,1,0,0:0:0:0:
415,133,6483,1,0,0:0:0:0:
247,29,6633,2,0,P|195:41|200:156,1,150,2|0,3:0|0:0,0:0:0:0:
194,144,6933,1,0,1:0:0:0:
59,340,7083,2,0,B|46:247|93:288|86:188,1,150
87,197,7383,6,0,B|42:173|42:173|-10:197,1,100,2|0,0:1|1:0,0:0:0:0:
169,325,7683,5,0,0:0:0:0:
237,295,7833,1,2,3:0:0:0:
350,190,7983,5,0,0:0:0:0:
430,216,8133,1,0,1:0:0:0:
331,329,8283,5,0,0:0:0:0:
228,201,8433,1,2,3:0:0:0:
207,179,8508,1,0,0:0:0:0:
228,156,8583,1,0,0:0:0:0:
210,133,8658,1,0,0:0:0:0:
210,133,8733,6,0,L|217:73,1,50,0|0,1:0|0:0,0:0:0:0:
350,190,8883,1,0,0:0:0:0:
506,36,9033,6,0,B|448:51|448:51|432:80|432:80|343:104,1,150,2|0,3:0|0:0,0:0:0:0:
349,83,9333,1,0,1:0:0:0:
467,309,9483,2,0,P|503:253|454:193,1,150
436,194,9783,1,0,0:0:0:0:
289,313,9933,5,2,3:0:0:0:
410,362,10083,1,2,0:0:0:0:
351,218,10233,5,2,3:0:0:0:
147,281,10383,1,2,0:0:0:0:
202,372,10533,5,2,3:0:0:0:
246,212,10683,1,2,3:0:0:0:
264,131,10833,1,8,0:0:0:0:
215,141,10908,1,8,0:0:0:0:
166,151,10983,1,8,0:0:0:0:
117,161,11058,1,8,0:0:0:0:
72,169,11133,1,8,0:0:0:0:
383,320,11433,6,0,L|466:330,1,75.0000028610231,8|0,0:0|0:0,0:0:0:0:
334,199,11733,1,0,0:0:0:0:
430,147,11883,1,0,0:0:0:0:
430,147,12033,2,0,P|420:218|424:252,1,75.0000028610231,8|0,0:0|0:0,0:0:0:0:
325,86,12333,5,0,0:0:0:0:
246,88,12483,1,0,0:0:0:0:
206,172,12633,1,8,0:0:0:0:
284,187,12783,2,0,B|259:122|308:134|277:30,1,150.000005722046
103,8,13233,1,8,0:0:0:0:
143,73,13383,1,0,0:0:0:0:
83,128,13533,5,0,0:0:0:0:
158,349,13833,2,0,L|174:260,1,75.0000028610231,8|0,0:0|0:0,0:0:0:0:
23,285,14133,1,0,0:0:0:0:
79,339,14283,1,0,0:0:0:0:
249,278,14433,1,8,0:0:0:0:
318,309,14583,1,0,0:0:0:0:
246,368,14733,5,0,0:0:0:0:
294,219,14883,1,0,0:0:0:0:
316,143,15033,1,8,0:0:0:0:
316,143,15183,2,0,L|337:58,1,75.0000028610231,0|2,0:0|0:0,0:0:0:0:
473,117,15483,6,0,B|448:131|448:131|392:121,1,59.9999981689454,8|0,0:0|0:0,0:0:0:0:
275,13,15633,2,0,B|243:8|243:8|193:26,1,59.9999981689454,8|0,0:0|0:0,0:0:0:0:
124,151,15783,1,8,0:0:0:0:
87,61,15933,6,0,B|178:42|152:106|244:111,1,150.000005722046,12|2,0:0|0:0,0:0:0:0:
124,151,16383,1,2,0:0:0:0:
174,235,16533,1,0,1:0:0:0:
65,296,16683,1,2,0:0:0:0:
65,296,16833,2,0,P|76:251|72:199,1,75.0000028610231,2|0,0:0|0:0,0:0:0:0:
255,211,17133,5,0,1:0:0:0:
278,281,17283,1,2,0:0:0:0:
202,310,17433,1,2,0:0:0:0:
174,235,17583,1,2,0:0:0:0:
376,158,17733,2,0,P|369:197|369:250,1,75.0000028610231,0|2,1:0|0:0,0:0:0:0:
263,135,18033,1,2,0:0:0:0:
404,74,18183,1,0,0:0:0:0:
258,38,18333,6,0,P|323:55|418:76,1,150.000005722046,0|2,1:0|0:0,0:0:0:0:
503,243,18783,1,2,0:0:0:0:
379,260,18933,5,0,1:0:0:0:
354,190,19083,1,2,0:0:0:0:
486,75,19233,1,2,0:0:0:0:
489,152,19383,1,0,0:0:0:0:
427,201,19533,5,0,1:0:0:0:
295,254,19683,1,0,0:0:0:0:
204,294,19833,1,2,0:0:0:0:
204,294,19983,2,0,B|190:329|190:329|207:378,1,75.0000028610231,2|0,0:0|1:0,0:0:0:0:
380,378,20283,6,0,B|383:347|383:347|379:335|379:335|385:298,1,59.9999981689454,8|0,0:0|0:0,0:0:0:0:
295,254,20433,2,0,B|288:225|288:225|289:209|289:209|283:172,1,59.9999981689454,8|0,0:0|0:0,0:0:0:0:
383,84,20583,1,8,0:0:0:0:
219,24,20733,6,0,B|281:43|281:43|288:65|288:65|360:84,1,150.000005722046,0|8,1:0|0:0,0:0:0:0:
212,138,21183,1,0,0:0:0:0:
144,170,21333,2,0,P|106:179|52:188,1,75.0000028610231,0|0,1:0|1:0,0:0:0:0:
143,4,21633,2,0,P|128:67|129:99,1,75.0000028610231,8|0,0:0|0:0,0:0:0:0:
8,242,21933,5,0,1:0:0:0:
81,268,22083,1,0,0:0:0:0:
137,384,22233,1,8,0:0:0:0:
169,319,22383,2,0,P|178:269|200:143,1,150.000005722046,0|0,0:0|1:0,0:0:0:0:
296,62,22833,2,0,B|313:98|313:98|290:145,1,75.0000028610231,8|0,0:0|0:0,0:0:0:0:
478,24,23133,6,0,B|451:71|451:71|477:154,1,112.500004291535,0|0,1:0|0:0,0:0:0:0:
468,126,23433,2,0,P|424:118|388:109,1,75.0000028610231,8|0,0:0|0:0,0:0:0:0:
311,288,23733,5,0,1:0:0:0:
389,262,23883,1,0,1:0:0:0:
460,348,24033,1,8,0:0:0:0:
377,370,24183,1,0,0:0:0:0:
224,364,24333,5,0,1:0:0:0:
282,211,24483,1,0,1:0:0:0:
310,144,24633,1,8,0:0:0:0:
191,177,24783,6,0,P|198:104|203:12,1,150.000005722046,8|0,0:0|1:0,0:0:0:0:
84,128,25233,1,8,1:2:0:0:
71,61,25383,1,0,1:0:0:0:
206,188,25533,6,0,P|211:124|207:83,1,75.0000028610231,4|0,1:0|0:0,0:0:0:0:
55,254,25833,1,8,0:0:0:0:
55,254,25983,2,0,P|86:252|143:249,1,75.0000028610231,0|0,0:0|1:0,0:0:0:0:
314,358,26283,2,0,B|266:341|231:328|231:328|184:346|186:386,1,150.000005722046
303,263,26733,5,0,1:0:0:0:
324,158,26883,1,0,0:0:0:0:
236,194,27033,1,8,0:0:0:0:
396,292,27183,2,0,P|441:288|501:277,1,75.0000028610231,8|0,0:0|1:0,0:0:0:0:
265,84,27483,2,0,P|207:80|174:79,1,75.0000028610231,0|8,1:0|0:0,0:0:0:0:
324,158,27783,1,0,0:0:0:0:
421,14,27933,6,0,P|413:80|415:175,1,150.000005722046,0|8,1:0|0:0,0:0:0:0:
246,350,28383,1,0,0:0:0:0:
306,305,28533,2,0,B|318:269|318:269|295:220,1,75.0000028610231,0|0,1:0|0:0,0:0:0:0:
106,113,28833,5,8,0:0:0:0:
128,185,28983,1,0,0:0:0:0:
149,260,29133,1,0,1:0:0:0:
68,246,29283,5,0,1:0:0:0:
199,155,29433,1,8,0:0:0:0:
40,53,29583,6,0,P|77:44|114:37,1,75.0000028610231,8|0,0:0|0:0,0:0:0:0:
387,62,29883,5,0,1:0:0:0:
326,105,30033,1,8,0:0:0:0:
340,177,30183,1,8,0:0:0:0:
411,195,30333,2,0,L|502:209,1,75.0000028610231,2|0,1:0|0:0,0:0:0:0:
111,287,30933,6,0,B|76:255|36:255|36:255|82:260|134:225,1,150.000005722046,8|0,1:0|0:0,0:0:0:0:
264,228,31158,2,0,B|299:196|339:196|339:196|293:201|241:166,1,150.000005722046,8|0,1:0|0:0,0:0:0:0:
165,104,31383,6,0,P|152:126|177:108,1,75.0000028610231,8|0,1:0|0:0,0:0:0:0:
176,219,31533,6,0,B|289:217|225:284|364:289,1,187.5,4|0,1:0|0:0,0:0:0:0:
352,217,31833,2,0,P|236:239|252:366,1,250,2|0,3:0|1:0,0:0:0:0:
424,280,32283,5,0,0:0:0:0:
460,212,32433,2,0,L|468:111,1,89.9999972534181,2|0,3:0|0:0,0:0:0:0:
240,81,32733,1,0,1:0:0:0:
238,155,32883,1,0,0:0:0:0:
366,30,33033,1,2,3:0:0:0:
366,30,33108,1,2,3:0:0:0:
366,30,33183,2,0,L|349:197,1,134.999995880127,0|0,1:0|0:0,0:0:0:0:
347,186,33483,5,0,1:0:0:0:
227,339,33633,1,2,3:0:0:0:
102,243,33783,1,0,0:0:0:0:
236,198,33933,6,0,B|333:175|303:250|419:263,1,179.999994506836,0|2,1:0|3:0,0:0:0:0:
462,295,34383,1,0,0:0:0:0:
394,345,34533,5,0,1:0:0:0:
271,274,34683,1,0,0:0:0:0:
257,354,34833,5,2,3:0:0:0:
391,191,34983,2,0,P|398:157|399:121,1,44.999998626709
361,22,35133,6,0,B|362:110|396:70|384:177,1,134.999995880127,0|0,1:0|0:0,0:0:0:0:
391,191,35433,1,2,3:0:0:0:
194,264,35583,2,0,P|206:201|209:159,1,89.9999972534181,0|0,1:0|1:0,0:0:0:0:
298,242,35883,5,8,1:2:0:0:
121,162,36033,1,8,1:2:0:0:
276,37,36183,1,0,1:0:0:0:
276,37,36258,1,0,1:0:0:0:
276,37,36333,6,0,B|257:75|257:75|289:136,1,89.9999972534181,4|0,1:0|0:0,0:0:0:0:
41,308,36633,2,0,B|66:272|66:272|43:201,1,89.9999972534181,2|0,3:0|0:0,0:0:0:0:
199,362,36933,5,0,1:0:0:0:
295,336,37083,1,0,0:0:0:0:
383,307,37233,1,2,3:0:0:0:
225,273,37383,5,0,0:0:0:0:
323,132,37533,5,0,1:0:0:0:
377,192,37683,1,0,0:0:0:0:
319,246,37833,1,2,3:0:0:0:
412,96,37983,6,0,L|503:80,1,89.9999972534181,0|0,1:0|1:0,0:0:0:0:
260,188,38283,2,0,L|153:206,1,89.9999972534181,0|8,1:0|1:2,0:0:0:0:
397,347,38583,1,8,1:2:0:0:
317,368,38733,5,6,1:0:0:0:
360,250,38883,1,0,0:0:0:0:
243,110,39033,1,0,1:0:0:0:
260,188,39183,5,2,1:0:0:0:
58,360,39483,1,2,1:0:0:0:
28,283,39783,6,2,B|143:260|105:348|243:355,1,225.000008583069,6|0,1:0|0:0,0:0:0:0:
251,355,40083,1,2,1:0:0:0:
318,309,40233,1,0,3:0:0:0:
268,142,40383,1,0,1:0:0:0:
249,157,40458,1,0,1:0:0:0:
245,192,40533,1,0,1:0:0:0:
405,373,40683,5,2,3:0:0:0:
434,344,40758,1,2,3:0:0:0:
446,306,40833,1,2,3:0:0:0:
439,266,40908,1,2,3:0:0:0:
419,231,40983,1,8,0:0:0:0:
411,192,41058,1,8,0:0:0:0:
411,192,41133,6,0,L|425:85,1,89.9999972534181,4|0,1:0|0:0,0:0:0:0:
267,303,41433,2,0,L|250:212,1,89.9999972534181,2|0,3:0|0:0,0:0:0:0:
147,373,41733,5,0,1:0:0:0:
164,304,41883,1,0,0:0:0:0:
0,232,42033,1,2,3:0:0:0:
14,302,42183,1,0,0:0:0:0:
81,349,42333,5,0,1:0:0:0:
122,207,42483,1,0,0:0:0:0:
147,130,42633,1,2,3:0:0:0:
60,27,42783,1,0,1:0:0:0:
60,27,42858,1,0,1:0:0:0:
60,27,42933,2,0,B|37:67|37:67|64:130,1,89.9999972534181,0|0,0:0|1:0,0:0:0:0:
220,192,43233,1,2,3:0:0:0:
284,151,43383,1,0,1:0:0:0:
476,264,43533,6,0,L|333:236,1,134.999995880127,4|0,1:2|0:0,0:0:0:0:
336,240,43833,2,0,P|318:281|338:335,1,89.9999972534181,2|0,3:0|0:0,0:0:0:0:
496,117,44133,1,0,1:0:0:0:
440,54,44283,1,0,1:0:0:0:
370,95,44433,1,2,3:0:0:0:
426,158,44583,1,2,0:0:0:0:
426,158,44658,1,2,0:0:0:0:
426,158,44733,5,0,1:0:0:0:
248,70,44883,1,0,1:0:0:0:
364,5,45033,1,2,3:0:0:0:
304,148,45183,1,0,1:0:0:0:
279,228,45333,1,0,1:0:0:0:
53,383,45483,5,8,1:2:0:0:
85,311,45633,1,8,1:2:0:0:
35,250,45783,1,0,1:0:0:0:
144,377,45933,6,0,P|193:366|248:356,1,89.9999972534181,4|0,1:0|0:0,0:0:0:0:
85,133,46233,2,0,P|139:148|177:152,1,89.9999972534181,2|0,3:0|0:0,0:0:0:0:
399,285,46533,5,0,1:0:0:0:
299,313,46683,1,0,1:0:0:0:
432,201,46833,1,2,3:0:0:0:
456,363,46983,1,0,0:0:0:0:
325,191,47133,5,0,1:0:0:0:
508,119,47283,1,0,1:0:0:0:
325,191,47433,2,0,B|282:175|282:175|242:195,1,89.9999972534181,2|0,3:0|1:0,0:0:0:0:
173,152,47733,1,0,1:0:0:0:
273,47,47883,5,0,1:0:0:0:
71,150,48033,1,8,0:0:0:0:
251,273,48183,1,8,0:0:0:0:
417,203,48333,1,12,1:0:0:0:
110,286,48633,5,2,0:0:0:0:
110,286,48783,2,0,L|135:367,1,75.0000028610231,2|0,0:0|0:0,0:0:0:0:
14,319,49083,2,0,B|15:236|48:278|35:144,1,150.000005722046,2|2,0:0|0:0,0:0:0:0:
121,31,49533,6,0,P|178:94|137:157,1,150.000005722046,0|2,0:0|0:0,0:0:0:0:
265,356,49983,1,2,3:0:0:0:
314,346,50058,1,2,3:0:0:0:
363,336,50133,1,8,0:0:0:0:
412,326,50208,1,8,0:0:0:0:
461,317,50283,1,8,0:0:0:0:
378,155,50433,2,0,B|355:200|355:200|394:248,1,100,8|0,0:0|0:0,0:0:0:0:
488,55,50733,5,4,1:0:0:0:
488,55,50808,1,2,0:0:0:0:
488,55,50883,1,2,0:0:0:0:
378,155,51033,1,2,3:0:0:0:
500,211,51183,1,0,0:0:0:0:
385,65,51333,1,0,1:0:0:0:
303,223,51483,2,0,B|251:242|251:242|227:275|227:275|164:290,1,150
165,287,51783,6,0,B|135:241|135:241|162:189,1,100,2|0,0:1|1:0,0:0:0:0:
71,11,52083,1,0,0:0:0:0:
128,56,52233,1,2,3:0:0:0:
155,200,52383,1,0,0:0:0:0:
172,129,52533,1,0,1:0:0:0:
314,20,52683,5,2,0:0:0:0:
261,131,52833,1,2,3:0:0:0:
276,165,52908,1,2,0:0:0:0:
260,198,52983,1,2,0:0:0:0:
284,234,53058,1,2,0:0:0:0:
284,234,53133,2,0,L|267:296,1,50,4|0,1:0|0:0,0:0:0:0:
394,371,53283,1,0,0:0:0:0:
502,277,53433,6,0,B|470:244|470:244|401:279|341:289,1,150,2|0,3:0|0:0,0:0:0:0:
357,292,53733,1,0,1:0:0:0:
461,167,53883,1,0,0:0:0:0:
291,73,54033,2,0,L|305:120,1,50,2|0,3:0|0:0,0:0:0:0:
309,207,54183,6,0,B|337:122|337:122|311:85|311:85|333:1,1,200,2|0,0:1|0:0,0:0:0:0:
185,148,54633,5,2,3:0:0:0:
202,217,54783,1,0,0:0:0:0:
48,327,54933,1,0,1:0:0:0:
67,254,55083,1,0,0:0:0:0:
252,283,55233,5,8,0:0:0:0:
87,158,55383,2,0,P|70:118|87:87,1,50,8|0,0:0|0:0,0:0:0:0:
171,41,55533,5,0,1:0:0:0:
188,38,55608,1,2,0:0:0:0:
217,30,55683,1,2,0:0:0:0:
310,159,55833,1,2,3:0:0:0:
401,29,55983,2,0,L|438:7,2,25,2|0|2,0:0|0:0|0:0,0:0:0:0:
371,42,56133,6,0,B|446:48|419:98|502:112,1,150,0|0,1:0|0:0,0:0:0:0:
506,139,56433,1,2,3:0:0:0:
390,272,56583,2,0,P|343:283|281:302,1,100,2|0,0:1|1:0,0:0:0:0:
460,348,56883,6,0,L|470:309,4,25,2|0|0|2|0,0:0|0:0|0:0|3:0|0:0,0:0:0:0:
256,142,57183,2,0,L|263:166,4,25,2|0|0|0|0,0:0|0:0|0:0|1:0|0:0,0:0:0:0:
357,73,57483,5,2,0:0:0:0:
183,216,57633,2,0,L|113:229,1,50,0|0,1:0|1:0,0:0:0:0:
133,225,57783,2,0,L|65:221,1,50,0|0,1:0|1:0,0:0:0:0:
33,164,57933,6,0,P|-17:227|64:316,1,200,4|2,1:0|3:0,0:0:0:0:
232,268,58383,1,0,0:0:0:0:
274,330,58533,2,0,L|257:370,4,25,2|0|0|0|0,1:2|0:0|0:0|0:0|0:0,0:0:0:0:
512,264,58833,5,2,3:0:0:0:
438,226,58983,1,0,0:0:0:0:
391,379,59133,6,0,B|366:219|428:345|385:117,1,225.000008583069,2|0,3:2|0:0,0:0:0:0:
424,80,59433,2,0,B|400:68|400:68|356:76,1,50,2|0,0:0|0:0,0:0:0:0:
186,223,59583,6,0,L|264:206,1,50,2|2,3:0|3:0,0:0:0:0:
130,121,59733,2,0,L|59:108,1,50,2|2,3:0|3:0,0:0:0:0:
182,303,59883,6,0,L|257:331,1,50,2|2,3:0|3:0,0:0:0:0:
72,205,60033,2,0,L|15:229,1,50,8|8,0:0|0:0,0:0:0:0:
217,124,60183,2,0,L|298:104,1,50,8|8,0:0|0:0,0:0:0:0:
