osu file format v14

[General]
AudioFilename: audio.mp3
AudioLeadIn: 0
PreviewTime:30858
Countdown: 0
SampleSet: Soft
StackLeniency: 0.4
Mode: 0
LetterboxInBreaks: 0
WidescreenStoryboard: 1

[Editor]
DistanceSpacing: 2.9
BeatDivisor: 4
GridSize: 4
TimelineZoom: 2.999998

[Metadata]
Title:Kuuchuu Bunkai
TitleUnicode:空中分解
Artist:Three
ArtistUnicode:すりぃ
Creator:Ryuusei Aika
Version:Cami's Insane
Source:
Tags:Collage Japanese Rock J-Rock JRock Male Vocal Surii ボーカロイド ボカロ VOCALOID 鏡音レン Kagamine Len 真ひろ まめでん ま子 Akitoshi Ujimatcha -ClariS- Yorita Yoshino Yorita_Yoshino Dored Yugu Skyflame Cami wyrio Firika AncuL -Eriri- Laura -Laura- Corinn -Mikan Mikan Bazz Bazz_B X Light X_Light XLT Reform Kujinn Seto Kousuke Seto_Kousuke Djulus -MikanMyMommy gary00737 HabiHolic Haruto Haruto_Aizawa Armin A_r_M_i_N Agatsu Garden kanor Error- -Keitaro SnowNiNo_ Sylas TheKoala CoLouRed GlaZeE CoLouRed_GlaZeE caren_sk CRN
BeatmapID:2046262
BeatmapSetID:952132

[Difficulty]
HPDrainRate:5
CircleSize:4.2
OverallDifficulty:8
ApproachRate:8.8
SliderMultiplier:1.4
SliderTickRate:1

[Events]
//Background and Video events
Video,3,"video.mp4"
0,0,"BG.jpg",0,0
//Break Periods
2,11333,14674
//Storyboard Layer 0 (Background)
//Storyboard Layer 1 (Fail)
//Storyboard Layer 2 (Pass)
//Storyboard Layer 3 (Foreground)
//Storyboard Layer 4 (Overlay)
//Storyboard Sound Samples

[TimingPoints]
333,300,4,2,1,55,1,0
333,-133.333333333333,4,2,1,55,0,0
1233,-133.333333333333,4,2,1,99,0,0
1533,-100,4,2,1,77,0,0
11433,-133.333333333333,4,2,0,44,0,0
15483,-133.333333333333,4,2,1,66,0,0
15933,-133.333333333333,4,2,1,55,0,0
20283,-133.333333333333,4,2,1,77,0,0
20733,-100,4,2,1,66,0,0
30333,-133.333333333333,4,2,88,55,0,0
30933,-86.9565217391303,4,2,88,77,0,0
31533,-90.9090909090909,4,2,1,99,0,0
31683,-90.9090909090909,4,2,1,99,0,0
38733,-90.9090909090909,4,2,1,99,0,0
38883,-100,4,2,1,99,0,0
41133,-90.9090909090909,4,2,1,99,0,0
41283,-90.9090909090909,4,2,1,99,0,0
47883,-76.9230769230769,4,2,1,99,0,0
48333,-133.333333333333,4,2,99,99,0,0
48633,-133.333333333333,4,2,1,77,0,0
49983,-100,4,2,1,77,0,0
50133,-100,4,2,1,88,0,0
50433,-68.9655172413792,4,2,1,55,0,0
50733,-100,4,2,1,77,0,0
57333,-200,4,2,1,77,0,0
57633,-35.7142857142857,4,2,1,77,0,0
57933,-100,4,2,1,77,0,0
59133,-100,4,2,1,77,0,0
59583,-66.6666666666667,4,2,1,77,0,0
60033,-58.8235294117647,4,2,1,77,0,0

[Colours]
Combo1 : 255,120,55
Combo2 : 0,49,98
Combo3 : 128,64,64

[HitObjects]
159,144,333,5,8,2:0:0:0:
243,236,558,1,8,2:0:0:0:
151,320,783,1,8,2:0:0:0:
207,375,933,5,8,2:0:0:0:
243,236,1233,6,2,P|279:237|339:239,1,78.7500030040742,2|0,0:0|0:0,3:3:0:0:
351,238,1533,5,4,1:0:0:0:
268,157,1683,1,0,0:0:0:0:
268,157,1758,1,0,0:0:0:0:
268,157,1833,1,2,3:0:0:0:
407,103,1983,2,0,P|403:139|398:198,1,70,0|0,0:0|1:0,0:0:0:0:
287,76,2283,2,0,P|283:41|280:6,1,70,0|2,0:0|3:0,0:0:0:0:
103,137,2583,5,2,0:1:0:0:
170,97,2733,2,0,P|237:97|267:156,1,140,0|2,1:0|3:0,0:0:0:0:
227,223,3183,1,0,0:0:0:0:
227,223,3333,2,0,B|191:228|191:228|141:212,1,70,0|0,1:0|0:0,0:0:0:0:
47,286,3633,2,0,B|79:275|79:275|115:280,1,70,2|0,3:0|0:0,0:0:0:0:
267,356,3933,5,0,1:0:0:0:
147,360,4083,1,0,0:0:0:0:
147,360,4158,1,0,0:0:0:0:
147,360,4233,1,2,3:0:0:0:
315,295,4383,2,0,P|351:299|390:307,1,70,0|0,0:0|1:0,0:0:0:0:
227,223,4683,2,0,P|223:257|220:292,1,70,0|2,0:0|3:0,0:0:0:0:
303,102,4983,5,2,0:1:0:0:
334,171,5133,2,0,P|294:225|226:222,1,140,0|2,1:0|3:0,0:0:0:0:
177,162,5583,1,0,0:0:0:0:
63,256,5733,2,2,L|44:336,1,70,0|0,1:0|0:0,0:0:0:0:
146,92,6033,2,2,P|138:54|129:23,1,70,8|8,3:2|0:0,0:0:0:0:
12,196,6333,5,4,1:0:0:0:
150,246,6483,1,0,0:0:0:0:
150,246,6558,1,0,0:0:0:0:
150,246,6633,1,2,3:0:0:0:
146,92,6783,2,0,P|140:126|129:173,1,70,0|0,0:0|1:0,0:0:0:0:
303,102,7083,2,0,P|309:68|320:21,1,70,0|2,0:0|3:0,0:0:0:0:
439,169,7383,5,2,0:1:0:0:
366,200,7533,2,0,B|322:212|285:188|311:183|268:164|214:185,1,140,0|2,1:0|3:0,0:0:0:0:
178,238,7983,1,0,0:0:0:0:
246,319,8133,2,0,B|264:290|264:290|255:245,1,70,0|0,1:0|0:0,0:0:0:0:
46,313,8433,2,0,B|38:348|38:348|56:377,1,70,2|0,3:0|0:0,0:0:0:0:
153,165,8733,5,0,1:0:0:0:
256,254,8883,1,0,0:0:0:0:
256,254,8958,1,0,0:0:0:0:
256,254,9033,1,2,3:0:0:0:
334,130,9183,2,0,P|297:162|274:179,1,70,0|0,0:0|1:0,0:0:0:0:
352,329,9483,2,0,P|345:284|342:245,1,70,0|2,0:0|3:0,0:0:0:0:
506,158,9783,5,0,0:0:0:0:
448,298,9933,1,2,3:0:0:0:
401,120,10083,1,2,0:0:0:0:
342,259,10233,1,2,3:0:0:0:
274,137,10383,6,0,P|286:148|298:162,1,35,2|2,0:0|0:0,0:0:0:0:
310,188,10533,2,0,B|274:171|274:171|221:180,1,70,2|2,3:0|3:0,0:0:0:0:
110,323,10833,1,8,0:0:0:0:
143,315,10908,1,8,0:0:0:0:
167,290,10983,1,8,0:0:0:0:
172,256,11058,1,8,0:0:0:0:
158,224,11133,1,8,0:0:0:0:
158,224,15333,6,0,P|142:208|128:195,1,26.2500010013581,2|0,0:0|0:0,0:0:0:0:
118,292,15483,5,8,0:0:0:0:
235,200,15633,1,8,0:0:0:0:
285,341,15783,1,8,0:0:0:0:
65,230,15933,5,12,0:0:0:0:
65,230,16233,2,0,P|48:187|34:160,1,52.5000020027161,2|2,0:0|0:0,0:0:0:0:
84,116,16533,1,0,1:0:0:0:
84,116,16683,2,0,P|94:77|101:55,1,52.5000020027161,2|2,0:0|0:0,0:0:0:0:
306,140,17133,6,0,L|254:149,1,52.5000020027161,0|2,1:0|0:0,0:0:0:0:
324,65,17433,2,0,L|375:55,1,52.5000020027161,2|2,0:0|0:0,0:0:0:0:
441,101,17733,1,0,1:0:0:0:
441,101,17883,2,0,L|429:142,2,26.2500010013581,2|0|2,0:0|0:0|0:0,0:0:0:0:
509,61,18183,1,0,0:0:0:0:
475,190,18333,5,0,1:0:0:0:
475,190,18633,2,0,P|447:214|426:235,1,52.5000020027161,2|2,0:0|0:0,0:0:0:0:
371,260,18933,1,0,1:0:0:0:
371,260,19083,2,0,P|376:291|379:319,1,52.5000020027161,2|2,0:0|0:0,0:0:0:0:
214,363,19533,5,0,1:0:0:0:
214,363,19833,2,0,P|181:336|153:315,1,52.5000020027161,2|2,0:0|0:0,0:0:0:0:
88,355,20133,2,0,B|93:368|93:368|100:354,1,26.2500010013581,0|0,1:0|0:0,0:0:0:0:
53,282,20283,5,8,0:0:0:0:
4,145,20433,1,8,0:0:0:0:
185,85,20583,1,8,0:0:0:0:
234,222,20733,6,0,B|195:231|159:209|179:214|141:192|91:218,1,140,0|8,1:0|0:0,0:0:0:0:
124,345,21183,2,0,B|145:321|145:321|141:283,1,70,0|0,0:0|1:0,0:0:0:0:
24,244,21483,1,0,1:0:0:0:
138,129,21633,2,0,P|188:134|216:136,1,70,8|0,0:0|0:0,0:0:0:0:
376,222,21933,5,0,1:0:0:0:
310,267,22083,1,0,0:0:0:0:
332,152,22233,1,8,0:0:0:0:
457,231,22383,1,0,0:0:0:0:
457,231,22683,1,0,1:0:0:0:
339,344,22833,2,0,P|285:350|258:355,1,70,8|0,0:0|0:0,0:0:0:0:
130,274,23133,6,0,P|179:286|219:238,1,105,0|0,1:0|0:0,0:0:0:0:
225,226,23433,2,0,P|217:185|210:147,1,70,8|0,0:0|0:0,0:0:0:0:
176,91,23733,1,0,1:0:0:0:
135,191,23883,1,0,1:0:0:0:
299,174,24033,2,0,P|355:178|377:180,1,70,8|0,0:0|0:0,0:0:0:0:
461,42,24333,5,0,1:0:0:0:
461,42,24483,1,0,1:0:0:0:
378,98,24633,1,8,0:0:0:0:
304,72,24783,2,0,B|330:48|381:50|432:126,1,140,8|0,0:0|1:0,0:0:0:0:
385,255,25233,2,0,P|380:204|374:180,1,70,8|0,1:2|1:0,0:0:0:0:
375,185,25458,1,0,0:0:0:0:
375,185,25533,6,0,B|325:178|325:178|298:189|298:189|273:168|234:176,1,140,4|8,1:0|0:0,0:0:0:0:
177,264,25983,2,0,P|210:256|245:250,1,70,0|0,0:0|1:0,0:0:0:0:
208,338,26283,1,0,0:0:0:0:
94,260,26433,2,0,P|99:223|102:178,1,70,8|0,0:0|0:0,0:0:0:0:
41,108,26733,5,0,1:0:0:0:
41,108,26883,1,0,0:0:0:0:
157,132,27033,1,8,0:0:0:0:
101,190,27183,2,0,P|63:201|25:216,1,70,8|0,0:0|1:0,0:0:0:0:
138,55,27483,1,0,1:0:0:0:
215,76,27633,2,0,P|253:87|291:102,1,70,8|0,0:0|0:0,0:0:0:0:
456,82,27933,6,0,B|399:89|399:89|361:138,1,105,0|0,1:0|0:0,0:0:0:0:
358,149,28233,2,0,P|363:190|366:225,1,70,8|0,0:0|0:0,0:0:0:0:
343,292,28533,1,0,1:0:0:0:
444,240,28683,1,0,0:0:0:0:
279,200,28833,2,0,P|221:211|192:218,1,70,8|0,0:0|0:0,0:0:0:0:
163,331,29133,5,0,1:0:0:0:
232,297,29283,1,0,1:0:0:0:
125,232,29433,1,8,0:0:0:0:
78,347,29583,2,0,P|122:350|157:359,1,70,8|0,0:0|0:0,0:0:0:0:
310,318,29883,2,0,P|266:315|231:306,2,70,0|8|8,1:0|0:0|0:0,0:0:0:0:
444,281,30333,6,0,L|388:290,1,52.5000020027161,2|0,1:0|0:0,0:0:0:0:
393,290,30933,6,0,B|368:198|368:198|378:159,2,120.750002303124,8|8|8,1:0|1:0|1:0,0:0:0:0:
277,195,31533,6,0,P|208:189|150:184,1,115.50000352478,4|0,1:0|0:0,0:0:0:0:
59,198,31833,2,0,P|97:201|136:205,1,77.0000023498536,2|0,3:0|0:0,0:0:0:0:
92,284,32133,1,0,1:0:0:0:
92,284,32283,1,0,0:0:0:0:
65,118,32433,2,0,P|62:79|58:41,1,77.0000023498536,2|0,3:0|0:0,0:0:0:0:
254,85,32733,5,0,1:0:0:0:
175,74,32883,2,0,P|216:96|260:113,1,77.0000023498536,0|2,0:0|3:0,0:0:0:0:
412,142,33183,2,0,B|324:118|351:182|263:198,1,154.000004699707,0|0,1:0|1:0,0:0:0:0:
453,342,33633,2,0,P|449:304|447:266,1,77.0000023498536,2|0,3:0|0:0,0:0:0:0:
239,270,33933,6,0,P|286:285|297:359,1,115.50000352478,0|0,1:0|0:0,0:0:0:0:
214,254,34233,2,0,P|227:198|237:162,1,77.0000023498536,2|0,3:0|0:0,0:0:0:0:
322,210,34533,1,0,1:0:0:0:
322,210,34683,1,0,0:0:0:0:
153,214,34833,5,2,3:0:0:0:
214,254,34983,2,0,P|189:179|163:100,1,154.000004699707,2|0,0:0|0:0,0:0:0:0:
91,57,35433,1,2,3:0:0:0:
34,206,35583,2,0,P|102:207|109:287,1,154.000004699707,0|8,1:0|1:2,0:0:0:0:
296,343,36033,2,0,P|246:346|209:353,1,77.0000023498536,8|0,1:2|1:0,0:0:0:0:
386,115,36333,6,0,P|394:215|399:256,1,115.50000352478,4|0,1:0|0:0,0:0:0:0:
425,326,36633,2,0,P|419:288|415:250,1,77.0000023498536,2|0,3:0|0:0,0:0:0:0:
476,176,36933,1,0,1:0:0:0:
476,176,37083,1,0,0:0:0:0:
321,265,37233,2,0,P|282:259|244:257,1,77.0000023498536,2|0,3:0|0:0,0:0:0:0:
239,120,37533,5,0,1:0:0:0:
198,185,37683,2,0,P|226:144|244:110,1,77.0000023498536,0|2,0:0|3:0,0:0:0:0:
109,174,37983,2,0,P|152:110|190:43,1,154.000004699707,0|0,1:0|1:0,0:0:0:0:
65,104,38433,1,8,1:2:0:0:
198,185,38583,1,8,1:2:0:0:
30,294,38733,6,0,P|14:251|35:216,1,77.0000023498536,6|0,1:0|0:0,0:0:0:0:
99,344,39033,1,0,1:0:0:0:
198,185,39183,5,2,1:0:0:0:
313,382,39483,1,2,1:0:0:0:
411,206,39783,2,2,L|387:372,1,140,6|2,1:0|1:0,0:0:0:0:
326,218,40233,1,0,3:0:0:0:
478,313,40383,2,0,P|472:353|465:387,1,70,0|0,1:0|1:0,0:0:0:0:
270,282,40683,5,2,3:0:0:0:
250,252,40758,1,2,3:0:0:0:
245,218,40833,1,2,3:0:0:0:
253,185,40908,1,2,3:0:0:0:
274,157,40983,2,0,P|293:140|313:120,1,35,8|8,0:0|0:0,0:0:0:0:
76,194,41133,6,0,P|117:236|101:307,1,115.50000352478,4|0,1:0|0:0,0:0:0:0:
83,374,41433,2,0,P|75:337|87:301,1,77.0000023498536,2|0,3:0|0:0,0:0:0:0:
158,228,41733,1,0,1:0:0:0:
158,228,41883,1,0,0:0:0:0:
270,282,42033,2,0,P|224:293|178:304,1,77.0000023498536,2|0,3:0|0:0,0:0:0:0:
262,119,42333,5,0,1:0:0:0:
342,155,42483,2,0,P|313:148|267:137,1,77.0000023498536,0|2,0:0|3:0,0:0:0:0:
136,104,42783,2,0,B|92:121|90:187|187:249,1,154.000004699707,0|0,1:0|1:0,0:0:0:0:
20,125,43233,2,0,P|35:76|45:36,1,77.0000023498536,2|0,3:0|1:0,0:0:0:0:
40,201,43533,6,0,P|52:337|55:374,1,154.000004699707,4|2,1:2|3:0,0:0:0:0:
129,376,43983,1,0,0:0:0:0:
229,281,44133,2,0,P|288:270|320:267,1,77.0000023498536,0|0,1:0|1:0,0:0:0:0:
208,115,44433,5,2,3:0:0:0:
245,185,44583,2,0,P|294:211|396:247,1,154.000004699707,2|0,0:0|1:0,0:0:0:0:
473,75,45033,1,2,3:0:0:0:
458,193,45183,2,0,P|467:255|471:298,1,77.0000023498536,0|0,1:0|1:0,0:0:0:0:
354,332,45483,1,8,1:2:0:0:
313,220,45633,1,8,1:2:0:0:
386,244,45783,1,0,1:0:0:0:
216,286,45933,6,0,P|129:304|74:319,1,115.50000352478,4|0,1:0|0:0,0:0:0:0:
237,261,46233,2,0,P|243:210|244:163,1,77.0000023498536,2|0,3:0|0:0,0:0:0:0:
171,114,46533,1,0,1:0:0:0:
171,114,46683,1,0,1:0:0:0:
333,125,46833,2,0,P|291:144|252:164,1,77.0000023498536,2|0,3:0|0:0,0:0:0:0:
415,309,47133,5,0,1:0:0:0:
457,229,47283,1,0,1:0:0:0:
327,268,47433,1,2,3:0:0:0:
392,382,47583,2,0,P|407:337|417:299,1,77.0000023498536,0|0,1:0|1:0,0:0:0:0:
263,157,47883,5,0,1:0:0:0:
352,67,48033,2,0,P|396:71|430:100,1,90.9999958343508,8|0,0:0|0:0,0:0:0:0:
252,297,48333,6,0,B|191:289|199:316|160:339,1,105.000004005432,12|2,1:0|0:0,0:0:0:0:
95,298,48783,2,0,P|101:263|56:209,1,105.000004005432,2|2,0:0|0:0,0:0:0:0:
60,210,49383,2,0,L|185:200,1,105.000004005432,2|2,0:0|0:0,0:0:0:0:
218,142,49833,1,2,0:0:0:0:
326,263,49983,5,2,3:0:0:0:
326,263,50058,1,2,3:0:0:0:
326,263,50133,2,0,P|307:285|289:314,1,35,8|8,0:0|0:0,0:0:0:0:
376,200,50283,2,0,P|395:222|413:251,1,35,8|8,0:0|0:0,0:0:0:0:
314,31,50433,6,0,B|294:170|294:170|307:198,1,152.250004646301,8|0,0:0|0:0,0:0:0:0:
298,180,50733,5,4,1:0:0:0:
227,72,50883,1,0,0:0:0:0:
227,72,50958,1,0,0:0:0:0:
227,72,51033,2,0,P|222:111|213:163,1,70,2|0,3:0|0:0,0:0:0:0:
76,221,51333,1,0,1:0:0:0:
49,148,51483,2,0,P|103:143|140:136,1,70,0|2,0:0|3:0,0:0:0:0:
199,275,51783,5,2,0:1:0:0:
131,314,51933,2,0,B|165:309|165:309|188:262|156:199,1,140,0|2,1:0|3:0,0:0:0:0:
76,221,52383,1,0,0:0:0:0:
217,141,52533,2,0,P|228:87|236:49,1,70,0|2,1:0|0:0,0:0:0:0:
353,227,52833,2,0,P|332:175|318:139,1,70,2|2,3:0|0:0,0:0:0:0:
268,352,53133,5,4,1:0:0:0:
395,306,53283,1,0,0:0:0:0:
395,306,53358,1,0,0:0:0:0:
395,306,53433,1,2,3:0:0:0:
255,237,53583,2,0,P|221:285|202:307,1,70,2|0,0:0|1:0,0:0:0:0:
436,237,53883,2,0,P|470:189|489:167,1,70,0|2,0:0|3:0,0:0:0:0:
386,33,54183,5,2,0:1:0:0:
336,93,54333,2,0,B|328:120|328:120|357:207|357:207|347:256,1,140,0|2,1:0|3:0,0:0:0:0:
310,295,54783,1,0,0:0:0:0:
192,184,54933,2,0,B|158:161|158:161|102:152,1,70,0|0,1:0|0:0,0:0:0:0:
18,375,55233,2,0,B|53:362|53:362|80:338,1,70,8|8,0:0|0:0,0:0:0:0:
0,194,55533,6,0,B|-11:220|-11:220|15:313,1,105,0|0,1:0|0:0,0:0:0:0:
82,260,55833,1,2,3:0:0:0:
195,333,55983,6,0,L|169:333,2,17.5,2|0|2,0:0|0:0|0:0,0:0:0:0:
216,319,56133,2,0,B|264:311|291:348|291:348|316:325|357:333,1,140,0|2,1:0|3:0,0:0:0:0:
482,228,56583,5,2,0:1:0:0:
403,236,56733,2,0,L|317:243,1,70,0|2,1:0|0:0,0:0:0:0:
333,241,56958,1,2,0:0:0:0:
333,241,57033,1,2,3:0:0:0:
239,183,57183,6,0,L|295:195,1,35,2|2,0:0|0:0,0:0:0:0:
276,180,57333,6,0,L|227:170,1,35,0|2,1:0|0:0,0:0:0:0:
162,237,57633,6,0,P|169:269|167:236,3,97.9999970092774,0|0|0|0,1:0|1:0|1:0|1:0,0:0:0:0:
97,188,57933,5,4,1:0:0:0:
107,330,58083,1,0,0:0:0:0:
107,330,58158,1,0,0:0:0:0:
107,330,58233,1,2,3:0:0:0:
10,212,58383,2,0,P|53:189|82:166,1,70,0|2,0:0|1:2,0:0:0:0:
222,201,58683,2,0,P|190:216|162:236,1,70,0|2,0:0|3:0,0:0:0:0:
124,83,58983,1,0,0:0:0:0:
206,109,59133,6,0,P|222:102|236:92,4,35,2|0|0|0|0,3:2|0:0|0:0|0:0|0:0,0:0:0:0:
398,289,59583,6,0,L|392:341,1,52.5000020027161,2|2,3:0|3:0,0:0:0:0:
319,247,59733,2,0,L|313:299,1,52.5000020027161,2|2,3:0|3:0,0:0:0:0:
482,248,59883,2,0,L|476:300,1,52.5000020027161,2|2,3:0|3:0,0:0:0:0:
289,167,60033,6,0,L|281:94,1,59.5000011348725,8|8,0:0|0:0,0:0:0:0:
349,63,60183,2,0,L|341:-10,1,59.5000011348725,8|8,0:0|0:0,0:0:0:0:
