osu file format v14

[General]
AudioFilename: audio.mp3
AudioLeadIn: 0
PreviewTime: 30858
Countdown: 0
SampleSet: Soft
StackLeniency: 0.2
Mode: 0
LetterboxInBreaks: 0
WidescreenStoryboard: 1

[Editor]
DistanceSpacing: 0.2
BeatDivisor: 4
GridSize: 32
TimelineZoom: 1.7

[Metadata]
Title:Kuuchuu Bunkai
TitleUnicode:空中分解
Artist:Three
ArtistUnicode:すりぃ
Creator:Ryuusei Aika
Version:CRN's Overhaul
Source:
Tags:Collage Japanese Rock J-Rock JRock Male Vocal Surii ボーカロイド ボカロ VOCALOID 鏡音レン Kagamine Len 真ひろ まめでん ま子 Akitoshi Ujimatcha -ClariS- Yorita Yoshino Yorita_Yoshino Dored Yugu Skyflame Cami wyrio Firika AncuL -Eriri- Laura -Laura- Corinn -Mikan Mikan Bazz Bazz_B X Light X_Light XLT Reform Kujinn Seto Kousuke Seto_Kousuke Djulus -MikanMyMommy gary00737 HabiHolic Haruto Haruto_Aizawa Armin A_r_M_i_N Agatsu Garden kanor Error- -Keitaro SnowNiNo_ Sylas TheKoala CoLouRed GlaZeE CoLouRed_GlaZeE caren_sk CRN
BeatmapID:1989563
BeatmapSetID:952132

[Difficulty]
HPDrainRate:7
CircleSize:4.9
OverallDifficulty:9.2
ApproachRate:9.3
SliderMultiplier:2
SliderTickRate:1

[Events]
//Background and Video events
Video,3,"video.mp4"
0,0,"BG.jpg",0,0
//Break Periods
//Storyboard Layer 0 (Background)
//Storyboard Layer 1 (Fail)
//Storyboard Layer 2 (Pass)
//Storyboard Layer 3 (Foreground)
//Storyboard Layer 4 (Overlay)
//Storyboard Sound Samples

[TimingPoints]
333,300,4,2,1,55,1,0
1233,-100,4,2,1,80,0,0
11433,-133.333333333333,4,2,0,64,0,0
15333,-133.333333333333,4,2,0,75,0,0
15933,-117.647058823529,4,2,1,80,0,0
19533,-100,4,2,1,85,0,0
31533,-83.3333333333333,4,2,1,90,0,1
39408,-83.3333333333333,4,2,1,20,0,1
39483,-83.3333333333333,4,2,1,90,0,1
39708,-83.3333333333333,4,2,1,20,0,1
39783,-83.3333333333333,4,2,1,90,0,1
40008,-83.3333333333333,4,2,1,20,0,1
40083,-83.3333333333333,4,2,1,90,0,1
48333,-100,4,2,1,90,0,0
56208,-100,4,2,1,5,0,0
56283,-100,4,2,1,90,0,0

[Colours]
Combo1 : 255,120,55
Combo2 : 0,49,98
Combo3 : 128,64,64

[HitObjects]
256,32,333,53,2,0:0:0:0:
32,192,558,1,2,0:0:0:0:
480,192,783,1,2,0:0:0:0:
256,352,933,1,2,0:0:0:0:
256,32,1233,6,2,L|246:195,1,150,4|0,0:0|0:0,0:0:0:0:
176,220,1533,6,0,L|184:112,1,100,6|0,0:0|0:0,0:0:0:0:
195,0,1833,1,2,0:3:0:0:
405,119,1983,1,0,0:0:0:0:
405,119,2058,1,0,0:0:0:0:
405,119,2133,1,2,0:0:0:0:
246,181,2283,1,0,0:0:0:0:
256,32,2433,1,2,0:3:0:0:
405,119,2583,6,0,L|269:110,1,100,6|0,0:0|0:0,0:0:0:0:
33,104,2883,1,2,0:0:0:0:
101,292,3033,2,0,P|145:273|180:235,1,100,2|0,0:3|0:0,0:0:0:0:
353,38,3333,1,2,0:0:0:0:
512,218,3483,1,0,0:0:0:0:
376,330,3633,1,2,0:3:0:0:
351,347,3708,1,2,0:0:0:0:
321,352,3783,1,2,0:0:0:0:
291,352,3858,1,2,0:0:0:0:
262,341,3933,6,0,P|248:287|249:235,1,100,6|0,0:0|0:0,0:0:0:0:
498,74,4233,2,0,P|512:128|511:180,1,100,2|0,0:3|0:0,0:0:0:0:
512,218,4458,1,0,0:0:0:0:
512,218,4533,2,0,P|454:226|391:219,1,100,2|0,0:0|0:0,0:0:0:0:
201,108,4833,1,2,0:3:0:0:
48,233,4983,6,0,L|46:182,1,50,2|0,0:0|0:0,0:0:0:0:
1,307,5133,2,0,P|50:309|100:301,1,100,6|0,0:0|0:0,0:0:0:0:
351,180,5433,1,2,0:3:0:0:
174,301,5583,1,2,0:0:0:0:
359,372,5733,2,0,L|355:263,1,100,6|0,0:0|0:0,0:0:0:0:
186,54,6033,2,0,L|190:163,1,100,2|0,0:3|0:0,0:0:0:0:
263,199,6258,1,0,0:0:0:0:
263,199,6333,6,0,L|259:90,1,100,6|0,0:0|0:0,0:0:0:0:
93,124,6633,1,2,0:3:0:0:
268,267,6783,1,2,0:0:0:0:
425,99,6933,1,0,0:0:0:0:
256,0,7083,2,0,L|259:99,1,100,2|2,0:0|0:3,0:0:0:0:
505,313,7383,5,6,0:0:0:0:
505,313,7458,1,0,0:0:0:0:
505,313,7533,2,0,L|501:213,1,100,2|0,0:0|0:0,0:0:0:0:
489,25,7833,1,2,0:3:0:0:
362,241,7983,1,2,0:0:0:0:
325,95,8133,2,0,L|424:98,1,100,2|0,0:0|0:0,0:0:0:0:
254,287,8433,2,0,L|154:283,1,100,2|0,0:3|0:0,0:0:0:0:
120,283,8658,1,0,0:0:0:0:
120,283,8733,1,6,0:0:0:0:
208,167,8883,5,0,0:0:0:0:
199,375,9033,1,2,0:3:0:0:
0,275,9183,1,2,0:0:0:0:
160,31,9333,1,2,0:0:0:0:
389,212,9483,1,0,0:0:0:0:
389,212,9558,1,0,0:0:0:0:
389,212,9633,1,2,0:3:0:0:
512,70,9783,5,0,0:0:0:0:
473,82,9858,1,0,0:0:0:0:
434,94,9933,1,6,0:0:0:0:
95,159,10083,1,0,0:0:0:0:
131,169,10158,1,0,0:0:0:0:
176,180,10233,1,6,0:0:0:0:
344,6,10383,1,0,0:0:0:0:
310,249,10533,1,6,0:0:0:0:
105,84,10683,1,0,0:0:0:0:
344,6,10833,5,6,0:0:0:0:
339,55,10908,1,0,0:0:0:0:
334,104,10983,1,2,0:0:0:0:
326,153,11058,1,0,0:0:0:0:
320,202,11133,1,6,0:0:0:0:
320,202,11433,5,8,0:1:0:0:
463,141,11583,1,0,0:0:0:0:
320,202,11733,1,2,0:0:0:0:
444,289,11883,2,0,L|462:141,1,150.000005722046,2|0,0:0|0:0,0:0:0:0:
494,14,12333,5,2,0:0:0:0:
367,171,12483,1,0,0:0:0:0:
339,30,12633,1,8,0:1:0:0:
512,105,12783,1,2,0:0:0:0:
512,105,13083,5,2,0:0:0:0:
367,171,13233,1,8,0:1:0:0:
512,279,13383,1,2,0:0:0:0:
438,355,13533,2,0,L|344:346,1,75.0000028610231,2|0,0:0|0:0,0:0:0:0:
42,314,13833,2,0,L|136:323,1,75.0000028610231,8|0,0:1|0:0,0:0:0:0:
262,91,14133,2,0,L|253:185,1,75.0000028610231,2|0,0:0|0:0,0:0:0:0:
247,280,14433,5,8,0:1:0:0:
127,202,14583,1,0,0:0:0:0:
262,91,14733,1,2,0:0:0:0:
367,224,14883,1,0,0:0:0:0:
174,289,15033,1,8,0:1:0:0:
267,27,15183,1,2,0:0:0:0:
311,309,15333,5,6,0:0:0:0:
87,143,15483,1,0,0:0:0:0:
421,160,15633,1,6,0:0:0:0:
232,384,15783,1,0,0:0:0:0:
248,234,15933,1,6,0:0:0:0:
248,234,16233,5,2,0:0:0:0:
232,384,16383,1,2,0:0:0:0:
322,338,16533,1,2,0:0:0:0:
154,334,16683,2,0,P|79:299|30:215,1,170.000003242493,2|0,0:0|0:0,0:0:0:0:
0,97,17133,5,2,0:0:0:0:
93,56,17283,1,0,0:0:0:0:
86,157,17433,1,2,0:0:0:0:
0,97,17583,1,0,0:0:0:0:
172,18,17733,1,2,0:0:0:0:
163,204,17883,1,2,0:0:0:0:
163,204,17958,1,0,0:0:0:0:
163,204,18033,1,2,0:0:0:0:
278,87,18183,6,0,L|275:147,1,42.5000008106232,2|0,0:0|0:0,0:0:0:0:
346,160,18333,2,0,L|350:70,1,85.0000016212464,2|0,0:0|0:0,0:0:0:0:
512,124,18633,2,0,L|422:119,1,85.0000016212464,2|0,0:0|0:0,0:0:0:0:
115,107,18933,1,2,0:0:0:0:
281,19,19083,1,0,0:0:0:0:
273,195,19233,1,2,0:0:0:0:
115,107,19383,1,2,0:0:0:0:
218,10,19533,6,0,L|217:119,1,100,2|0,0:0|0:0,0:0:0:0:
52,303,19833,1,2,0:0:0:0:
6,195,19983,2,0,P|56:183|117:195,1,100,2|0,0:0|0:0,0:0:0:0:
344,266,20283,5,6,0:0:0:0:
173,361,20433,1,4,0:0:0:0:
179,173,20583,1,6,0:0:0:0:
344,266,20733,1,6,0:0:0:0:
344,266,21033,5,2,0:3:0:0:
320,140,21183,1,2,0:0:0:0:
231,279,21333,1,2,0:0:0:0:
378,374,21483,2,0,P|456:336|497:236,1,200,2|0,0:0|0:0,0:0:0:0:
512,67,21933,1,2,0:0:0:0:
395,191,22083,1,0,0:0:0:0:
395,66,22233,1,2,0:3:0:0:
395,191,22383,2,0,P|319:197|241:191,1,150,6|0,0:0|0:0,0:0:0:0:
174,181,22683,5,2,0:0:0:0:
50,247,22833,1,2,0:3:0:0:
0,133,22983,1,2,0:0:0:0:
174,181,23133,2,0,P|196:107|178:26,1,150,6|0,0:0|0:0,0:0:0:0:
120,2,23433,2,0,P|113:57|138:109,1,100,2|0,0:3|0:0,0:0:0:0:
337,256,23733,1,2,0:0:0:0:
356,66,23883,1,0,0:0:0:0:
512,184,24033,2,0,L|405:188,1,100,2|0,0:3|0:0,0:0:0:0:
241,178,24333,5,6,0:0:0:0:
359,0,24483,1,0,0:0:0:0:
512,184,24633,1,2,0:3:0:0:
337,256,24783,2,0,P|300:196|331:119,1,150,6|0,0:0|0:0,0:0:0:0:
356,66,25083,1,6,0:0:0:0:
411,188,25233,1,2,0:3:0:0:
512,101,25383,1,6,0:0:0:0:
512,246,25533,5,6,0:0:0:0:
512,246,25683,1,0,0:0:0:0:
249,304,25833,1,10,0:0:0:0:
374,322,25983,1,0,0:0:0:0:
119,282,26133,1,2,0:0:0:0:
269,177,26283,1,0,0:0:0:0:
237,384,26433,1,10,0:3:0:0:
24,270,26583,1,0,0:0:0:0:
188,65,26733,5,2,0:0:0:0:
206,233,26883,1,0,0:0:0:0:
0,117,27033,1,10,0:3:0:0:
217,0,27183,1,0,0:0:0:0:
292,259,27333,1,10,0:0:0:0:
512,169,27483,1,0,0:0:0:0:
281,141,27633,1,10,0:3:0:0:
458,273,27783,1,0,0:0:0:0:
418,9,27933,5,14,0:0:0:0:
390,193,28083,1,0,0:0:0:0:
256,71,28233,1,2,0:3:0:0:
512,91,28383,1,0,0:0:0:0:
382,307,28533,1,10,0:0:0:0:
399,106,28683,1,0,0:0:0:0:
182,236,28833,1,10,0:3:0:0:
512,273,28983,1,0,0:0:0:0:
307,375,29133,5,10,0:0:0:0:
271,167,29283,1,12,0:0:0:0:
435,248,29433,1,2,0:3:0:0:
292,268,29583,1,8,0:0:0:0:
425,141,29733,1,10,0:0:0:0:
474,352,29883,1,2,0:3:0:0:
156,333,30033,1,6,0:0:0:0:
323,43,30183,1,2,0:3:0:0:
354,229,30333,5,2,0:0:0:0:
354,229,30933,5,6,0:0:0:0:
157,62,31158,5,6,0:0:0:0:
43,300,31383,5,4,0:0:0:0:
260,362,31533,6,0,P|274:303|265:235,1,119.999996337891,6|0,0:2|0:0,0:0:0:0:
36,134,31833,2,0,P|22:193|31:261,1,119.999996337891,10|0,0:2|0:0,0:0:0:0:
43,300,32058,1,0,0:0:0:0:
43,300,32133,2,0,L|172:299,1,119.999996337891,2|0,0:2|0:0,0:0:0:0:
456,202,32433,5,10,0:2:0:0:
267,244,32583,1,2,0:2:0:0:
267,244,32658,1,0,0:0:0:0:
267,244,32733,2,0,P|253:185|262:117,1,119.999996337891,2|0,0:2|0:0,0:0:0:0:
269,0,33033,1,8,0:0:0:0:
479,100,33183,2,0,L|287:121,1,179.999994506836,2|0,0:2|0:0,0:0:0:0:
259,126,33483,5,2,0:2:0:0:
183,20,33633,1,8,0:0:0:0:
55,206,33783,1,2,0:2:0:0:
10,105,33933,6,0,L|145:119,1,119.999996337891,2|0,0:2|0:0,0:0:0:0:
450,256,34233,2,0,L|315:270,1,119.999996337891,10|0,0:2|0:0,0:0:0:0:
91,291,34533,5,2,0:2:0:0:
230,186,34683,1,0,0:0:0:0:
258,347,34833,1,10,0:2:0:0:
73,374,34983,2,0,P|28:333|11:268,1,119.999996337891,2|0,0:2|0:0,0:0:0:0:
3,114,35283,1,2,0:2:0:0:
240,66,35433,2,0,L|228:198,1,119.999996337891,10|0,0:2|0:0,0:0:0:0:
217,297,35733,5,8,0:0:0:0:
41,164,35883,1,2,0:2:0:0:
251,0,36033,1,8,0:0:0:0:
477,187,36183,5,2,0:2:0:0:
477,187,36258,1,0,0:0:0:0:
477,187,36333,2,0,L|344:171,1,119.999996337891,6|0,0:2|0:0,0:0:0:0:
98,277,36633,2,0,L|222:297,1,119.999996337891,10|0,0:2|0:0,0:0:0:0:
270,353,36858,1,0,0:0:0:0:
270,353,36933,2,0,L|287:223,1,119.999996337891,2|0,0:2|0:0,0:0:0:0:
321,8,37233,1,10,0:2:0:0:
295,167,37383,1,0,0:0:0:0:
78,57,37533,6,0,L|202:77,1,119.999996337891,2|0,0:2|0:0,0:0:0:0:
512,118,37833,1,8,0:0:0:0:
321,8,37983,2,0,L|305:126,1,119.999996337891,2|0,0:2|0:0,0:0:0:0:
54,313,38283,1,2,0:2:0:0:
54,313,38358,1,0,0:0:0:0:
54,313,38433,2,0,L|71:183,1,119.999996337891,10|0,0:2|0:0,0:0:0:0:
183,1,38733,5,14,0:2:0:0:
150,178,38883,1,0,0:0:0:0:
0,80,39033,1,10,0:2:0:0:
183,1,39183,6,0,L|149:186,1,179.999994506836,10|0,0:2|0:0,0:0:0:0:
214,235,39483,2,0,L|70:113,1,179.999994506836,10|0,0:2|0:0,0:0:0:0:
0,149,39783,2,0,L|177:85,1,179.999994506836,14|0,0:2|0:0,0:0:0:0:
235,70,40083,5,12,0:0:0:0:
310,219,40233,1,0,0:0:0:0:
499,102,40383,2,0,L|432:106,1,59.9999981689454,8|0,0:0|0:0,0:0:0:0:
384,214,40533,2,0,L|451:210,1,59.9999981689454,8|0,0:0|0:0,0:0:0:0:
501,290,40683,1,12,0:0:0:0:
482,340,40758,1,0,0:0:0:0:
439,373,40833,1,14,0:2:0:0:
385,372,40908,1,0,0:0:0:0:
334,353,40983,1,2,0:2:0:0:
303,308,41058,1,0,0:0:0:0:
286,256,41133,6,0,L|268:381,1,119.999996337891,6|0,0:2|0:0,0:0:0:0:
98,123,41433,2,0,L|223:141,1,119.999996337891,10|0,0:2|0:0,0:0:0:0:
308,32,41733,1,2,0:2:0:0:
104,239,41883,1,0,0:0:0:0:
104,239,41958,1,0,0:0:0:0:
104,239,42033,1,10,0:2:0:0:
36,12,42183,1,0,0:0:0:0:
229,182,42333,5,2,0:2:0:0:
11,281,42483,1,2,0:2:0:0:
67,60,42633,1,10,0:2:0:0:
290,241,42783,1,0,0:0:0:0:
290,241,42858,1,0,0:0:0:0:
290,241,42933,2,0,L|307:122,1,119.999996337891,2|0,0:2|0:0,0:0:0:0:
321,0,43233,1,8,0:0:0:0:
503,168,43383,5,2,0:2:0:0:
503,168,43458,1,0,0:0:0:0:
503,168,43533,2,0,P|440:170|385:154,1,119.999996337891,6|0,0:2|0:0,0:0:0:0:
204,67,43833,1,10,0:2:0:0:
65,292,43983,1,0,0:0:0:0:
4,180,44133,2,0,P|67:178|122:194,1,119.999996337891,2|0,0:2|0:0,0:0:0:0:
350,318,44433,1,10,0:2:0:0:
147,367,44583,5,0,0:0:0:0:
147,367,44658,1,0,0:0:0:0:
147,367,44733,2,0,L|164:248,1,119.999996337891,2|0,0:2|0:0,0:0:0:0:
365,17,45033,2,0,L|347:135,1,119.999996337891,10|0,0:2|0:0,0:0:0:0:
341,172,45258,1,0,0:0:0:0:
341,172,45333,1,10,0:2:0:0:
211,63,45483,5,0,0:0:0:0:
462,3,45633,1,10,0:2:0:0:
392,227,45783,1,2,0:2:0:0:
91,48,45933,6,0,L|218:64,1,119.999996337891,6|0,0:2|0:0,0:0:0:0:
510,244,46233,2,0,L|389:226,1,119.999996337891,10|0,0:2|0:0,0:0:0:0:
30,297,46533,1,2,0:2:0:0:
237,376,46683,1,0,0:0:0:0:
237,376,46758,1,0,0:0:0:0:
237,376,46833,2,0,P|256:320|257:245,1,119.999996337891,10|0,0:2|0:0,0:0:0:0:
268,5,47133,5,10,0:2:0:0:
159,201,47283,1,2,0:2:0:0:
29,33,47433,1,10,0:2:0:0:
0,132,47583,2,0,L|119:119,1,119.999996337891,10|0,0:2|0:0,0:0:0:0:
480,40,47883,1,2,0:2:0:0:
412,201,48033,1,8,0:0:0:0:
318,38,48183,1,10,0:2:0:0:
237,164,48333,6,0,P|182:113|268:40,1,200,14|0,0:0|0:0,0:0:0:0:
351,105,48783,2,0,L|233:101,1,100,2|0,0:2|0:0,0:0:0:0:
408,255,49083,2,0,L|526:259,1,100,2|2,0:2|0:0,0:0:0:0:
387,329,49383,2,0,P|329:256|382:180,1,200,2|0,0:2|0:0,0:0:0:0:
512,126,49833,1,2,0:0:0:0:
382,179,49983,6,0,P|356:171|336:156,1,50,2|0,0:0|0:0,0:0:0:0:
264,163,50133,2,0,P|260:136|267:109,1,50,2|0,0:0|0:0,0:0:0:0:
214,54,50283,2,0,P|236:34|276:27,1,50,2|0,0:0|0:0,0:0:0:0:
417,0,50433,2,0,P|432:84|395:149,1,150,6|0,0:0|0:0,0:0:0:0:
382,179,50733,5,6,0:0:0:0:
511,227,50883,1,0,0:0:0:0:
334,220,51033,1,2,0:3:0:0:
358,356,51183,1,2,0:0:0:0:
161,287,51333,1,0,0:0:0:0:
246,113,51483,1,2,0:0:0:0:
450,306,51633,1,2,0:3:0:0:
258,379,51783,5,2,0:0:0:0:
258,379,51858,1,0,0:0:0:0:
258,379,51933,2,0,L|252:260,1,100,2|0,0:2|0:0,0:0:0:0:
334,220,52158,1,0,0:0:0:0:
334,220,52233,2,0,P|347:274|332:337,1,100,2|0,0:3|0:0,0:0:0:0:
173,330,52458,1,0,0:0:0:0:
173,330,52533,2,0,P|160:276|175:213,1,100,2|0,0:2|0:0,0:0:0:0:
254,30,52833,1,2,0:3:0:0:
301,140,52983,5,2,0:0:0:0:
301,140,53058,1,0,0:0:0:0:
301,140,53133,2,0,P|253:147|195:145,1,100,6|0,0:0|0:0,0:0:0:0:
28,97,53433,6,0,L|29:161,1,50,2|0,0:3|0:0,0:0:0:0:
114,189,53583,2,0,L|113:125,1,50,2|0,0:0|0:0,0:0:0:0:
112,37,53733,1,2,0:3:0:0:
0,228,53883,1,2,0:0:0:0:
0,228,53958,1,0,0:0:0:0:
0,228,54033,1,2,0:0:0:0:
168,270,54183,6,0,P|153:297|135:315,1,50
79,377,54333,1,2,0:3:0:0:
65,227,54483,6,0,P|92:242|110:260,1,50
199,339,54633,1,2,0:3:0:0:
24,333,54783,6,0,P|39:306|57:288,1,50
139,188,54933,1,6,0:3:0:0:
266,382,55083,1,10,0:0:0:0:
374,174,55233,1,14,2:0:0:0:
512,288,55383,5,10,0:0:0:0:
512,288,55458,1,0,0:0:0:0:
512,288,55533,2,0,P|454:294|411:291,1,100,6|0,0:0|0:0,0:0:0:0:
250,78,55833,6,0,L|253:136,1,50,2|0,0:3|0:0,0:0:0:0:
232,190,55983,2,0,P|251:189|297:178,1,50,2|0,0:0|0:0,0:0:0:0:
268,14,56133,2,0,P|249:15|203:26,1,50,2|0,0:3|0:0,0:0:0:0:
157,47,56283,1,10,0:0:0:0:
343,160,56433,1,0,0:0:0:0:
184,248,56583,5,6,0:0:0:0:
159,210,56658,1,0,0:0:0:0:
164,165,56733,1,2,0:3:0:0:
385,104,56883,1,6,0:0:0:0:
410,142,56958,1,0,0:0:0:0:
405,187,57033,1,2,0:3:0:0:
307,315,57183,2,0,L|297:266,1,50,6|0,0:0|0:0,0:0:0:0:
281,183,57333,1,2,0:3:0:0:
420,267,57483,1,2,0:0:0:0:
192,320,57633,6,0,L|250:325,1,50,2|0,0:0|0:0,0:0:0:0:
436,341,57783,2,0,L|384:354,1,50,2|0,0:0|0:0,0:0:0:0:
320,382,57933,5,10,0:0:0:0:
281,183,58083,1,2,0:0:0:0:
192,320,58233,1,2,0:3:0:0:
420,267,58383,2,0,P|473:255|516:230,1,100,14|0,0:2|0:0,0:0:0:0:
192,320,58683,2,0,P|125:325|69:314,1,100,14|2,0:2|0:3,0:0:0:0:
261,4,58983,1,6,0:0:0:0:
261,4,59058,1,0,0:0:0:0:
261,4,59133,2,0,L|274:124,1,100,6|0,0:0|0:0,0:0:0:0:
276,137,59358,1,0,0:0:0:0:
277,146,59433,1,0,0:0:0:0:
279,155,59508,1,0,0:0:0:0:
281,164,59583,6,0,L|288:224,1,50,2|0,0:0|0:0,0:0:0:0:
381,281,59733,2,0,L|325:257,1,50,2|0,0:0|0:0,0:0:0:0:
176,212,59883,2,0,L|255:227,1,50,2|0,0:0|0:0,0:0:0:0:
396,181,60033,2,0,L|342:205,1,50,2|0,0:0|0:0,0:0:0:0:
218,306,60183,2,0,L|258:276,1,50,2|0,0:0|0:0,0:0:0:0:
