osu file format v14

[General]
AudioFilename: audio.mp3
AudioLeadIn: 0
PreviewTime:30858
Countdown: 0
SampleSet: Soft
StackLeniency: 0.3
Mode: 0
LetterboxInBreaks: 0
WidescreenStoryboard: 1

[Editor]
DistanceSpacing: 0.5
BeatDivisor: 8
GridSize: 32
TimelineZoom: 5.499997

[Metadata]
Title:Kuuchuu Bunkai
TitleUnicode:空中分解
Artist:Three
ArtistUnicode:すりぃ
Creator:Ryuusei Aika
Version:AncuL's Insane
Source:
Tags:Collage Japanese Rock J-Rock JRock Male Vocal Surii ボーカロイド ボカロ VOCALOID 鏡音レン Kagamine Len 真ひろ まめでん ま子 Akitoshi Ujimatcha -ClariS- Yorita Yoshino Yorita_Yoshino Dored Yugu Skyflame Cami wyrio Firika AncuL -Eriri- Laura -Laura- Corinn -Mikan Mikan Bazz Bazz_B X Light X_Light XLT Reform Kujinn Seto Kousuke Seto_Kousuke Djulus -MikanMyMommy gary00737 HabiHolic Haruto Haruto_Aizawa Armin A_r_M_i_N Agatsu Garden kanor Error- -Keitaro SnowNiNo_ Sylas TheKoala CoLouRed GlaZeE CoLouRed_GlaZeE caren_sk CRN
BeatmapID:2041893
BeatmapSetID:952132

[Difficulty]
HPDrainRate:6.5
CircleSize:4.3
OverallDifficulty:8
ApproachRate:8.7
SliderMultiplier:1.6
SliderTickRate:1

[Events]
//Background and Video events
Video,3,"video.mp4"
0,0,"BG.jpg",0,0
//Break Periods
//Storyboard Layer 0 (Background)
//Storyboard Layer 1 (Fail)
//Storyboard Layer 2 (Pass)
//Storyboard Layer 3 (Foreground)
//Storyboard Layer 4 (Overlay)
//Storyboard Sound Samples

[TimingPoints]
333,300,4,2,1,55,1,0
483,-100,4,2,1,5,0,0
558,-100,4,2,1,55,0,0
708,-100,4,2,1,5,0,0
783,-80,4,2,1,55,0,0
1233,-76.9230769230769,4,2,1,99,0,0
1458,-76.9230769230769,4,2,1,5,0,0
1533,-100,4,2,1,77,0,0
11133,-153.846153846154,4,2,1,77,0,0
11433,-153.846153846154,4,2,0,44,0,0
15483,-100,4,2,1,66,0,0
15933,-142.857142857143,4,2,1,66,0,0
16233,-142.857142857143,4,2,1,55,0,0
20283,-111.111111111111,4,2,1,77,0,0
20733,-111.111111111111,4,2,1,66,0,0
30333,-200,4,2,88,55,0,0
30483,-200,4,2,88,55,0,0
30933,-100,4,2,88,77,0,0
31533,-100,4,2,1,99,0,0
38733,-100,4,2,1,99,0,0
39783,-83.3333333333333,4,2,1,99,0,0
39933,-83.3333333333333,4,2,1,88,0,0
40083,-83.3333333333333,4,2,1,99,0,0
41133,-83.3333333333333,4,2,1,99,0,0
41283,-83.3333333333333,4,2,1,99,0,0
47883,-100,4,2,1,99,0,0
48333,-100,4,2,99,99,0,0
48633,-133.333333333333,4,2,1,77,0,0
49383,-74.0740740740741,4,2,1,77,0,0
49983,-100,4,2,1,77,0,0
50133,-100,4,2,1,88,0,0
50733,-100,4,2,1,77,0,0
51183,-100,4,2,1,77,0,0
52083,-66.6666666666667,4,2,1,77,0,0
52533,-100,4,2,1,77,0,0
53583,-33.3333333333333,4,2,1,77,0,0
53883,-100,4,2,1,77,0,0
55608,-100,4,2,1,5,0,0
55833,-33.3333333333333,4,2,1,77,0,0
56283,-100,4,2,1,77,0,0
56883,-33.3333333333333,4,2,1,77,0,0
57183,-66.6666666666667,4,2,1,77,0,0
57633,-83.3333333333333,4,2,1,77,0,0
57933,-100,4,2,1,77,0,0
58533,-33.3333333333333,4,2,1,77,0,0
58833,-100,4,2,1,77,0,0
59133,-80,4,2,1,77,0,0

[Colours]
Combo1 : 255,120,55
Combo2 : 0,49,98
Combo3 : 128,64,64

[HitObjects]
165,360,333,6,0,P|169:321|200:297,1,80,8|0,2:0|0:0,0:0:0:0:
311,357,558,2,0,P|275:372|239:357,1,80,8|0,2:0|0:0,0:0:0:0:
238,234,783,2,0,B|258:242|287:245|287:245|274:272|271:292,1,100,8|8,2:0|2:0,0:0:0:0:
271,291,1233,6,2,L|249:123,1,155.999992858887,2|0,0:0|0:0,3:3:0:0:
283,67,1533,6,0,P|320:53|364:45,1,80,4|0,1:0|0:0,0:0:0:0:
359,45,1758,1,0,0:0:0:0:
359,45,1833,1,2,3:0:0:0:
473,137,1983,2,0,L|522:146,2,40,0|0|0,0:0|0:0|1:0,0:0:0:0:
410,185,2283,2,0,B|369:199|387:214|337:224,1,80,0|2,0:0|3:0,0:0:0:0:
214,93,2583,6,0,P|188:42|88:36,1,160,2|0,0:1|0:0,0:0:0:0:
19,3,3033,2,0,P|16:46|3:82,1,80,2|0,3:0|0:0,0:0:0:0:
126,186,3333,1,0,1:0:0:0:
137,104,3483,2,0,P|124:141|121:181,1,80,0|2,0:0|3:0,0:0:0:0:
47,205,3708,2,0,P|58:231|75:247,1,40
233,240,3933,6,0,P|222:278|194:306,1,80,0|0,1:0|0:0,0:0:0:0:
194,306,4158,1,0,0:0:0:0:
194,306,4233,2,0,L|114:305,1,80,2|0,3:0|0:0,0:0:0:0:
344,384,4533,1,0,1:0:0:0:
432,365,4683,2,0,L|512:364,1,80,0|2,0:0|3:0,0:0:0:0:
330,278,4983,6,0,P|307:230|360:137,1,160,2|0,0:1|0:0,0:0:0:0:
287,72,5433,1,2,3:0:0:0:
336,12,5583,1,0,0:0:0:0:
412,41,5733,1,0,1:0:0:0:
488,0,5883,5,0,0:0:0:0:
388,84,6033,1,8,3:0:0:0:
265,31,6183,1,8,0:0:0:0:
192,84,6333,6,0,P|190:132|186:167,1,80,4|0,1:0|0:0,0:0:0:0:
186,163,6558,1,0,0:0:0:0:
186,163,6633,1,2,3:0:0:0:
80,191,6783,2,0,L|29:181,2,40,0|0|0,0:0|0:0|1:0,0:0:0:0:
137,248,7083,2,0,B|184:255|164:273|212:281,1,80,0|2,0:0|3:0,0:0:0:0:
8,384,7383,6,0,P|-12:335|79:279,1,160,2|0,0:1|0:0,0:0:0:0:
91,179,7833,2,0,P|90:137|85:89,1,80,2|0,3:0|0:0,0:0:0:0:
170,282,8133,1,0,1:0:0:0:
235,333,8283,2,0,P|277:332|320:317,1,80,0|2,0:0|3:0,0:0:0:0:
360,377,8508,2,0,P|378:362|386:342,1,40
252,152,8733,6,0,P|279:194|304:210,1,80,0|0,1:0|0:0,0:0:0:0:
303,209,8958,1,0,0:0:0:0:
303,209,9033,1,2,3:0:0:0:
492,172,9183,1,0,0:0:0:0:
428,122,9333,1,0,1:0:0:0:
428,122,9483,2,0,L|348:139,1,80,0|2,0:0|3:0,0:0:0:0:
208,57,9783,5,2,0:0:0:0:
136,24,9933,2,0,L|54:13,1,80,2|2,3:0|0:0,0:0:0:0:
229,173,10233,2,0,L|248:265,1,80,2|2,3:0|0:0,0:0:0:0:
286,25,10533,1,2,3:0:0:0:
286,25,10608,2,0,L|331:9,1,40,0|2,0:0|3:0,0:0:0:0:
208,57,10833,2,0,L|235:18,1,40,8|8,0:0|0:0,0:0:0:0:
371,41,10983,2,0,L|417:53,2,40,8|8|8,0:0|0:0|0:0,0:0:0:0:
371,41,11433,5,8,0:0:0:0:
310,60,12033,1,8,0:0:0:0:
273,112,12633,1,8,0:0:0:0:
274,176,13233,1,8,0:0:0:0:
313,226,13833,1,8,0:0:0:0:
375,243,14433,1,8,0:0:0:0:
434,220,15033,1,8,0:0:0:0:
372,179,15333,1,2,0:0:0:0:
434,220,15483,5,8,0:0:0:0:
313,226,15633,1,8,0:0:0:0:
273,112,15783,1,8,0:0:0:0:
371,41,15933,1,12,0:0:0:0:
468,148,16233,6,0,L|427:144,1,27.9999991455078,2|0,0:0|0:0,0:0:0:0:
429,147,16383,1,2,0:0:0:0:
463,157,16683,2,0,L|422:153,1,27.9999991455078,2|0,0:0|0:0,0:0:0:0:
424,156,16833,1,2,0:0:0:0:
212,373,17133,6,0,L|218:338,1,27.9999991455078,0|0,1:0|0:0,0:0:0:0:
269,333,17283,2,0,L|277:300,1,27.9999991455078,2|0,0:0|0:0,0:0:0:0:
308,305,17433,2,0,L|321:275,1,27.9999991455078,2|0,0:0|0:0,0:0:0:0:
343,293,17583,1,2,0:0:0:0:
457,166,17883,2,0,L|416:162,1,27.9999991455078,2|0,0:0|0:0,0:0:0:0:
418,165,18033,1,2,0:0:0:0:
194,26,18333,6,0,L|200:61,1,27.9999991455078,0|0,1:0|0:0,0:0:0:0:
251,66,18483,2,0,L|259:99,1,27.9999991455078
290,94,18633,2,0,L|303:124,1,27.9999991455078,2|0,0:0|0:0,0:0:0:0:
325,106,18783,1,2,0:0:0:0:
450,174,19083,2,0,L|409:170,1,27.9999991455078,2|0,0:0|0:0,0:0:0:0:
411,173,19233,1,2,0:0:0:0:
153,87,19533,6,0,L|159:122,1,27.9999991455078,0|0,1:0|0:0,0:0:0:0:
210,127,19683,2,0,L|218:160,1,27.9999991455078
249,155,19833,2,0,L|262:185,1,27.9999991455078,2|0,0:0|0:0,0:0:0:0:
284,167,19983,1,2,0:0:0:0:
29,328,20283,5,8,0:0:0:0:
124,271,20433,1,8,0:0:0:0:
238,253,20583,1,8,0:0:0:0:
350,273,20733,1,0,1:0:0:0:
346,231,21033,6,0,P|336:266|326:317,1,71.9999978027344,8|0,0:0|0:0,0:0:0:0:
512,350,21333,1,0,1:0:0:0:
445,322,21483,2,0,B|369:328|401:370|317:378,1,143.999995605469,0|0,1:0|0:0,0:0:0:0:
168,369,21933,1,0,1:0:0:0:
193,265,22083,1,0,0:0:0:0:
243,332,22233,1,8,0:0:0:0:
99,292,22383,2,0,P|106:250|107:211,1,71.9999978027344,8|0,0:0|0:0,0:0:0:0:
146,72,22683,1,0,1:0:0:0:
81,27,22833,2,0,P|43:27|4:16,1,71.9999978027344,8|0,0:0|0:0,0:0:0:0:
218,39,23133,5,0,1:0:0:0:
218,39,23283,1,0,0:0:0:0:
221,121,23433,1,8,0:0:0:0:
282,79,23583,1,0,0:0:0:0:
336,185,23733,5,0,1:0:0:0:
472,225,23883,1,0,1:0:0:0:
435,165,24033,1,8,0:0:0:0:
477,0,24183,5,0,0:0:0:0:
478,86,24333,1,0,1:0:0:0:
429,157,24483,1,0,1:0:0:0:
340,180,24633,1,8,0:0:0:0:
397,230,24783,2,0,P|367:197|332:189,1,71.9999978027344,8|0,0:0|0:0,0:0:0:0:
414,358,25083,2,0,L|492:383,1,71.9999978027344,0|8,1:0|1:2,0:0:0:0:
113,305,25533,5,4,1:0:0:0:
101,289,25683,1,0,0:0:0:0:
211,263,25833,1,8,0:0:0:0:
202,281,25983,1,0,0:0:0:0:
127,200,26133,1,0,1:0:0:0:
146,197,26283,1,0,0:0:0:0:
151,253,26433,1,8,0:0:0:0:
151,253,26583,1,0,0:0:0:0:
227,196,26733,5,0,1:0:0:0:
160,160,26883,1,0,0:0:0:0:
57,233,27033,1,8,0:0:0:0:
66,303,27183,1,8,0:0:0:0:
165,354,27333,1,0,1:0:0:0:
228,307,27483,1,0,1:0:0:0:
158,345,27633,1,8,0:0:0:0:
234,315,27783,1,0,0:0:0:0:
151,271,27933,6,0,P|110:275|74:282,1,71.9999978027344,0|0,1:0|0:0,0:0:0:0:
272,193,28233,2,0,P|313:189|349:182,1,71.9999978027344,8|0,0:0|0:0,0:0:0:0:
138,192,28533,1,0,1:0:0:0:
138,192,28683,1,0,0:0:0:0:
268,121,28833,1,8,0:0:0:0:
268,121,28983,1,0,0:0:0:0:
222,33,29133,5,0,1:0:0:0:
152,16,29283,1,0,1:0:0:0:
105,100,29433,5,8,0:0:0:0:
24,79,29583,1,8,0:0:0:0:
34,181,29733,1,0,0:0:0:0:
24,88,29883,5,0,1:0:0:0:
99,106,30033,1,8,0:0:0:0:
233,137,30183,1,8,0:0:0:0:
510,219,30483,6,0,P|504:261|499:300,1,80
494,213,30933,6,0,P|497:169|510:130,1,80,8|0,1:0|0:0,0:0:0:0:
431,270,31158,2,0,P|421:291|410:352,1,80,8|0,1:0|0:0,0:0:0:0:
416,192,31383,2,0,P|404:181|383:151,1,40,8|0,1:0|0:0,0:0:0:0:
363,70,31533,6,0,P|315:65|280:63,1,80,4|0,1:0|0:0,0:0:0:0:
248,196,31833,2,0,P|200:191|163:189,1,80,2|0,3:0|0:0,0:0:0:0:
88,136,32133,1,0,1:0:0:0:
88,136,32283,1,0,0:0:0:0:
160,195,32433,1,2,3:0:0:0:
134,273,32583,1,0,3:0:0:0:
185,224,32733,5,0,1:0:0:0:
63,254,32883,1,0,0:0:0:0:
90,374,33033,1,2,3:0:0:0:
220,349,33183,2,0,P|290:347|379:377,1,160,0|0,1:0|1:0,0:0:0:0:
301,328,33633,2,0,P|275:298|269:256,2,80,2|0|0,3:0|0:0|1:0,0:0:0:0:
446,47,34233,6,0,P|463:22|519:5,1,80,2|0,3:0|0:0,0:0:0:0:
367,152,34533,2,0,P|351:109|360:70,1,80,0|0,1:0|0:0,0:0:0:0:
479,123,34833,1,2,3:0:0:0:
330,88,34983,2,0,P|235:70|165:71,1,160
69,121,35433,1,2,3:0:0:0:
167,63,35583,1,0,1:0:0:0:
238,55,35733,1,0,1:0:0:0:
166,168,35883,1,8,1:2:0:0:
248,54,36033,2,0,P|289:31|331:25,1,80,8|0,1:2|1:0,0:0:0:0:
211,238,36333,6,0,P|207:288|202:320,1,80,4|0,1:0|0:0,0:0:0:0:
8,304,36633,2,0,P|4:354|-1:386,1,80,2|0,3:0|0:0,0:0:0:0:
208,326,36933,1,0,1:0:0:0:
208,326,37083,1,0,3:0:0:0:
93,362,37233,1,2,3:0:0:0:
160,381,37383,1,0,0:0:0:0:
280,304,37533,1,0,1:0:0:0:
230,209,37683,2,0,P|190:212|150:217,1,80,0|2,3:0|3:0,0:0:0:0:
341,139,37983,2,0,P|387:148|406:257,1,160,0|0,1:0|1:0,0:0:0:0:
356,299,38433,1,8,1:2:0:0:
342,227,38583,1,8,1:2:0:0:
143,192,38733,5,6,1:0:0:0:
160,104,38883,2,0,P|146:139|138:189,1,80,0|0,1:0|1:0,0:0:0:0:
0,64,39183,2,0,P|61:15|139:0,2,160,2|2|6,1:0|1:0|1:0,0:0:0:0:
0,65,39933,1,0,0:0:0:0:
0,58,40083,1,2,1:0:0:0:
91,24,40233,1,0,3:0:0:0:
184,26,40383,2,0,P|210:29|238:37,2,47.9999985351563,2|0|0,3:1|3:0|3:0,0:0:0:0:
2,159,40683,2,0,P|-1:173|13:159,2,47.9999985351563,2|2|2,3:0|3:0|3:0,0:0:0:0:
210,110,40983,1,8,0:0:0:0:
210,110,41058,2,0,P|226:117|248:140,1,47.9999985351563,8|4,0:0|1:0,0:0:0:0:
512,0,41433,6,0,P|510:30|484:95,1,95.9999970703126,2|0,3:0|0:0,0:0:0:0:
409,128,41733,1,0,1:0:0:0:
409,128,41883,1,0,0:0:0:0:
484,95,42033,1,2,3:0:0:0:
505,165,42183,1,0,0:0:0:0:
333,87,42333,1,0,1:0:0:0:
314,16,42483,1,0,0:0:0:0:
323,95,42633,1,2,3:0:0:0:
247,159,42783,2,0,P|264:232|270:357,1,191.999994140625,0|0,1:0|1:0,0:0:0:0:
343,290,43233,1,2,3:0:0:0:
343,290,43383,1,0,1:0:0:0:
350,373,43533,5,4,1:2:0:0:
275,353,43683,1,0,0:0:0:0:
411,242,43833,1,2,3:0:0:0:
431,317,43983,1,0,0:0:0:0:
251,240,44133,1,0,1:0:0:0:
321,198,44283,1,0,1:0:0:0:
236,197,44433,1,2,3:0:0:0:
314,196,44583,6,0,B|206:211|253:256|140:275,1,191.999994140625,2|0,0:0|1:0,0:0:0:0:
41,220,45033,1,2,3:0:0:0:
141,282,45183,1,0,1:0:0:0:
158,352,45333,1,0,1:0:0:0:
119,292,45483,1,8,1:2:0:0:
121,157,45633,1,8,1:2:0:0:
234,91,45783,1,0,1:0:0:0:
251,0,45933,6,0,B|257:53|235:41|246:100,1,95.9999970703126,4|0,1:0|0:0,0:0:0:0:
52,24,46233,2,0,B|58:77|36:65|47:124,1,95.9999970703126,2|0,3:0|0:0,0:0:0:0:
130,78,46533,1,0,1:0:0:0:
313,127,46683,1,0,1:0:0:0:
176,169,46833,1,2,3:0:0:0:
161,233,46983,1,0,0:0:0:0:
196,165,47133,5,0,1:0:0:0:
315,212,47283,1,0,1:0:0:0:
422,138,47433,1,2,3:0:0:0:
507,184,47583,2,0,L|303:169,1,191.999994140625,0|0,1:0|1:0,0:0:0:0:
487,205,48033,2,0,P|453:216|409:246,1,80,8|8,0:0|0:0,0:0:0:0:
255,18,48333,1,12,1:0:0:0:
260,22,48633,5,2,0:0:0:0:
210,77,48783,2,0,P|201:131|209:204,1,120.000004577637,2|2,0:0|0:0,0:0:0:0:
304,9,49383,2,0,P|252:48|214:192,1,216.000000823975,2|2,0:0|0:0,0:0:0:0:
269,60,49833,2,0,P|303:26|362:5,1,108.000000411987,2|2,0:0|3:0,0:0:0:0:
372,19,50058,1,2,3:0:0:0:
382,32,50133,6,0,L|426:36,1,40,8|8,0:0|0:0,0:0:0:0:
324,110,50283,2,0,L|317:155,1,40,8|8,0:0|0:0,0:0:0:0:
416,129,50433,1,8,0:0:0:0:
318,384,50733,6,0,P|300:356|258:331,1,80,4|0,1:0|0:0,0:0:0:0:
223,347,50958,1,0,0:0:0:0:
223,347,51033,2,0,P|177:346|137:358,1,80,2|0,3:0|0:0,0:0:0:0:
106,295,51258,2,0,P|84:309|76:322,1,40,2|0,0:0|1:0,0:0:0:0:
260,260,51483,2,0,P|305:260|346:249,1,80,0|2,0:0|3:0,0:0:0:0:
402,51,51783,6,0,P|362:40|300:82,1,120,2|0,0:1|0:0,0:0:0:0:
305,94,52083,2,0,P|306:106|308:133,4,30.0000011444092,0|0|0|0|2,0:0|0:0|0:0|0:0|3:0,0:0:0:0:
131,67,52383,1,0,0:0:0:0:
80,8,52533,2,0,P|40:7|1:1,1,80,0|2,1:0|0:0,0:0:0:0:
138,145,52833,2,0,P|131:161|124:183,2,40,2|0|2,3:0|0:0|0:0,0:0:0:0:
202,29,53133,6,0,P|238:16|278:7,1,80,4|0,1:0|0:0,0:0:0:0:
278,8,53358,1,0,0:0:0:0:
278,8,53433,1,2,3:0:0:0:
382,90,53583,2,0,P|397:73|394:97,4,60.0000022888184,2|0|2|0|0,0:0|0:0|0:0|0:0|1:0,0:0:0:0:
496,49,53883,2,0,P|503:32|514:11,2,40,0|0|2,0:0|0:0|3:0,0:0:0:0:
352,159,54183,6,0,P|322:204|224:194,1,160,2|0,0:1|0:0,0:0:0:0:
191,288,54633,1,2,3:0:0:0:
113,264,54783,1,0,0:0:0:0:
54,327,54933,1,0,1:0:0:0:
13,306,55083,5,0,0:0:0:0:
134,373,55233,1,8,0:0:0:0:
256,276,55383,1,8,0:0:0:0:
315,335,55533,2,0,P|337:340|354:347,1,40,0|0,1:0|0:0,0:0:0:0:
512,180,55833,5,2,3:0:0:0:
431,218,55983,2,0,P|412:204|436:205,4,60.0000022888184,2|0|2|0|0,0:0|0:0|0:0|0:0|1:0,0:0:0:0:
341,148,56283,2,0,P|306:131|262:121,1,80,0|2,0:0|3:0,0:0:0:0:
75,19,56583,2,0,B|88:4|114:5|114:5|95:12|81:26,1,80,2|0,0:1|1:0,0:0:0:0:
263,30,56883,6,0,P|270:49|256:32,4,60.0000022888184,2|0|2|0|2,0:0|0:0|0:0|0:0|3:0,0:0:0:0:
149,105,57183,6,0,P|139:85|141:107,1,60.0000022888184,2|2,0:0|0:0,0:0:0:0:
10,64,57333,1,0,1:0:0:0:
143,97,57483,1,2,0:0:0:0:
17,66,57633,6,0,P|42:81|53:97,1,47.9999985351563,0|0,1:0|1:0,0:0:0:0:
131,98,57783,2,0,P|101:98|83:107,1,47.9999985351563,0|0,1:0|1:0,0:0:0:0:
51,168,57933,6,0,P|58:219|157:237,1,160,4|2,1:0|3:0,0:0:0:0:
47,309,58383,1,0,0:0:0:0:
182,173,58533,2,0,P|201:156|205:181,4,60.0000022888184,2|0|2|0|0,1:2|0:0|0:0|0:0|0:0,0:0:0:0:
153,253,58833,2,0,P|140:288|147:341,1,80,2|0,3:0|0:0,0:0:0:0:
324,190,59133,6,0,B|355:184|355:184|361:185|361:185|357:182|357:182|354:187|354:187|361:183|361:183|378:181|378:181|382:182|382:182|379:178|379:178|376:182|376:182|405:177|405:177|406:180|406:180|405:175|405:175|402:179|402:179|409:177|409:177|435:173|435:173|433:170|433:170|432:176|432:176|438:172|438:172|458:169,1,200,2|0,3:2|0:0,0:0:0:0:
402,209,59583,6,0,P|426:223|439:242,1,50,2|2,3:0|3:0,0:0:0:0:
476,326,59733,2,0,P|462:350|443:363,1,50,2|2,3:0|3:0,0:0:0:0:
459,252,59883,2,0,P|466:278|461:301,1,50,2|2,3:0|3:0,0:0:0:0:
435,375,60033,6,0,L|376:366,1,50,8|8,0:0|0:0,0:0:0:0:
293,380,60183,2,0,L|234:371,1,50,8|8,0:0|0:0,0:0:0:0:
