osu file format v14

[General]
AudioFilename: audio.mp3
AudioLeadIn: 0
PreviewTime:30858
Countdown: 0
SampleSet: Soft
StackLeniency: 0.7
Mode: 0
LetterboxInBreaks: 0
WidescreenStoryboard: 1

[Editor]
DistanceSpacing: 1
BeatDivisor: 4
GridSize: 16
TimelineZoom: 0.9999992

[Metadata]
Title:Kuuchuu Bunkai
TitleUnicode:空中分解
Artist:Three
ArtistUnicode:すりぃ
Creator:Ryuusei Aika
Version:Akitoshi's Normal
Source:
Tags:Collage Japanese Rock J-Rock JRock Male Vocal Surii ボーカロイド ボカロ VOCALOID 鏡音レン Kagamine Len 真ひろ まめでん ま子 Akitoshi Ujimatcha -ClariS- Yorita Yoshino Yorita_Yoshino Dored Yugu Skyflame Cami wyrio Firika AncuL -Eriri- Laura -Laura- Corinn -Mikan Mikan Bazz Bazz_B X Light X_Light XLT Reform Kujinn Seto Kousuke Seto_Kousuke Djulus -MikanMyMommy gary00737 HabiHolic Haruto Haruto_Aizawa Armin A_r_M_i_N Agatsu Garden kanor Error- -Keitaro SnowNiNo_ Sylas TheKoala CoLouRed GlaZeE CoLouRed_GlaZeE caren_sk CRN
BeatmapID:1988513
BeatmapSetID:952132

[Difficulty]
HPDrainRate:4
CircleSize:3.2
OverallDifficulty:4
ApproachRate:5
SliderMultiplier:0.999999999999999
SliderTickRate:1

[Events]
//Background and Video events
Video,3,"video.mp4"
0,0,"BG.jpg",0,0
//Break Periods
//Storyboard Layer 0 (Background)
//Storyboard Layer 1 (Fail)
//Storyboard Layer 2 (Pass)
//Storyboard Layer 3 (Foreground)
//Storyboard Layer 4 (Overlay)
//Storyboard Sound Samples

[TimingPoints]
333,300,4,2,1,55,1,0
1233,-100,4,2,1,99,0,0
1458,-100,4,2,1,5,0,0
1533,-100,4,2,1,77,0,0
9933,-100,4,2,1,77,0,0
11133,-100,4,2,1,77,0,0
11433,-111.111111111111,4,2,1,44,0,0
15483,-100,4,2,1,66,0,0
15933,-100,4,2,1,55,0,0
19533,-100,4,2,1,55,0,0
20283,-100,4,2,1,77,0,0
20733,-100,4,2,1,66,0,0
30333,-100,4,2,88,55,0,0
30933,-100,4,2,88,77,0,0
31383,-100,4,2,88,77,0,0
31533,-95.2380952380952,4,2,1,99,0,1
38733,-95.2380952380952,4,2,1,88,0,1
41133,-95.2380952380952,4,2,1,99,0,1
47883,-95.2380952380952,4,2,1,99,0,1
48333,-100,4,2,99,99,0,0
49983,-100,4,2,1,66,0,0
50133,-100,4,2,1,88,0,0
50733,-100,4,2,1,77,0,0
55833,-100,4,2,1,77,0,0
56208,-100,4,2,1,77,0,0
57333,-100,4,2,1,77,0,0
57933,-100,4,2,1,77,0,0

[Colours]
Combo1 : 255,120,55
Combo2 : 0,49,98
Combo3 : 128,64,64

[HitObjects]
98,141,1533,6,0,L|108:258,1,99.9999999999999,4|2,1:0|3:0,0:0:0:0:
160,324,2133,2,0,P|232:303|273:312,1,99.9999999999999,0|2,1:0|3:0,0:0:0:0:
303,320,2583,2,0,P|324:248|315:207,1,99.9999999999999
313,175,3033,1,2,3:0:0:0:
246,100,3333,2,0,L|179:106,2,50,0|0|2,1:0|0:0|3:0,0:0:0:0:
332,48,3933,6,0,L|441:54,1,99.9999999999999,0|2,1:0|3:0,0:0:0:0:
486,137,4533,2,0,P|499:202|484:249,1,99.9999999999999,0|2,1:0|3:0,0:0:0:0:
459,272,4983,2,0,P|394:259|347:274,1,99.9999999999999
315,286,5433,1,2,3:0:0:0:
229,338,5733,2,0,L|161:333,1,50,0|0,1:0|0:0,0:0:0:0:
129,331,6033,1,8,3:2:0:0:
55,263,6333,6,0,P|47:206|62:158,1,99.9999999999999,4|2,1:0|3:0,0:0:0:0:
131,97,6933,2,0,P|179:108|228:100,1,99.9999999999999,0|2,1:0|3:0,0:0:0:0:
274,81,7383,2,0,L|265:195,1,99.9999999999999
260,230,7833,1,2,3:0:0:0:
181,291,8133,2,0,L|113:282,2,50,0|0|2,1:0|0:0|3:0,0:0:0:0:
248,365,8733,6,0,P|301:356|365:347,1,99.9999999999999,0|2,1:0|3:0,0:0:0:0:
444,325,9333,2,0,P|456:271|444:216,1,99.9999999999999,0|2,1:0|3:0,0:0:0:0:
416,189,9783,2,0,P|404:135|416:80,1,99.9999999999999,0|2,0:0|0:0,0:0:0:0:
426,43,10233,1,2,3:0:0:0:
328,19,10533,2,0,L|258:25,1,50,2|2,3:0|3:0,0:0:0:0:
235,49,10833,2,0,L|165:43,1,50,8|8,0:0|0:0,0:0:0:0:
140,37,11133,5,8,0:0:0:0:
62,82,11433,2,0,L|83:265,1,179.999994506836,8|8,0:0|0:0,0:0:0:0:
215,380,12633,2,0,L|235:201,1,179.999994506836,8|8,0:0|0:0,0:0:0:0:
321,43,13833,6,0,P|404:22|490:61,2,179.999994506836,8|8|8,0:0|0:0|0:0,0:0:0:0:
244,90,15333,1,0,0:0:0:0:
244,90,15483,2,0,L|175:82,2,50,8|8|8,0:0|0:0|0:0,0:0:0:0:
281,123,15933,6,0,L|271:231,1,99.9999999999999,12|2,0:0|0:0,0:0:0:0:
258,321,16533,1,0,1:0:0:0:
166,362,16833,1,2,0:0:0:0:
69,337,17133,2,0,P|55:302|60:235,1,99.9999999999999,0|2,1:0|0:0,0:0:0:0:
93,147,17733,1,0,1:0:0:0:
182,101,18033,2,0,L|239:111,1,50,2|2,0:0|0:0,0:0:0:0:
280,117,18333,6,0,L|274:235,2,99.9999999999999,0|2|0,1:0|0:0|1:0,0:0:0:0:
346,42,19233,1,2,0:0:0:0:
442,66,19533,2,0,P|464:118|461:172,1,99.9999999999999,0|2,1:0|0:0,0:0:0:0:
407,244,20133,1,0,1:0:0:0:
407,244,20283,2,0,L|416:309,2,50,8|8|8,0:0|0:0|0:0,0:0:0:0:
374,206,20733,6,0,P|322:211|263:218,1,99.9999999999999,0|8,1:0|0:0,0:0:0:0:
208,291,21333,2,0,P|156:286|97:279,1,99.9999999999999,0|8,1:0|0:0,0:0:0:0:
22,230,21933,2,0,P|13:180|35:120,1,99.9999999999999,0|8,1:0|0:0,0:0:0:0:
53,91,22383,2,0,P|100:104|149:95,1,99.9999999999999,8|0,0:0|1:0,0:0:0:0:
195,73,22833,1,8,0:0:0:0:
255,152,23133,6,0,L|243:275,1,99.9999999999999,0|8,1:0|0:0,0:0:0:0:
233,350,23733,1,0,1:0:0:0:
327,382,24033,1,8,0:0:0:0:
419,342,24333,2,0,P|430:291|420:244,1,99.9999999999999,0|8,1:0|0:0,0:0:0:0:
387,206,24783,2,0,P|376:155|386:108,1,99.9999999999999,8|0,0:0|1:0,0:0:0:0:
406,62,25233,1,8,1:2:0:0:
316,18,25533,6,0,L|199:27,1,99.9999999999999,4|8,1:0|0:0,0:0:0:0:
116,38,26133,2,0,P|103:89|117:154,1,99.9999999999999,0|8,1:0|0:0,0:0:0:0:
163,219,26733,2,0,P|176:270|162:335,1,99.9999999999999,0|8,1:0|0:0,0:0:0:0:
149,362,27183,2,0,L|266:371,1,99.9999999999999,8|0,0:0|1:0,0:0:0:0:
298,375,27633,1,8,0:0:0:0:
390,336,27933,6,0,P|395:285|401:235,1,99.9999999999999,0|8,1:0|0:0,0:0:0:0:
407,136,28533,1,0,1:0:0:0:
328,73,28833,1,8,0:0:0:0:
228,74,29133,2,0,P|181:94|121:86,1,99.9999999999999,0|8,1:0|0:0,0:0:0:0:
84,77,29583,2,0,L|103:193,1,99.9999999999999,8|0,0:0|1:0,0:0:0:0:
142,202,30033,2,0,L|133:273,1,50,8|8,0:0|0:0,0:0:0:0:
127,300,30333,5,2,1:0:0:0:
263,153,30933,2,0,B|254:116|254:116|270:77,2,74.9999999999999,8|8|8,1:0|1:0|1:0,0:0:0:0:
304,187,31533,6,0,L|415:176,1,104.999996795654,4|2,1:0|3:0,0:0:0:0:
504,219,32133,2,0,L|493:328,1,104.999996795654,0|2,1:0|3:0,0:0:0:0:
488,379,32583,1,0,0:0:0:0:
488,379,32733,2,0,P|438:362|378:364,1,104.999996795654,0|2,1:0|3:0,0:0:0:0:
335,370,33183,2,0,P|283:377|233:363,1,104.999996795654,0|0,1:0|1:0,0:0:0:0:
187,337,33633,1,2,3:0:0:0:
120,255,33933,6,0,P|125:203|129:139,1,104.999996795654,0|2,1:0|3:0,0:0:0:0:
190,65,34533,2,0,L|185:3,2,52.4999983978272,0|0|2,1:0|0:0|3:0,0:0:0:0:
234,93,34983,2,0,P|250:146|237:202,1,104.999996795654
227,247,35433,1,2,3:0:0:0:
227,247,35583,2,0,P|280:231|336:244,1,104.999996795654,0|2,1:0|3:0,0:0:0:0:
375,262,36033,1,2,3:0:0:0:
449,187,36333,6,0,P|443:137|438:78,1,104.999996795654,0|2,1:0|3:0,0:0:0:0:
345,32,36933,1,0,1:0:0:0:
253,82,37233,2,0,L|180:77,1,52.4999983978272,2|0,3:0|0:0,0:0:0:0:
148,77,37533,2,0,P|130:121|136:179,1,104.999996795654,0|2,1:0|3:0,0:0:0:0:
165,219,37983,2,0,P|183:263|177:321,1,104.999996795654,0|0,1:0|0:0,0:0:0:0:
140,356,38433,1,2,3:0:0:0:
35,368,38733,6,0,L|25:250,1,104.999996795654,2|0,3:0|0:0,0:0:0:0:
23,210,39183,1,2,3:0:0:0:
75,119,39483,1,2,3:0:0:0:
179,117,39783,2,0,P|239:119|285:93,1,104.999996795654,2|0,3:0|1:0,0:0:0:0:
317,64,40233,1,0,3:0:0:0:
317,64,40383,2,0,P|377:62|423:88,1,104.999996795654,0|2,1:0|3:0,0:0:0:0:
446,124,40833,1,2,3:0:0:0:
417,225,41133,6,0,L|301:234,1,104.999996795654,4|2,1:0|3:0,0:0:0:0:
242,311,41733,2,0,L|126:302,1,104.999996795654,0|2,1:0|3:0,0:0:0:0:
90,297,42183,1,0,0:0:0:0:
90,297,42333,2,0,P|103:257|86:190,1,104.999996795654,0|2,1:0|3:0,0:0:0:0:
48,164,42783,2,0,P|35:124|52:57,1,104.999996795654,0|0,1:0|1:0,0:0:0:0:
83,24,43233,1,2,3:0:0:0:
187,13,43533,6,0,L|195:130,1,104.999996795654,4|2,1:2|3:0,0:0:0:0:
264,195,44133,2,0,L|260:256,2,52.4999983978272,0|0|2,1:0|1:0|3:0,0:0:0:0:
299,156,44583,2,0,P|341:148|409:166,1,104.999996795654,2|0,0:0|1:0,0:0:0:0:
448,195,45033,1,2,3:0:0:0:
448,195,45183,2,0,P|434:245|442:296,1,104.999996795654,0|0,1:0|1:0,0:0:0:0:
458,346,45633,1,2,3:0:0:0:
356,371,45933,6,0,L|239:359,1,104.999996795654,4|2,1:0|3:0,0:0:0:0:
147,346,46533,1,0,1:0:0:0:
109,248,46833,1,2,3:0:0:0:
169,161,47133,2,0,L|163:97,2,52.4999983978271,0|0|2,1:0|0:0|3:0,0:0:0:0:
203,200,47583,2,0,P|259:184|316:173,1,104.999996795654,0|0,1:0|1:0,0:0:0:0:
357,170,48033,1,2,3:0:0:0:
414,88,48333,1,12,1:0:0:0:
414,88,50733,6,0,L|405:198,1,99.9999999999999,4|2,1:0|3:0,0:0:0:0:
311,221,51333,2,0,L|302:121,1,99.9999999999999,0|2,1:0|3:0,0:0:0:0:
272,81,51783,2,0,P|230:100|164:92,1,99.9999999999999
130,78,52233,1,2,3:0:0:0:
47,134,52533,2,0,L|55:233,1,99.9999999999999,0|2,1:0|3:0,0:0:0:0:
128,301,53133,6,0,P|162:290|228:290,1,99.9999999999999,4|2,1:0|3:0,0:0:0:0:
317,331,53733,2,0,P|351:342|417:342,1,99.9999999999999,0|2,1:0|3:0,0:0:0:0:
463,330,54183,2,0,L|468:215,1,99.9999999999999
470,179,54633,1,2,3:0:0:0:
399,108,54933,1,0,1:0:0:0:
299,108,55233,1,8,0:0:0:0:
228,178,55533,6,0,P|180:185|114:169,1,99.9999999999999,0|2,1:0|3:0,0:0:0:0:
86,163,55983,1,2,0:0:0:0:
86,163,56133,2,0,B|90:188|85:212|85:212|90:222|90:222|79:241|70:275,1,99.9999999999999,0|2,1:0|3:0,0:0:0:0:
68,309,56583,2,0,B|137:301|137:301|174:316,1,99.9999999999999,0|2,0:0|0:0,0:0:0:0:
205,343,57033,1,2,3:0:0:0:
301,370,57333,1,0,1:0:0:0:
377,305,57633,2,0,B|379:292|379:292|377:284|381:282|381:282|383:278|377:269|377:269|379:266|377:261|377:261|374:255,1,50,2|2,0:0|0:0,0:0:0:0:
348,212,57933,6,0,L|358:108,1,99.9999999999999,4|2,1:0|3:0,0:0:0:0:
362,62,58383,1,0,0:0:0:0:
275,11,58683,1,0,0:0:0:0:
190,63,58983,2,0,B|186:98|176:108|176:108|195:129|206:156|206:156|195:174|203:221,1,150,0|2,0:0|0:0,0:0:0:0:
186,248,59583,2,0,P|151:238|68:254,1,99.9999999999999,2|2,3:0|3:0,0:0:0:0:
45,269,60033,1,8,0:0:0:0:
