osu file format v14

[General]
AudioFilename: audio.mp3
AudioLeadIn: 0
PreviewTime:30858
Countdown: 0
SampleSet: Soft
StackLeniency: 0.7
Mode: 0
LetterboxInBreaks: 0
WidescreenStoryboard: 1

[Editor]
Bookmarks: 49195
DistanceSpacing: 2.9
BeatDivisor: 8
GridSize: 4
TimelineZoom: 3.599998

[Metadata]
Title:Kuuchuu Bunkai
TitleUnicode:空中分解
Artist:Three
ArtistUnicode:すりぃ
Creator:Ryuusei Aika
Version:Agatsu's Extra
Source:
Tags:Collage Japanese Rock J-Rock JRock Male Vocal Surii ボーカロイド ボカロ VOCALOID 鏡音レン Kagamine Len 真ひろ まめでん ま子 Akitoshi Ujimatcha -ClariS- Yorita Yoshino Yorita_Yoshino Dored Yugu Skyflame Cami wyrio Firika AncuL -Eriri- Laura -Laura- Corinn -Mikan Mikan Bazz Bazz_B X Light X_Light XLT Reform Kujinn Seto Kousuke Seto_Kousuke Djulus -MikanMyMommy gary00737 HabiHolic Haruto Haruto_Aizawa Armin A_r_M_i_N Agatsu Garden kanor Error- -Keitaro SnowNiNo_ Sylas TheKoala CoLouRed GlaZeE CoLouRed_GlaZeE caren_sk CRN
BeatmapID:1989954
BeatmapSetID:952132

[Difficulty]
HPDrainRate:5.5
CircleSize:4
OverallDifficulty:8.5
ApproachRate:9.2
SliderMultiplier:1.8
SliderTickRate:1

[Events]
//Background and Video events
Video,3,"video.mp4"
0,0,"BG.jpg",0,0
//Break Periods
2,48533,49413
//Storyboard Layer 0 (Background)
//Storyboard Layer 1 (Fail)
//Storyboard Layer 2 (Pass)
//Storyboard Layer 3 (Foreground)
//Storyboard Layer 4 (Overlay)
//Storyboard Sound Samples

[TimingPoints]
333,300,4,2,1,55,1,0
333,-125,4,2,1,55,0,0
1233,-66.6666666666667,4,2,1,99,0,0
1533,-100,4,2,1,77,0,0
6033,-66.6666666666667,4,2,1,77,0,0
6333,-100,4,2,1,77,0,0
11133,-125,4,2,1,77,0,0
11433,-125,4,2,0,44,0,0
15483,-100,4,2,1,66,0,0
15933,-125,4,2,1,55,0,0
20283,-80,4,2,1,77,0,0
20733,-111.111111111111,4,2,1,66,0,0
30933,-66.6666666666667,4,2,88,77,0,0
31533,-90.9090909090909,4,2,1,99,0,1
41133,-90.9090909090909,4,2,1,99,0,1
47883,-66.6666666666667,4,2,1,99,0,1
48333,-1000,4,2,99,99,0,0
49983,-100,4,2,1,66,0,0
50133,-100,4,2,1,88,0,0
50733,-100,4,2,1,77,0,0
55233,-66.6666666666667,4,2,1,77,0,0
55833,-66.6666666666667,4,2,1,77,0,0
56208,-100,4,2,1,77,0,0
57333,-66.6666666666667,4,2,1,77,0,0
57933,-100,4,2,1,77,0,0

[Colours]
Combo1 : 255,120,55
Combo2 : 0,49,98
Combo3 : 128,64,64

[HitObjects]
85,39,333,6,0,L|157:57,1,72,8|0,2:0|0:0,0:0:0:0:
154,22,558,2,0,L|84:39,1,72,8|0,2:0|0:0,0:0:0:0:
61,60,783,2,0,L|13:49,1,36,8|0,2:0|0:0,0:0:0:0:
123,137,933,1,8,0:0:0:0:
13,348,1233,6,0,B|70:338|117:292|117:292|114:346|138:376,1,202.500007724762,2|0,0:0|0:0,0:0:0:0:
167,378,1533,5,4,1:0:0:0:
380,278,1683,2,0,L|369:339,2,45,0|0|2,0:0|0:0|3:0,0:0:0:0:
254,188,1983,1,2,0:0:0:0:
230,210,2058,1,0,0:0:0:0:
237,242,2133,1,0,1:0:0:0:
445,159,2283,2,0,P|400:143|359:122,1,90,0|2,0:0|3:0,0:0:0:0:
170,320,2583,5,0,0:0:0:0:
98,285,2733,1,0,1:0:0:0:
15,351,2883,1,0,0:0:0:0:
166,224,3033,1,2,3:0:0:0:
45,107,3183,1,0,0:0:0:0:
62,183,3333,1,0,1:0:0:0:
105,374,3483,1,0,0:0:0:0:
297,305,3633,5,2,3:0:0:0:
327,312,3708,1,0,0:0:0:0:
359,320,3783,1,0,0:0:0:0:
427,364,3933,1,0,1:0:0:0:
297,202,4083,2,0,L|286:146,2,45,0|0|2,0:0|0:0|3:0,0:0:0:0:
509,96,4383,2,0,L|498:159,1,45
481,220,4533,5,0,1:0:0:0:
324,56,4683,2,0,B|280:45|280:45|222:64,1,90,0|2,0:0|3:0,0:0:0:0:
170,104,4983,5,0,0:0:0:0:
12,198,5133,1,0,1:0:0:0:
81,232,5283,1,0,0:0:0:0:
57,101,5433,1,2,3:0:0:0:
44,23,5583,1,0,0:0:0:0:
190,209,5733,1,0,1:0:0:0:
180,287,5883,1,0,0:0:0:0:
356,128,6033,6,0,B|414:104|454:66|454:66|498:91|478:146,1,202.500007724762,8|0,3:2|0:0,0:0:0:0:
466,163,6333,5,4,1:0:0:0:
260,110,6483,1,0,0:0:0:0:
243,88,6558,1,0,0:0:0:0:
255,58,6633,1,2,3:0:0:0:
81,206,6783,2,0,L|3:229,1,45
133,104,6933,5,0,1:0:0:0:
285,258,7083,2,0,P|335:278|391:311,1,90,0|2,0:0|3:0,0:0:0:0:
260,110,7383,5,0,0:0:0:0:
170,257,7533,1,0,1:0:0:0:
131,321,7683,1,0,0:0:0:0:
285,258,7833,1,2,3:0:0:0:
133,104,7983,1,0,0:0:0:0:
85,168,8133,1,0,1:0:0:0:
194,17,8283,1,0,0:0:0:0:
364,165,8433,1,2,3:0:0:0:
395,174,8508,1,0,0:0:0:0:
426,185,8583,1,0,0:0:0:0:
368,9,8733,5,0,1:0:0:0:
238,165,8883,2,0,L|230:97,2,45,0|0|2,0:0|0:0|3:0,0:0:0:0:
62,37,9183,1,0,0:0:0:0:
44,57,9258,1,0,0:0:0:0:
46,84,9333,1,0,1:0:0:0:
106,282,9483,2,0,B|120:240|120:240|100:180,1,90,0|2,0:0|3:0,0:0:0:0:
299,77,9783,1,0,0:0:0:0:
239,27,9933,5,2,3:0:0:0:
316,230,10083,1,2,0:0:0:0:
349,242,10158,1,2,0:0:0:0:
383,257,10233,1,2,3:0:0:0:
172,384,10383,2,0,L|181:331,2,45,2|2|2,0:0|0:0|3:0,0:0:0:0:
291,349,10683,1,2,3:0:0:0:
175,150,10833,5,8,0:0:0:0:
153,133,10908,1,8,0:0:0:0:
118,124,10983,1,8,0:0:0:0:
74,129,11058,1,8,0:0:0:0:
37,164,11133,2,0,P|43:229|46:317,1,144,8|8,0:0|0:0,0:0:0:0:
215,220,11583,5,0,0:0:0:0:
282,262,11733,1,0,0:0:0:0:
391,156,11883,2,0,L|407:78,1,72,0|8,0:0|0:0,0:0:0:0:
391,156,12183,1,0,0:0:0:0:
218,23,12333,5,0,0:0:0:0:
152,60,12483,1,0,0:0:0:0:
253,93,12633,1,8,0:0:0:0:
197,144,12783,2,0,P|124:163|39:193,1,144
265,199,13233,2,0,L|346:222,1,72,8|0,0:0|0:0,0:0:0:0:
186,384,13533,6,0,P|144:342|163:248,2,144,0|8|0,0:0|0:0|0:0,0:0:0:0:
401,323,14283,1,0,0:0:0:0:
333,290,14433,1,8,0:0:0:0:
322,367,14583,1,0,0:0:0:0:
416,296,14733,5,0,0:0:0:0:
322,184,14883,2,0,L|311:103,1,72,0|8,0:0|0:0,0:0:0:0:
210,293,15183,2,0,P|164:311|119:340,1,72,0|2,0:0|0:0,0:0:0:0:
322,367,15483,5,8,0:0:0:0:
188,191,15633,1,8,0:0:0:0:
32,348,15783,1,8,0:0:0:0:
57,268,15933,6,0,P|52:197|42:113,1,144,12|2,0:0|0:0,0:0:0:0:
211,36,16383,5,2,0:0:0:0:
140,3,16533,1,0,1:0:0:0:
211,123,16683,2,0,L|301:158,1,72,2|2,0:0|0:0,0:0:0:0:
501,55,16983,5,0,0:0:0:0:
432,20,17133,1,0,1:0:0:0:
433,100,17283,1,2,0:0:0:0:
504,135,17433,1,2,0:0:0:0:
359,298,17583,6,0,P|313:317|275:340,1,72,2|0,0:0|1:0,0:0:0:0:
418,231,17883,2,0,L|426:183,2,36,2|0|2,0:0|0:0|0:0,0:0:0:0:
273,106,18183,5,0,0:0:0:0:
200,138,18333,2,0,L|100:124,1,72,0|0,1:0|0:0,0:0:0:0:
15,309,18633,2,0,B|51:298|51:298|98:310,1,72,2|2,0:0|0:0,0:0:0:0:
152,259,18933,5,0,1:0:0:0:
216,305,19083,1,2,0:0:0:0:
310,244,19233,1,2,0:0:0:0:
247,196,19383,1,0,0:0:0:0:
267,384,19533,5,0,1:0:0:0:
369,343,19683,1,0,0:0:0:0:
440,374,19833,1,2,0:0:0:0:
499,291,19983,2,0,L|513:217,1,72,2|0,0:0|1:0,0:0:0:0:
359,102,20283,5,8,0:0:0:0:
188,234,20433,1,8,0:0:0:0:
1,113,20583,1,8,0:0:0:0:
51,51,20733,6,0,P|41:127|36:234,1,161.999995056153,0|8,1:0|0:0,0:0:0:0:
36,212,21183,1,0,0:0:0:0:
253,119,21333,1,0,1:0:0:0:
310,175,21483,2,0,L|404:207,1,80.9999975280763,0|8,1:0|0:0,0:0:0:0:
315,52,21783,1,0,0:0:0:0:
135,126,21933,5,0,1:0:0:0:
192,179,22083,1,0,0:0:0:0:
105,248,22233,1,8,0:0:0:0:
36,212,22383,2,0,P|44:128|44:40,1,161.999995056153,0|0,0:0|1:0,0:0:0:0:
189,269,22833,2,0,L|270:309,1,80.9999975280763,8|0,0:0|0:0,0:0:0:0:
461,198,23133,6,0,B|481:235|481:235|467:293,1,80.9999975280763,0|0,1:0|0:0,0:0:0:0:
269,176,23433,2,0,B|248:84|309:113|283:2,1,161.999995056153,8|0,0:0|1:0,0:0:0:0:
269,176,23883,1,0,1:0:0:0:
266,255,24033,1,8,0:0:0:0:
256,384,24183,1,0,0:0:0:0:
323,334,24333,5,0,1:0:0:0:
150,223,24483,1,0,1:0:0:0:
120,298,24633,1,8,0:0:0:0:
357,244,24783,2,0,P|346:146|344:77,1,161.999995056153,8|0,0:0|1:0,0:0:0:0:
471,288,25233,2,0,B|447:322|447:322|453:371,1,80.9999975280763,8|0,1:2|1:0,0:0:0:0:
246,170,25533,6,0,P|186:214|83:203,1,161.999995056153,4|8,1:0|0:0,0:0:0:0:
101,211,25983,1,0,0:0:0:0:
280,38,26133,1,0,1:0:0:0:
343,82,26283,2,0,L|430:108,1,80.9999975280763,0|8,0:0|0:0,0:0:0:0:
246,170,26583,1,0,0:0:0:0:
387,307,26733,5,0,1:0:0:0:
324,355,26883,1,0,0:0:0:0:
365,218,27033,1,8,0:0:0:0:
512,371,27183,2,0,P|503:291|500:201,1,161.999995056153,8|0,0:0|1:0,0:0:0:0:
347,79,27633,1,8,0:0:0:0:
411,32,27783,1,0,0:0:0:0:
365,218,27933,6,0,P|323:231|263:257,1,80.9999975280763,0|0,1:0|0:0,0:0:0:0:
85,146,28233,2,0,B|63:180|63:180|68:245,1,80.9999975280763,8|0,0:0|0:0,0:0:0:0:
244,69,28533,1,0,1:0:0:0:
181,26,28683,1,0,0:0:0:0:
237,157,28833,1,8,0:0:0:0:
334,104,28983,1,0,0:0:0:0:
323,25,29133,5,0,1:0:0:0:
159,107,29283,1,0,1:0:0:0:
313,244,29433,1,8,0:0:0:0:
252,293,29583,2,0,B|163:308|198:345|94:381,1,161.999995056153,8|0,0:0|1:0,0:0:0:0:
252,293,30033,1,8,0:0:0:0:
432,368,30183,1,8,0:0:0:0:
500,328,30333,6,0,L|548:321,7,40.4999987640381,2|0|0|0|0|0|0|0,1:0|0:0|0:0|0:0|0:0|0:0|0:0|0:0,0:0:0:0:
429,285,30933,5,8,1:0:0:0:
246,372,31158,5,8,1:0:0:0:
11,297,31383,5,8,1:0:0:0:
77,254,31533,6,0,B|103:295|103:295|88:360,1,99.0000030212403,6|0,1:0|0:0,0:0:0:0:
282,210,31833,2,0,L|382:226,1,99.0000030212403,10|0,3:0|0:0,0:0:0:0:
248,15,32133,2,0,P|184:50|173:143,1,148.50000453186,2|0,1:0|0:0,0:0:0:0:
145,137,32433,1,10,3:0:0:0:
282,321,32583,1,0,0:0:0:0:
215,364,32733,5,2,1:0:0:0:
282,210,32883,1,0,0:0:0:0:
437,282,33033,1,10,3:0:0:0:
491,228,33183,2,0,P|482:122|478:24,1,198.000006042481,2|0,1:0|1:0,0:0:0:0:
359,282,33633,5,10,3:0:0:0:
388,355,33783,1,0,0:0:0:0:
408,136,33933,6,0,B|325:156|353:189|257:218,1,148.50000453186,2|0,1:0|0:0,0:0:0:0:
260,233,34233,1,10,3:0:0:0:
101,174,34383,1,0,0:0:0:0:
32,211,34533,1,2,1:0:0:0:
123,299,34683,1,0,0:0:0:0:
232,141,34833,1,10,3:0:0:0:
19,13,34983,6,0,P|28:107|32:225,1,198.000006042481,2|0,0:1|0:0,0:0:0:0:
14,288,35433,1,10,3:0:0:0:
230,275,35583,2,0,B|279:262|279:262|331:278,1,99.0000030212403,2|0,1:1|1:0,0:0:0:0:
512,144,35883,5,10,3:0:0:0:
459,85,36033,1,10,3:0:0:0:
385,160,36183,1,0,1:0:0:0:
255,90,36333,6,0,L|131:69,1,99.0000030212403,2|0,1:0|0:0,0:0:0:0:
325,276,36633,2,0,B|348:320|348:320|325:389,1,99.0000030212403,10|0,3:0|0:0,0:0:0:0:
96,281,36933,1,2,1:0:0:0:
164,242,37083,1,0,0:0:0:0:
57,82,37233,1,10,3:0:0:0:
13,185,37383,1,0,0:0:0:0:
90,164,37533,5,2,1:0:0:0:
253,108,37683,2,0,L|365:91,1,99.0000030212403,0|10,0:0|3:0,0:0:0:0:
506,245,37983,2,0,P|441:290|423:368,1,148.50000453186,2|0,1:1|0:0,0:0:0:0:
400,371,38283,1,0,0:0:0:0:
208,281,38433,5,10,3:0:0:0:
322,229,38583,1,2,0:1:0:0:
113,324,38733,6,0,P|114:240|109:157,1,148.50000453186,10|0,3:0|0:0,0:0:0:0:
136,155,39033,1,2,0:1:0:0:
107,365,39183,5,10,3:0:0:0:
308,320,39483,5,10,3:0:0:0:
505,347,39783,6,0,P|494:253|488:138,1,198.000006042481,10|2,3:0|1:0,0:0:0:0:
488,149,40233,1,0,3:0:0:0:
334,307,40383,1,2,1:0:0:0:
308,320,40458,1,0,1:0:0:0:
281,335,40533,1,0,1:0:0:0:
69,226,40683,5,2,3:0:0:0:
81,211,40758,1,2,3:0:0:0:
55,181,40833,1,2,3:0:0:0:
70,161,40908,1,2,3:0:0:0:
44,117,40983,1,8,0:0:0:0:
70,90,41058,1,8,0:0:0:0:
70,90,41133,6,0,P|127:101|177:117,1,99.0000030212403,6|0,1:0|0:0,0:0:0:0:
379,26,41433,2,0,B|413:64|413:64|400:131,1,99.0000030212403,10|0,3:0|0:0,0:0:0:0:
266,322,41733,2,0,L|284:168,1,148.50000453186,2|0,1:0|0:0,0:0:0:0:
269,149,42033,1,10,3:0:0:0:
453,342,42183,1,0,0:0:0:0:
459,263,42333,5,2,1:0:0:0:
266,322,42483,2,0,L|153:351,1,99.0000030212403,0|10,0:0|3:0,0:0:0:0:
4,159,42783,2,0,P|55:209|146:212,1,148.50000453186,2|0,1:0|0:0,0:0:0:0:
152,235,43083,1,0,1:0:0:0:
281,9,43233,5,10,3:0:0:0:
210,41,43383,1,0,1:0:0:0:
373,248,43533,6,0,B|348:137|426:175|393:48,1,198.000006042481,6|10,1:2|3:0,0:0:0:0:
395,57,43983,1,0,0:0:0:0:
466,106,44133,1,2,1:0:0:0:
274,188,44283,1,0,1:0:0:0:
156,233,44433,1,10,3:0:0:0:
227,268,44583,6,0,P|229:162|242:57,1,198.000006042481,2|0,0:1|1:0,0:0:0:0:
227,268,45033,1,10,3:0:0:0:
19,129,45183,2,0,B|-7:169|-7:169|1:230,1,99.0000030212403,2|0,1:0|0:0,0:0:0:0:
180,367,45483,5,0,1:0:0:0:
155,210,45633,1,10,3:0:0:0:
130,53,45783,1,0,1:0:0:0:
320,247,45933,6,0,L|348:84,1,148.50000453186,6|0,1:0|0:0,0:0:0:0:
329,75,46233,2,0,P|378:67|427:47,1,99.0000030212403,10|0,3:0|0:0,0:0:0:0:
246,182,46533,1,2,1:0:0:0:
180,228,46683,1,0,1:0:0:0:
306,323,46833,1,10,3:0:0:0:
320,247,46983,1,0,0:0:0:0:
163,377,47133,5,2,1:0:0:0:
43,201,47283,1,0,0:0:0:0:
18,275,47433,1,10,3:0:0:0:
173,144,47583,2,0,P|245:133|302:86,1,148.50000453186,2|0,1:0|0:0,0:0:0:0:
287,61,47883,5,2,1:0:0:0:
332,193,48033,1,10,3:0:0:0:
396,373,48183,1,0,1:0:0:0:
438,302,48333,5,12,1:0:0:0:
243,63,49983,6,0,P|274:53|299:40,1,45,2|2,3:0|3:0,0:0:0:0:
150,149,50133,1,8,0:0:0:0:
134,140,50208,1,8,0:0:0:0:
95,132,50283,1,8,0:0:0:0:
48,155,50358,1,8,0:0:0:0:
31,197,50433,1,8,0:0:0:0:
277,342,50733,5,4,1:0:0:0:
106,268,50883,2,0,L|113:324,2,45,0|2|2,0:0|0:0|3:0,0:0:0:0:
302,137,51183,1,0,0:0:0:0:
319,160,51258,1,2,0:0:0:0:
314,188,51333,1,0,1:0:0:0:
106,92,51483,1,0,0:0:0:0:
172,51,51633,1,2,3:0:0:0:
223,249,51783,1,0,0:0:0:0:
254,376,51933,5,0,1:0:0:0:
299,312,52083,1,0,0:0:0:0:
510,368,52233,2,0,B|522:321|522:321|511:276,1,90,2|0,3:0|0:0,0:0:0:0:
325,137,52533,5,0,1:0:0:0:
379,78,52683,1,2,0:0:0:0:
413,271,52833,2,0,L|421:223,2,45,2|0|2,3:0|0:0|0:0,0:0:0:0:
202,180,53133,5,4,1:0:0:0:
60,277,53283,1,0,0:0:0:0:
32,286,53358,1,0,0:0:0:0:
4,295,53433,1,2,3:0:0:0:
204,378,53583,2,0,L|212:339,4,22.5,2|0|0|0|0,0:0|0:0|0:0|0:0|1:0,0:0:0:0:
395,249,53883,1,0,0:0:0:0:
413,271,53958,1,0,0:0:0:0:
405,297,54033,1,2,3:0:0:0:
202,180,54183,5,0,0:0:0:0:
268,134,54333,1,0,1:0:0:0:
115,45,54483,2,0,L|23:26,1,90,0|2,0:0|3:0,0:0:0:0:
245,0,54783,1,0,0:0:0:0:
430,53,54933,5,0,1:0:0:0:
505,30,55083,1,0,0:0:0:0:
314,291,55233,6,0,B|287:178|374:214|334:76,1,202.500007724762,8|8,0:0|0:0,0:0:0:0:
323,71,55533,5,0,1:0:0:0:
152,226,55683,1,0,0:0:0:0:
125,235,55758,1,0,0:0:0:0:
100,246,55833,1,2,3:0:0:0:
182,37,55983,6,0,L|138:30,1,33.7500012874604,2|0,0:0|0:0,0:0:0:0:
159,19,56058,2,0,L|115:26,1,33.7500012874604,2|0,0:0|0:0,0:0:0:0:
134,3,56133,1,0,1:0:0:0:
299,205,56283,6,0,B|318:246|318:246|312:303,1,90,0|2,0:0|3:0,0:0:0:0:
418,213,56583,1,0,0:0:0:0:
182,273,56733,6,0,L|101:289,1,45,0|0,1:0|0:0,0:0:0:0:
66,302,56883,1,2,0:0:0:0:
2,122,57033,6,0,L|83:138,1,45,2|0,3:0|0:0,0:0:0:0:
121,147,57183,1,2,0:0:0:0:
327,13,57333,5,0,1:0:0:0:
259,50,57483,1,0,0:0:0:0:
499,161,57633,5,2,0:0:0:0:
488,179,57708,1,2,0:0:0:0:
512,220,57783,1,2,0:0:0:0:
499,240,57858,1,2,0:0:0:0:
499,240,57933,6,0,B|403:251|427:303|317:331,1,180,4|2,1:0|3:0,0:0:0:0:
149,229,58383,1,0,0:0:0:0:
265,165,58533,6,0,L|273:202,1,22.5,2|0,1:2|0:0,0:0:0:0:
287,200,58608,2,0,L|282:221,1,22.5,2|0,0:0|0:0,0:0:0:0:
275,242,58683,1,0,0:0:0:0:
112,355,58833,5,2,3:0:0:0:
186,384,58983,1,0,0:0:0:0:
416,314,59133,5,2,3:2:0:0:
440,303,59208,1,2,0:0:0:0:
483,319,59283,1,2,0:0:0:0:
507,312,59358,1,2,0:0:0:0:
507,312,59433,1,2,0:0:0:0:
348,103,59583,6,0,L|401:81,1,45,2|2,3:0|3:0,0:0:0:0:
48,85,59733,6,0,L|-5:63,1,45,2|2,3:0|3:0,0:0:0:0:
297,259,59883,6,0,P|285:291|274:331,1,45,2|2,3:0|3:0,0:0:0:0:
100,263,60033,6,0,P|112:295|123:335,1,45,8|8,0:0|0:0,0:0:0:0:
211,0,60183,6,0,L|209:46,1,45,8|8,0:0|0:0,0:0:0:0:
