osu file format v14

[General]
AudioFilename: audio.mp3
AudioLeadIn: 0
PreviewTime:30858
Countdown: 0
SampleSet: Soft
StackLeniency: 0.2
Mode: 0
LetterboxInBreaks: 0
WidescreenStoryboard: 1

[Editor]
DistanceSpacing: 1
BeatDivisor: 4
GridSize: 8
TimelineZoom: 1.899999

[Metadata]
Title:Kuuchuu Bunkai
TitleUnicode:空中分解
Artist:Three
ArtistUnicode:すりぃ
Creator:Ryuusei Aika
Version:A r M i N's Extra
Source:
Tags:Collage Japanese Rock J-Rock JRock Male Vocal Surii ボーカロイド ボカロ VOCALOID 鏡音レン Kagamine Len 真ひろ まめでん ま子 Akitoshi Ujimatcha -ClariS- Yorita Yoshino Yorita_Yoshino Dored Yugu Skyflame Cami wyrio Firika AncuL -Eriri- Laura -Laura- Corinn -Mikan Mikan Bazz Bazz_B X Light X_Light XLT Reform Kujinn Seto Kousuke Seto_Kousuke Djulus -MikanMyMommy gary00737 HabiHolic Haruto Haruto_Aizawa Armin A_r_M_i_N Agatsu Garden kanor Error- -Keitaro SnowNiNo_ Sylas TheKoala CoLouRed GlaZeE CoLouRed_GlaZeE caren_sk CRN
BeatmapID:2010466
BeatmapSetID:952132

[Difficulty]
HPDrainRate:5
CircleSize:3.8
OverallDifficulty:9
ApproachRate:9.3
SliderMultiplier:1.9
SliderTickRate:1

[Events]
//Background and Video events
Video,3,"video.mp4"
0,0,"BG.jpg",0,0
//Break Periods
//Storyboard Layer 0 (Background)
//Storyboard Layer 1 (Fail)
//Storyboard Layer 2 (Pass)
//Storyboard Layer 3 (Foreground)
//Storyboard Layer 4 (Overlay)
//Storyboard Sound Samples

[TimingPoints]
333,300,4,2,1,55,1,0
1233,-66.6666666666667,4,2,1,99,0,0
1458,-66.6666666666667,4,2,1,5,0,0
1533,-100,4,2,1,77,0,0
11133,-125,4,2,1,77,0,0
11433,-125,4,2,0,44,0,0
15483,-125,4,2,1,66,0,0
15933,-125,4,2,1,55,0,0
20208,-125,4,2,1,5,0,0
20283,-125,4,2,1,77,0,0
20733,-125,4,2,1,66,0,0
30333,-125,4,2,88,55,0,0
30933,-100,4,2,88,77,0,0
31533,-83.3333333333333,4,2,1,99,0,1
31683,-83.3333333333333,4,2,1,99,0,1
38733,-83.3333333333333,4,2,1,99,0,1
38883,-83.3333333333333,4,2,1,99,0,1
41133,-83.3333333333333,4,2,1,99,0,1
41283,-83.3333333333333,4,2,1,99,0,1
47883,-83.3333333333333,4,2,1,99,0,1
48333,-125,4,2,99,99,0,1
48633,-125,4,2,1,77,0,1
49983,-125,4,2,1,77,0,1
50133,-125,4,2,1,88,0,1
50433,-66.6666666666667,4,2,1,55,0,1
50658,-66.6666666666667,4,2,1,5,0,1
50733,-100,4,2,1,77,0,0

[Colours]
Combo1 : 255,120,55
Combo2 : 0,49,98
Combo3 : 128,64,64

[HitObjects]
408,230,333,6,0,B|438:316|438:316|424:340|401:353,2,142.5,8|8|8,2:0|2:0|2:0,0:0:0:0:
336,289,933,1,8,2:0:0:0:
448,143,1233,6,2,B|337:113|354:207|246:179,1,213.750008153916,2|0,0:0|0:0,3:3:0:0:
142,88,1533,6,0,P|157:105|169:126,2,47.5,4|0|0,1:0|0:0|0:0,0:0:0:0:
145,256,1833,1,2,3:0:0:0:
252,88,1983,1,2,0:0:0:0:
302,302,2133,1,0,1:0:0:0:
170,127,2283,2,0,P|125:145|85:170,1,95,0|2,0:0|3:0,0:0:0:0:
330,215,2583,1,2,2:1:0:0:
135,298,2733,6,0,P|179:316|220:341,1,95,0|0,1:0|0:0,0:0:0:0:
413,179,3033,1,2,3:0:0:0:
248,254,3183,1,0,0:0:0:0:
479,323,3333,1,0,1:0:0:0:
424,88,3483,1,0,0:0:0:0:
363,293,3633,1,2,3:0:0:0:
353,327,3708,1,0,0:0:0:0:
344,361,3783,1,0,0:0:0:0:
282,169,3933,5,0,1:0:0:0:
273,135,4008,1,0,0:0:0:0:
263,101,4083,1,0,0:0:0:0:
413,179,4233,1,2,3:0:0:0:
248,254,4383,1,0,0:0:0:0:
448,263,4533,1,0,1:0:0:0:
282,169,4683,2,0,P|226:165|192:182,1,95,0|2,0:0|3:0,0:0:0:0:
57,320,4983,1,2,2:1:0:0:
271,345,5133,6,0,L|248:254,1,95,0|0,1:0|0:0,0:0:0:0:
193,47,5433,1,2,3:0:0:0:
120,237,5583,1,0,0:0:0:0:
282,169,5733,1,0,1:0:0:0:
105,71,5883,1,0,0:0:0:0:
364,130,6033,1,8,3:2:0:0:
47,183,6183,1,8,0:0:0:0:
248,253,6333,5,4,1:0:0:0:
282,262,6408,1,0,0:0:0:0:
316,272,6483,1,0,0:0:0:0:
169,135,6633,1,2,3:0:0:0:
197,329,6783,1,0,0:0:0:0:
282,169,6933,1,0,1:0:0:0:
86,100,7083,2,0,P|81:155|97:190,1,95,0|2,0:0|3:0,0:0:0:0:
248,253,7383,1,2,2:1:0:0:
192,42,7533,6,0,L|168:134,1,95,0|0,1:0|0:0,0:0:0:0:
338,240,7833,1,2,3:0:0:0:
197,329,7983,1,0,0:0:0:0:
282,169,8133,1,0,1:0:0:0:
374,324,8283,1,0,0:0:0:0:
439,136,8433,1,2,3:0:0:0:
405,145,8508,1,0,0:0:0:0:
371,155,8583,1,0,0:0:0:0:
192,42,8733,5,0,1:0:0:0:
226,51,8808,1,0,0:0:0:0:
260,61,8883,1,0,0:0:0:0:
338,240,9033,1,2,3:0:0:0:
420,46,9183,1,0,0:0:0:0:
498,225,9333,1,0,1:0:0:0:
282,169,9483,2,0,L|189:192,1,95,0|2,0:0|3:0,0:0:0:0:
374,324,9783,1,0,0:0:0:0:
260,61,9933,5,2,3:0:0:0:
163,258,10083,2,0,L|151:212,1,47.5,2|2,0:0|0:0,0:0:0:0:
120,79,10233,1,2,3:0:0:0:
298,231,10383,2,0,L|309:185,1,47.5,2|2,0:0|0:0,0:0:0:0:
349,47,10533,1,2,3:0:0:0:
359,81,10608,1,2,3:0:0:0:
368,115,10683,1,2,3:0:0:0:
509,268,10833,1,8,0:0:0:0:
493,234,10908,1,8,0:0:0:0:
466,211,10983,1,8,0:0:0:0:
433,198,11058,1,8,0:0:0:0:
399,201,11133,6,0,L|361:348,1,152,8|8,0:0|0:0,0:0:0:0:
283,288,11583,1,0,0:0:0:0:
211,344,11733,1,0,0:0:0:0:
148,278,11883,2,0,L|129:204,1,76,0|8,0:0|0:0,0:0:0:0:
180,128,12183,1,0,0:0:0:0:
122,57,12333,2,0,P|98:86|90:123,1,76
180,128,12633,1,8,0:0:0:0:
270,124,12783,2,0,P|261:87|237:58,1,76
229,205,13083,1,0,0:0:0:0:
319,201,13233,1,8,0:0:0:0:
360,120,13383,1,0,0:0:0:0:
180,128,13533,6,0,P|141:183|158:262,1,152,0|8,0:0|0:0,0:0:0:0:
429,269,14133,2,0,L|410:196,1,76
361,338,14433,1,8,0:0:0:0:
297,274,14583,1,0,0:0:0:0:
199,343,14733,2,0,L|272:362,1,76
321,186,15033,1,8,0:0:0:0:
201,242,15183,1,0,0:0:0:0:
297,274,15333,1,2,0:0:0:0:
110,137,15483,5,8,0:0:0:0:
199,343,15633,1,8,0:0:0:0:
334,96,15783,1,8,0:0:0:0:
444,312,15933,6,0,L|297:274,1,152,12|2,0:0|0:0,0:0:0:0:
248,197,16383,1,2,0:0:0:0:
168,240,16533,1,0,1:0:0:0:
338,193,16683,2,0,P|332:163|306:127,1,76,2|2,0:0|0:0,0:0:0:0:
216,111,16983,1,0,0:0:0:0:
296,273,17133,5,0,1:0:0:0:
428,203,17283,1,2,0:0:0:0:
306,283,17433,1,2,0:0:0:0:
438,213,17583,1,2,0:0:0:0:
341,367,17733,5,0,1:0:0:0:
209,297,17883,1,2,0:0:0:0:
331,377,18033,1,2,0:0:0:0:
199,307,18183,1,0,0:0:0:0:
315,199,18333,6,0,L|296:272,1,76,0|0,1:0|0:0,0:0:0:0:
253,132,18633,2,0,P|290:111|324:108,1,76,2|2,0:0|0:0,0:0:0:0:
222,218,18933,1,0,1:0:0:0:
164,149,19083,1,2,0:0:0:0:
98,213,19233,2,0,L|117:286,1,76,2|0,0:0|0:0,0:0:0:0:
264,351,19533,2,0,P|240:322|206:307,1,76,0|0,1:0|0:0,0:0:0:0:
41,337,19833,1,2,0:0:0:0:
98,213,19983,2,0,P|150:191|205:174,1,114,2|0,0:0|0:0,0:0:0:0:
290,209,20283,5,8,0:0:0:0:
77,98,20433,1,8,0:0:0:0:
336,40,20583,1,8,0:0:0:0:
98,213,20733,6,0,P|161:246|217:315,1,152,0|8,1:0|0:0,0:0:0:0:
371,271,21183,1,0,0:0:0:0:
301,329,21333,1,0,1:0:0:0:
355,181,21483,2,0,P|387:182|429:201,1,76,0|8,1:0|0:0,0:0:0:0:
287,239,21783,1,0,0:0:0:0:
270,149,21933,2,0,P|289:118|321:96,1,76,0|0,1:0|0:0,0:0:0:0:
202,208,22233,1,8,0:0:0:0:
53,120,22383,2,0,P|82:150|124:256,1,152,0|0,0:0|1:0,0:0:0:0:
4,366,22833,2,0,P|28:337|60:316,1,76,8|0,0:0|0:0,0:0:0:0:
218,361,23133,6,0,P|181:355|147:339,1,76,0|0,1:0|0:0,0:0:0:0:
267,223,23433,2,0,P|280:258|283:296,1,76,8|0,0:0|0:0,0:0:0:0:
123,250,23733,2,0,P|146:220|178:199,1,76,0|0,1:0|1:0,0:0:0:0:
331,158,24033,1,8,0:0:0:0:
243,136,24183,1,0,0:0:0:0:
354,246,24333,2,0,P|388:228|411:198,1,76,0|0,1:0|1:0,0:0:0:0:
306,70,24633,1,8,0:0:0:0:
267,223,24783,2,0,L|232:373,1,152,8|0,0:0|1:0,0:0:0:0:
49,274,25233,1,8,1:2:0:0:
181,199,25383,1,0,1:0:0:0:
5,88,25533,6,0,B|82:70|72:131|149:113,1,152,4|8,1:0|0:0,0:0:0:0:
305,67,25983,1,0,0:0:0:0:
239,129,26133,1,0,1:0:0:0:
341,230,26283,2,0,L|326:156,1,76,0|8,0:0|0:0,0:0:0:0:
265,280,26583,1,0,0:0:0:0:
417,344,26733,2,0,P|384:325|347:322,1,76,0|0,1:0|0:0,0:0:0:0:
200,371,27033,1,8,0:0:0:0:
243,192,27183,2,0,P|233:147|159:62,1,152,8|0,0:0|1:0,0:0:0:0:
158,222,27633,1,8,0:0:0:0:
320,121,27783,1,0,0:0:0:0:
77,64,27933,6,0,L|2:48,1,76,0|0,1:0|0:0,0:0:0:0:
245,136,28233,2,0,L|319:120,1,76,8|0,0:0|0:0,0:0:0:0:
158,222,28533,1,0,1:0:0:0:
323,286,28683,1,0,0:0:0:0:
200,361,28833,2,0,L|274:376,1,76,8|0,0:0|0:0,0:0:0:0:
245,136,29133,1,0,1:0:0:0:
128,308,29283,1,0,1:0:0:0:
176,78,29433,1,8,0:0:0:0:
323,286,29583,2,0,L|338:211,1,76,8|0,0:0|0:0,0:0:0:0:
135,162,29883,1,0,1:0:0:0:
349,72,30033,1,8,0:0:0:0:
128,1,30183,1,8,0:0:0:0:
272,202,30333,6,0,L|277:222,12,19,2|0|0|0|0|0|0|0|0|0|0|0|0,1:0|0:0|0:0|0:0|0:0|0:0|0:0|0:0|0:0|0:0|0:0|0:0|0:0,0:0:0:0:
327,340,30933,5,8,1:0:0:0:
132,182,31158,5,8,1:0:0:0:
366,92,31383,5,8,1:0:0:0:
160,269,31533,6,0,P|106:270|58:235,1,113.999996520996,4|0,1:0|0:0,0:0:0:0:
259,187,31833,2,0,P|286:233|280:292,1,113.999996520996,2|0,3:0|0:0,0:0:0:0:
138,142,32133,2,0,P|164:94|218:70,1,113.999996520996,0|0,1:0|0:0,0:0:0:0:
446,132,32433,1,2,3:0:0:0:
259,187,32583,1,0,0:0:0:0:
397,19,32733,5,0,1:0:0:0:
452,239,32883,2,0,L|478:350,1,113.999996520996,0|2,0:0|3:0,0:0:0:0:
259,187,33183,2,0,L|285:76,1,113.999996520996,0|0,1:0|0:0,0:0:0:0:
352,279,33483,1,0,1:0:0:0:
169,187,33633,1,2,3:0:0:0:
362,124,33783,1,0,0:0:0:0:
197,274,33933,6,0,P|143:275|95:240,1,113.999996520996,0|0,1:0|0:0,0:0:0:0:
183,22,34233,1,2,3:0:0:0:
259,187,34383,1,0,0:0:0:0:
93,33,34533,1,0,1:0:0:0:
17,198,34683,1,0,0:0:0:0:
214,108,34833,1,2,3:0:0:0:
280,311,34983,6,0,B|164:269|186:390|69:348,1,227.999993041992
214,108,35433,1,2,3:0:0:0:
369,295,35583,1,0,0:0:0:0:
161,206,35733,1,0,1:0:0:0:
397,133,35883,1,2,3:0:0:0:
159,35,36033,1,2,3:0:0:0:
345,208,36183,1,0,1:0:0:0:
75,233,36333,6,0,P|74:176|107:131,1,113.999996520996,0|0,1:0|0:0,0:0:0:0:
253,302,36633,2,0,P|204:330|148:324,1,113.999996520996,2|0,3:0|0:0,0:0:0:0:
223,113,36933,2,0,P|271:140|294:192,1,113.999996520996,0|0,1:0|0:0,0:0:0:0:
75,233,37233,1,2,3:0:0:0:
155,54,37383,1,0,0:0:0:0:
253,302,37533,5,0,1:0:0:0:
112,149,37683,2,0,P|56:142|7:171,1,113.999996520996,0|2,0:0|3:0,0:0:0:0:
148,324,37983,2,0,P|203:330|252:301,1,113.999996520996,0|0,1:0|0:0,0:0:0:0:
321,76,38283,1,0,0:0:0:0:
185,240,38433,1,2,3:0:0:0:
395,275,38583,1,0,0:0:0:0:
166,55,38733,5,2,3:1:0:0:
252,301,38883,1,0,1:0:0:0:
342,165,39033,1,0,0:0:0:0:
166,329,39183,5,2,3:1:0:0:
321,76,39483,5,2,3:1:0:0:
452,336,39783,6,0,B|508:300|508:300|350:265,1,227.999993041992,2|2,3:1|3:1,0:0:0:0:
103,207,40233,1,0,3:0:0:0:
240,64,40383,1,0,1:0:0:0:
246,91,40458,1,0,1:0:0:0:
252,119,40533,1,0,1:0:0:0:
13,197,40683,5,2,3:0:0:0:
20,169,40758,1,2,3:0:0:0:
35,145,40833,1,2,3:0:0:0:
57,128,40908,1,2,3:0:0:0:
84,117,40983,1,8,0:0:0:0:
112,116,41058,1,8,0:0:0:0:
140,123,41133,6,0,L|166:234,1,113.999996520996,4|0,1:0|0:0,0:0:0:0:
378,188,41433,2,0,L|268:155,1,113.999996520996,2|0,3:0|0:0,0:0:0:0:
202,361,41733,2,0,L|285:282,1,113.999996520996,0|0,1:0|0:0,0:0:0:0:
140,123,42033,1,2,3:0:0:0:
96,293,42183,1,0,0:0:0:0:
268,155,42333,5,0,1:0:0:0:
305,338,42483,2,0,P|256:366|201:360,1,113.999996520996,0|2,0:0|3:0,0:0:0:0:
354,185,42783,2,0,P|409:179|457:207,1,113.999996520996,0|0,1:0|0:0,0:0:0:0:
238,277,43083,1,0,1:0:0:0:
336,95,43233,1,2,3:0:0:0:
390,269,43383,1,0,1:0:0:0:
171,215,43533,6,0,L|60:189,1,113.999996520996,4|0,1:2|0:0,0:0:0:0:
200,90,43833,1,2,3:0:0:0:
238,277,43983,1,0,0:0:0:0:
345,149,44133,1,0,1:0:0:0:
307,336,44283,1,0,1:0:0:0:
256,161,44433,1,2,3:0:0:0:
436,63,44583,6,0,B|481:134|481:134|435:270,1,227.999993041992,2|0,0:0|0:0,0:0:0:0:
238,277,45033,1,2,3:0:0:0:
345,149,45183,1,0,1:0:0:0:
307,336,45333,1,0,0:0:0:0:
207,153,45483,1,0,1:0:0:0:
323,246,45633,1,2,3:0:0:0:
375,62,45783,1,0,1:0:0:0:
190,243,45933,6,0,P|134:248|86:220,1,113.999996520996,4|0,1:0|0:0,0:0:0:0:
323,246,46233,2,0,P|355:291|355:347,1,113.999996520996,2|0,3:0|0:0,0:0:0:0:
259,129,46533,2,0,P|281:77|330:50,1,113.999996520996,0|0,1:0|0:0,0:0:0:0:
190,243,46833,1,2,3:0:0:0:
125,62,46983,1,0,0:0:0:0:
66,321,47133,5,0,1:0:0:0:
172,153,47283,1,0,0:0:0:0:
236,375,47433,1,2,3:0:0:0:
89,189,47583,2,0,P|83:133|111:85,1,113.999996520996,0|0,1:0|0:0,0:0:0:0:
314,173,47883,1,0,1:0:0:0:
108,279,48033,1,2,3:0:0:0:
199,60,48183,1,0,1:0:0:0:
317,371,48333,5,12,1:0:0:0:
317,371,48633,1,0,0:0:0:0:
385,310,48783,2,0,L|458:292,1,76
299,281,49083,1,0,0:0:0:0:
367,220,49233,1,0,0:0:0:0:
299,159,49383,2,0,L|225:141,1,76
385,131,49683,1,0,0:0:0:0:
317,70,49833,1,0,0:0:0:0:
411,5,49983,1,2,3:0:0:0:
411,5,50058,1,2,3:0:0:0:
411,5,50133,2,0,L|403:42,1,38,8|0,0:0|0:0,0:0:0:0:
229,50,50283,2,0,L|237:13,1,38,8|0,0:0|0:0,0:0:0:0:
299,159,50433,6,0,B|188:129|204:224|94:195,1,213.750008153916,8|0,0:0|0:0,0:0:0:0:
27,139,50733,5,4,1:0:0:0:
151,42,50883,1,0,0:0:0:0:
142,76,50958,1,2,0:0:0:0:
132,110,51033,1,2,3:0:0:0:
218,268,51183,1,0,0:0:0:0:
321,70,51333,1,0,1:0:0:0:
405,243,51483,2,0,L|312:221,1,95,0|2,0:0|3:0,0:0:0:0:
465,116,51783,1,2,2:1:0:0:
459,316,51933,6,0,P|415:333|368:327,1,95,0|0,1:0|0:0,0:0:0:0:
214,194,52233,1,2,3:0:0:0:
405,243,52383,1,0,0:0:0:0:
186,281,52533,1,0,1:0:0:0:
350,170,52683,1,2,0:0:0:0:
154,125,52833,1,2,3:0:0:0:
120,115,52908,1,0,0:0:0:0:
86,106,52983,1,2,0:0:0:0:
288,44,53133,5,4,1:0:0:0:
322,34,53208,1,0,0:0:0:0:
356,25,53283,1,0,0:0:0:0:
214,194,53433,1,2,3:0:0:0:
405,243,53583,2,0,L|428:248,4,23.75,2|0|2|0|0,0:0|0:0|0:0|0:0|1:0,0:0:0:0:
337,126,53883,2,0,L|290:137,2,47.5,0|0|2,0:0|0:0|3:0,0:0:0:0:
209,287,54183,1,2,2:1:0:0:
120,128,54333,5,0,1:0:0:0:
30,317,54483,2,0,P|77:323|121:306,1,95,0|2,0:0|3:0,0:0:0:0:
210,116,54783,2,0,P|163:109|119:127,1,95,0|0,0:0|1:0,0:0:0:0:
311,230,55083,1,0,0:0:0:0:
249,19,55233,1,8,0:0:0:0:
174,200,55383,1,8,0:0:0:0:
399,88,55533,5,0,1:0:0:0:
98,19,55833,5,2,3:0:0:0:
245,110,55983,2,0,L|239:133,4,23.75,2|0|2|0|0,0:0|0:0|0:0|0:0|1:0,0:0:0:0:
84,203,56283,2,0,L|105:295,1,95,0|2,0:0|3:0,0:0:0:0:
154,103,56583,1,2,2:1:0:0:
0,171,56733,5,0,1:0:0:0:
207,232,56883,2,0,L|230:237,4,23.75,2|0|2|0|2,0:0|0:0|0:0|0:0|3:0,0:0:0:0:
105,295,57183,2,0,L|81:300,4,23.75,2|0|2|0|0,0:0|0:0|0:0|0:0|1:0,0:0:0:0:
170,149,57483,1,0,0:0:0:0:
313,275,57633,2,0,L|323:228,1,47.5,2|2,0:0|0:0,0:0:0:0:
328,275,57783,2,0,L|338:228,1,47.5,2|2,0:0|0:0,0:0:0:0:
382,348,57933,6,0,P|338:365|291:359,1,95,4|0,1:0|0:0,0:0:0:0:
336,138,58233,1,2,3:0:0:0:
422,265,58383,1,0,0:0:0:0:
238,285,58533,2,0,L|214:290,4,23.75,2|0|2|0|0,1:2|0:0|0:0|0:0|0:0,0:0:0:0:
419,175,58833,1,2,3:0:0:0:
254,101,58983,1,0,0:0:0:0:
427,1,59133,5,2,3:2:0:0:
482,33,59208,1,2,0:0:0:0:
508,84,59283,1,2,0:0:0:0:
508,127,59358,1,2,0:0:0:0:
499,149,59433,1,2,0:0:0:0:
375,254,59583,6,0,L|421:264,1,47.5,2|2,3:0|3:0,0:0:0:0:
275,336,59733,2,0,L|322:326,1,47.5,2|2,3:0|3:0,0:0:0:0:
319,152,59883,2,0,L|365:162,1,47.5,2|2,3:0|3:0,0:0:0:0:
217,257,60033,1,8,0:0:0:0:
240,251,60108,1,8,0:0:0:0:
263,245,60183,1,8,0:0:0:0:
286,240,60258,1,8,0:0:0:0:
