osu file format v14

[General]
AudioFilename: audio.mp3
AudioLeadIn: 0
PreviewTime: 30858
Countdown: 0
SampleSet: Soft
StackLeniency: 0.4
Mode: 0
LetterboxInBreaks: 0
WidescreenStoryboard: 1

[Editor]
Bookmarks: 11133,36333,41958,60333
DistanceSpacing: 1
BeatDivisor: 4
GridSize: 32
TimelineZoom: 2.999999

[Metadata]
Title:Kuuchuu Bunkai
TitleUnicode:空中分解
Artist:Three
ArtistUnicode:すりぃ
Creator:Ryuusei Aika
Version:-Eriri-'s Insane
Source:
Tags:Collage Japanese Rock J-Rock JRock Male Vocal Surii ボーカロイド ボカロ VOCALOID 鏡音レン Kagamine Len 真ひろ まめでん ま子 Akitoshi Ujimatcha -ClariS- Yorita Yoshino Yorita_Yoshino Dored Yugu Skyflame Cami wyrio Firika AncuL -Eriri- Laura -Laura- Corinn -Mikan Mikan Bazz Bazz_B X Light X_Light XLT Reform Kujinn Seto Kousuke Seto_Kousuke Djulus -MikanMyMommy gary00737 HabiHolic Haruto Haruto_Aizawa Armin A_r_M_i_N Agatsu Garden kanor Error- -Keitaro SnowNiNo_ Sylas TheKoala CoLouRed GlaZeE CoLouRed_GlaZeE caren_sk CRN
BeatmapID:2062551
BeatmapSetID:952132

[Difficulty]
HPDrainRate:6
CircleSize:3.6
OverallDifficulty:8
ApproachRate:9
SliderMultiplier:2
SliderTickRate:1

[Events]
//Background and Video events
Video,3,"video.mp4"
0,0,"BG.jpg",0,0
//Break Periods
//Storyboard Layer 0 (Background)
//Storyboard Layer 1 (Fail)
//Storyboard Layer 2 (Pass)
//Storyboard Layer 3 (Foreground)
//Storyboard Layer 4 (Overlay)
//Storyboard Sound Samples

[TimingPoints]
333,300,4,2,1,55,1,0
333,-100,4,2,1,55,0,0
520,-100,4,2,1,5,0,0
558,-100,4,2,1,55,0,0
745,-100,4,2,1,5,0,0
783,-100,4,2,1,55,0,0
1233,-100,4,2,1,99,0,0
1458,-100,4,2,1,5,0,0
1533,-100,4,2,1,77,0,0
2658,-100,4,2,1,5,0,0
2733,-100,4,2,1,77,0,0
5058,-100,4,2,1,5,0,0
5133,-100,4,2,1,77,0,0
7458,-100,4,2,1,5,0,0
7533,-100,4,2,1,77,0,0
10008,-100,4,2,1,5,0,0
10083,-100,4,2,1,77,0,0
10308,-100,4,2,1,5,0,0
10383,-100,4,2,1,77,0,0
11133,-100,4,2,1,77,0,0
11433,-125,4,2,0,44,0,0
15933,-125,4,2,1,55,0,0
17320,-125,4,2,1,5,0,0
17358,-125,4,2,1,55,0,0
17620,-125,4,2,1,5,0,0
17658,-125,4,2,1,55,0,0
20283,-125,4,2,1,77,0,0
20733,-111.111111111111,4,2,1,66,0,0
26733,-100,4,2,1,66,0,0
27933,-90.9090909090909,4,2,1,66,0,0
28158,-90.9090909090909,4,2,1,5,0,0
28233,-90.9090909090909,4,2,1,66,0,0
28458,-90.9090909090909,4,2,1,5,0,0
28533,-90.9090909090909,4,2,1,66,0,0
29133,-83.3333333333333,4,2,1,66,0,0
30333,-100,4,2,88,55,0,0
30933,-100,4,2,88,77,0,0
31120,-100,4,2,88,5,0,0
31158,-100,4,2,88,77,0,0
31345,-100,4,2,88,5,0,0
31383,-100,4,2,88,77,0,0
31533,-100,4,2,1,99,0,0
31758,-100,4,2,1,5,0,0
31833,-100,4,2,1,99,0,0
32058,-100,4,2,1,5,0,0
32133,-100,4,2,1,99,0,0
36558,-100,4,2,1,5,0,0
36633,-100,4,2,1,99,0,0
36858,-100,4,2,1,5,0,0
36933,-100,4,2,1,99,0,0
38733,-100,4,2,1,88,0,0
41133,-100,4,2,1,99,0,0
41358,-100,4,2,1,5,0,0
41433,-100,4,2,1,99,0,0
41658,-100,4,2,1,5,0,0
41733,-100,4,2,1,99,0,0
46158,-100,4,2,1,5,0,0
46233,-100,4,2,1,99,0,0
46458,-100,4,2,1,5,0,0
46533,-100,4,2,1,99,0,0
48333,-100,4,2,99,99,0,0
49983,-100,4,2,1,66,0,0
50133,-100,4,2,1,88,0,0
50433,-200,4,2,1,88,0,0
50658,-100,4,2,1,5,0,0
50733,-100,4,2,1,77,0,0
50958,-100,4,2,1,5,0,0
51033,-100,4,2,1,77,0,0
51858,-100,4,2,1,5,0,0
51933,-100,4,2,1,77,0,0
59133,-200,4,2,1,77,0,0
59583,-100,4,2,1,77,0,0
60033,-100,4,2,1,77,0,0

[Colours]
Combo1 : 255,120,55
Combo2 : 0,49,98
Combo3 : 128,64,64

[HitObjects]
159,113,333,6,0,B|122:113|92:123|92:123|92:112|92:112|53:123|21:122,2,150,8|8|8,2:0|2:0|2:0,0:0:0:0:
256,194,933,1,8,2:0:0:0:
474,71,1233,1,2,0:0:0:0:
252,0,1533,6,0,P|234:51|254:100,1,100,4|0,1:0|0:0,0:0:0:0:
327,53,1833,1,2,3:0:0:0:
327,53,1983,1,2,0:0:0:0:
175,195,2133,5,0,1:0:0:0:
256,168,2283,1,0,0:0:0:0:
256,168,2583,6,0,L|262:217,1,50,2|0,2:1|0:0,0:0:0:0:
332,134,2733,2,0,P|385:130|429:169,1,100,0|0,1:0|0:0,0:0:0:0:
499,127,3033,5,2,3:0:0:0:
491,208,3183,1,0,0:0:0:0:
368,291,3333,5,0,1:0:0:0:
360,212,3483,1,0,0:0:0:0:
463,296,3633,6,0,L|456:378,2,50,2|0|0,3:0|0:0|0:0,0:0:0:0:
260,384,3933,6,0,P|281:335|258:284,1,100,0|0,1:0|0:0,0:0:0:0:
196,335,4233,1,2,3:0:0:0:
196,335,4383,1,0,0:0:0:0:
263,194,4533,5,0,1:0:0:0:
188,244,4683,1,0,0:0:0:0:
188,244,4983,6,0,L|182:195,1,50,2|0,2:1|0:0,0:0:0:0:
106,249,5133,2,0,P|62:264|4:228,1,100,0|0,1:0|0:0,0:0:0:0:
0,128,5433,5,2,3:0:0:0:
65,178,5583,1,0,0:0:0:0:
126,93,5733,6,0,L|135:26,1,50,0|0,1:0|0:0,0:0:0:0:
208,67,5883,2,0,L|215:2,1,50
288,51,6033,6,0,B|327:55|327:55|357:42|357:42|421:45,1,100,8|8,3:2|0:0,0:0:0:0:
448,0,6333,6,0,P|430:64|466:108,1,100,4|0,1:0|0:0,0:0:0:0:
512,53,6633,1,2,3:0:0:0:
512,53,6783,1,0,0:0:0:0:
419,175,6933,5,0,1:0:0:0:
508,144,7083,1,0,0:0:0:0:
508,144,7383,6,0,L|500:216,1,50,2|0,2:1|0:0,0:0:0:0:
484,272,7533,2,0,P|430:255|368:279,1,100,0|0,1:0|0:0,0:0:0:0:
290,307,7833,5,2,3:0:0:0:
301,220,7983,1,0,0:0:0:0:
374,349,8133,5,0,1:0:0:0:
207,277,8283,1,0,0:0:0:0:
388,264,8433,6,0,L|439:254,2,50,2|0|0,3:0|0:0|0:0,0:0:0:0:
133,321,8733,6,0,P|119:258|146:214,1,100,0|0,1:0|0:0,0:0:0:0:
192,142,9033,1,2,3:0:0:0:
192,142,9183,6,0,B|74:102|115:182|-2:149,1,200,0|0,1:0|1:0,0:0:0:0:
38,67,9633,1,2,3:0:0:0:
126,10,9783,1,0,0:0:0:0:
139,29,9858,1,0,0:0:0:0:
148,49,9933,6,0,L|125:107,1,50,2|0,3:0|0:0,0:0:0:0:
132,227,10083,2,0,L|113:180,1,50,2|2,0:0|0:0,0:0:0:0:
294,86,10233,6,0,L|312:132,1,50,2|0,3:0|0:0,0:0:0:0:
304,204,10383,2,0,L|322:157,1,50,2|2,0:0|0:0,0:0:0:0:
218,86,10532,6,0,L|199:132,1,50,2|2,3:0|3:0,0:0:0:0:
208,204,10684,2,0,L|189:157,1,50,2|0,3:0|0:0,0:0:0:0:
364,49,10833,6,0,L|382:95,1,50,8|0,0:0|0:0,0:0:0:0:
398,180,10983,2,0,L|380:227,1,50,8|0,0:0|0:0,0:0:0:0:
252,384,11133,5,8,0:0:0:0:
42,322,11433,2,0,L|156:312,1,80,8|0,0:0|0:0,0:0:0:0:
252,384,11733,5,0,0:0:0:0:
459,269,12033,2,0,L|378:269,1,80,8|0,0:0|0:0,0:0:0:0:
252,271,12333,5,0,0:0:0:0:
321,337,12483,1,0,0:0:0:0:
252,271,12633,1,8,0:0:0:0:
398,180,12783,1,0,0:0:0:0:
122,159,13083,6,0,L|18:143,2,80,0|8|0,0:0|0:0|0:0,0:0:0:0:
290,2,13533,6,0,P|278:58|224:78,1,120
199,90,13833,2,0,B|241:78|241:78|294:96|294:96|370:80,1,160,8|0,0:0|0:0,0:0:0:0:
460,61,14283,1,0,0:0:0:0:
353,168,14433,2,0,L|440:154,1,80,8|0,0:0|0:0,0:0:0:0:
511,177,14733,5,0,0:0:0:0:
468,344,14883,1,0,0:0:0:0:
327,248,15033,1,8,0:0:0:0:
433,253,15183,1,0,0:0:0:0:
201,346,15483,5,8,0:0:0:0:
90,289,15633,1,8,0:0:0:0:
201,346,15783,1,8,0:0:0:0:
91,375,15933,5,12,0:0:0:0:
247,236,16233,1,2,0:0:0:0:
247,236,16383,2,0,L|332:248,1,80,2|0,0:0|1:0,0:0:0:0:
237,118,16683,1,2,0:0:0:0:
237,118,16833,1,2,0:0:0:0:
466,91,17133,6,0,L|461:60,1,20,0|0,1:0|0:0,0:0:0:0:
341,135,17283,1,2,0:0:0:0:
456,203,17433,5,2,0:0:0:0:
317,151,17583,1,2,0:0:0:0:
113,270,17733,5,0,1:0:0:0:
200,234,17883,1,2,0:0:0:0:
200,234,17958,1,0,0:0:0:0:
200,234,18033,1,2,0:0:0:0:
189,332,18183,1,0,0:0:0:0:
189,332,18333,6,0,B|286:312|238:357|335:337,1,120,0|0,1:0|0:0,0:0:0:0:
315,358,18633,2,0,P|334:299|267:249,1,120,2|0,0:0|0:0,0:0:0:0:
280,240,18933,1,0,1:0:0:0:
505,152,19083,1,2,0:0:0:0:
434,224,19233,2,0,L|423:318,1,80,2|0,0:0|0:0,0:0:0:0:
347,181,19533,6,0,P|331:144|354:78,1,80,0|0,1:0|0:0,0:0:0:0:
429,20,19833,1,2,0:0:0:0:
419,128,19983,1,2,0:0:0:0:
173,163,20283,5,8,0:0:0:0:
62,74,20433,1,8,0:0:0:0:
148,22,20583,1,8,0:0:0:0:
89,155,20733,6,0,L|100:347,1,179.999994506836,0|8,1:0|0:0,0:0:0:0:
195,375,21183,1,0,0:0:0:0:
195,375,21333,2,0,L|202:263,2,89.9999972534181,0|0|8,1:0|1:0|0:0,0:0:0:0:
15,282,21783,5,0,0:0:0:0:
106,245,21933,2,0,L|100:335,1,89.9999972534181,0|0,1:0|0:0,0:0:0:0:
29,201,22233,1,8,0:0:0:0:
214,105,22383,2,0,L|200:291,1,179.999994506836,0|0,1:0|1:0,0:0:0:0:
337,265,22833,1,8,0:0:0:0:
306,370,22983,1,0,0:0:0:0:
500,223,23133,6,0,P|475:178|385:186,1,134.999995880127,0|0,1:0|0:0,0:0:0:0:
386,195,23433,2,0,L|402:46,1,134.999995880127,8|0,0:0|0:0,0:0:0:0:
403,28,23733,1,0,1:0:0:0:
243,165,23883,1,0,1:0:0:0:
179,9,24033,1,8,0:0:0:0:
273,73,24183,1,0,0:0:0:0:
128,128,24333,6,0,L|137:224,1,89.9999972534181,0|0,1:0|0:0,0:0:0:0:
76,309,24633,1,8,0:0:0:0:
10,204,24783,1,0,1:0:0:0:
255,255,25083,6,0,L|255:355,1,89.9999972534181,0|8,1:0|1:2,0:0:0:0:
190,384,25383,1,0,1:0:0:0:
343,303,25533,5,4,1:0:0:0:
343,303,25683,2,0,B|370:301|370:301|404:323|404:323|441:301,2,89.9999972534181,0|8|0,0:0|0:0|0:0,0:0:0:0:
255,255,26133,1,0,1:0:0:0:
255,255,26283,2,0,L|255:146,1,89.9999972534181,0|8,0:0|0:0,0:0:0:0:
170,233,26583,1,0,0:0:0:0:
170,233,26733,6,0,B|143:231|143:231|109:253|109:253|61:232,2,100,0|0|8,1:0|0:0|0:0,0:0:0:0:
255,104,27183,2,0,L|254:306,1,200,8|0,0:0|1:0,0:0:0:0:
408,149,27633,1,8,0:0:0:0:
338,218,27783,1,0,0:0:0:0:
338,218,27933,6,0,B|365:216|365:216|399:238|399:238|455:218,2,110.000003356934,0|0|8,1:0|0:0|0:0,0:0:0:0:
167,155,28383,1,0,0:0:0:0:
167,155,28533,2,0,B|140:153|140:153|106:175|106:175|50:155,2,110.000003356934,0|0|8,1:0|0:0|0:0,0:0:0:0:
364,126,28983,1,0,0:0:0:0:
152,40,29133,6,0,B|170:84|170:84|160:111|160:111|167:159,1,119.999996337891,0|0,1:0|1:0,0:0:0:0:
360,126,29433,1,8,0:0:0:0:
361,126,29583,2,0,B|311:142|311:142|277:120|277:120|250:122,2,119.999996337891,8|0|0,0:0|0:0|1:0,0:0:0:0:
439,8,30033,2,0,B|424:59|424:59|446:93|446:93|444:120,1,119.999996337891,8|8,0:0|0:0,0:0:0:0:
445,334,30333,5,2,1:0:0:0:
411,202,30933,5,8,1:0:0:0:
209,331,31158,1,8,1:0:0:0:
445,334,31383,1,8,1:0:0:0:
341,268,31533,6,0,P|320:224|342:143,1,100,4|0,1:0|0:0,0:0:0:0:
233,198,31833,2,0,P|236:149|296:90,1,100,2|0,3:0|0:0,0:0:0:0:
447,13,32133,2,0,P|428:63|320:85,1,150,0|0,1:0|0:0,0:0:0:0:
342,93,32433,5,2,3:0:0:0:
197,27,32583,1,0,0:0:0:0:
233,198,32733,2,0,P|234:249|230:314,2,100,0|0|2,1:0|0:0|3:0,0:0:0:0:
19,76,33183,2,0,P|119:90|155:190,1,200,0|0,1:0|1:0,0:0:0:0:
124,333,33633,1,2,3:0:0:0:
21,255,33783,1,0,0:0:0:0:
159,251,33933,6,0,B|243:228|236:294|332:252,1,150,0|0,1:0|0:0,0:0:0:0:
383,301,34233,1,2,3:0:0:0:
383,301,34383,1,0,0:0:0:0:
451,246,34533,1,0,1:0:0:0:
451,246,34683,1,0,0:0:0:0:
399,165,34833,1,2,3:0:0:0:
316,187,34983,6,0,B|237:155|221:255|109:177,1,200,0|0,1:0|1:0,0:0:0:0:
54,141,35433,1,2,3:0:0:0:
184,23,35583,2,0,P|187:78|181:137,1,100,0|0,1:0|0:0,0:0:0:0:
92,281,35883,5,0,1:0:0:0:
316,187,36033,1,2,3:0:0:0:
183,122,36183,1,0,1:0:0:0:
13,255,36333,6,0,P|10:304|37:345,1,100,0|0,1:0|0:0,0:0:0:0:
138,200,36633,2,0,P|101:232|91:280,1,100,2|0,3:0|0:0,0:0:0:0:
54,141,36933,1,0,1:0:0:0:
54,141,37083,1,0,0:0:0:0:
225,191,37233,5,2,3:0:0:0:
180,275,37383,1,0,0:0:0:0:
270,111,37533,2,0,P|267:60|259:3,2,100,0|0|2,1:0|0:0|3:0,0:0:0:0:
482,75,37983,2,0,P|391:84|363:195,1,200,0|0,1:0|1:0,0:0:0:0:
401,255,38433,1,2,3:0:0:0:
401,255,38583,1,0,0:0:0:0:
185,116,38733,6,0,L|45:97,1,100,2|0,3:1|1:0,0:0:0:0:
0,141,39033,1,0,0:0:0:0:
97,15,39183,1,2,3:1:0:0:
158,342,39483,1,2,3:1:0:0:
460,153,39783,2,0,L|353:145,1,100,2|0,3:1|0:0,0:0:0:0:
251,223,40083,1,2,1:0:0:0:
397,62,40233,1,0,3:0:0:0:
185,116,40383,6,0,L|123:111,2,50,0|0|0,1:0|1:0|1:0,0:0:0:0:
369,229,40683,2,0,L|418:233,2,50,2|2|2,3:0|3:0|3:0,0:0:0:0:
268,314,40983,1,8,0:0:0:0:
268,314,41058,1,8,0:0:0:0:
268,314,41133,6,0,P|220:311|171:268,1,100,4|0,1:0|0:0,0:0:0:0:
126,360,41433,2,0,P|94:323|91:258,1,100,2|0,3:0|0:0,0:0:0:0:
127,175,41733,2,0,P|81:240|0:244,1,150,0|0,1:0|0:0,0:0:0:0:
15,249,42033,1,2,3:0:0:0:
71,60,42183,1,0,0:0:0:0:
195,127,42333,2,0,L|312:119,2,100,0|0|2,1:0|1:0|3:0,0:0:0:0:
419,47,42783,2,0,P|339:96|366:187,1,200,0|0,1:0|1:0,0:0:0:0:
440,255,43233,1,2,3:0:0:0:
425,128,43383,1,0,1:0:0:0:
306,250,43533,6,0,B|236:262|237:215|135:234,1,150,4|0,1:2|0:0,0:0:0:0:
83,275,43833,1,2,3:0:0:0:
83,275,43983,1,0,0:0:0:0:
10,226,44133,1,0,1:0:0:0:
10,226,44283,1,0,1:0:0:0:
44,144,44433,1,2,3:0:0:0:
131,152,44583,6,0,B|236:111|220:224|340:152,1,200,2|0,1:2|1:0,0:0:0:0:
410,115,45033,1,2,3:0:0:0:
283,3,45183,2,0,P|262:57|275:98,1,100,0|0,1:0|0:0,0:0:0:0:
504,0,45483,5,0,1:0:0:0:
343,55,45633,1,2,3:0:0:0:
512,174,45783,1,0,1:0:0:0:
373,238,45933,6,0,P|329:203|321:153,1,100,4|0,1:0|0:0,0:0:0:0:
236,194,46233,2,0,P|229:138|259:97,1,100,2|0,3:0|0:0,0:0:0:0:
343,55,46533,1,0,1:0:0:0:
343,55,46683,1,0,1:0:0:0:
139,3,46833,1,2,3:0:0:0:
158,86,46983,1,0,0:0:0:0:
228,25,47133,5,0,1:0:0:0:
74,66,47283,1,0,0:0:0:0:
228,25,47433,1,2,3:0:0:0:
236,194,47583,2,0,L|223:293,1,100,0|0,1:0|0:0,0:0:0:0:
174,356,47883,5,0,1:0:0:0:
80,256,48033,1,2,3:0:0:0:
80,256,48183,1,0,1:0:0:0:
328,154,48333,2,0,L|342:55,1,100,12|0,1:0|0:0,0:0:0:0:
296,328,49983,5,2,3:0:0:0:
296,328,50058,1,2,3:0:0:0:
296,328,50133,2,0,L|216:314,1,50,8|8,0:0|0:0,0:0:0:0:
386,375,50283,2,0,L|444:370,1,50,8|8,0:0|0:0,0:0:0:0:
453,355,50433,6,0,P|458:308|435:270,1,75,8|0,0:0|0:0,0:0:0:0:
494,140,50733,5,4,1:0:0:0:
494,140,50883,1,0,0:0:0:0:
417,181,51033,1,2,3:0:0:0:
417,181,51183,1,0,0:0:0:0:
336,135,51333,2,0,P|326:85|360:28,2,100,0|0|2,1:0|0:0|3:0,0:0:0:0:
270,241,51783,5,2,2:1:0:0:
194,184,51933,2,0,L|66:191,1,100,0|0,1:0|0:0,0:0:0:0:
0,122,52233,1,2,3:0:0:0:
105,18,52383,2,0,P|124:63|111:110,1,100,0|0,0:0|1:0,0:0:0:0:
51,257,52683,5,2,0:0:0:0:
196,185,52833,1,2,3:0:0:0:
196,185,52908,1,0,0:0:0:0:
196,185,52983,1,2,0:0:0:0:
270,241,53133,6,0,L|260:353,1,100,4|0,1:0|0:0,0:0:0:0:
340,380,53433,1,2,3:0:0:0:
179,343,53583,2,0,L|117:353,2,50,2|0|0,0:0|0:0|1:0,0:0:0:0:
351,297,53883,2,0,L|413:307,2,50,0|0|2,0:0|0:0|3:0,0:0:0:0:
494,229,54183,5,2,2:1:0:0:
494,229,54333,2,0,P|491:278|489:328,2,100,0|0|2,1:0|0:0|3:0,0:0:0:0:
390,213,54783,1,0,0:0:0:0:
390,213,54933,2,0,P|333:204|301:179,1,100,0|0,1:0|0:0,0:0:0:0:
452,145,55233,2,0,L|447:26,1,100,8|8,0:0|0:0,0:0:0:0:
349,6,55533,6,0,P|316:42|252:50,1,100,0|0,1:0|0:0,0:0:0:0:
58,0,55833,1,2,3:0:0:0:
105,88,55983,2,0,P|107:105|91:112,2,25,2|0|2,0:0|0:0|0:0,0:0:0:0:
88,77,56133,6,0,B|117:81|117:81|208:87,2,100,0|0|2,1:0|0:0|3:0,0:0:0:0:
21,133,56583,1,2,2:1:0:0:
78,185,56733,2,0,P|94:230|73:280,1,100,0|2,1:0|0:0,0:0:0:0:
22,340,57033,5,2,3:0:0:0:
162,289,57183,1,2,0:0:0:0:
76,276,57333,5,0,1:0:0:0:
107,352,57483,1,0,0:0:0:0:
162,289,57633,2,0,L|152:218,3,50,2|0|0|0,0:0|0:0|0:0|0:0,0:0:0:0:
181,186,57933,6,0,L|173:292,1,100,4|0,1:0|0:0,0:0:0:0:
9,225,58233,1,2,3:0:0:0:
290,108,58383,2,0,P|274:106|268:119,2,25
283,131,58533,6,0,L|291:237,1,100,2|0,1:2|0:0,0:0:0:0:
332,323,58833,2,0,P|385:327|433:291,1,100,2|0,3:0|0:0,0:0:0:0:
496,257,59133,6,0,B|502:229|486:200|486:200|492:195|492:195|480:158|491:126,1,125,2|0,3:2|0:0,0:0:0:0:
459,61,59583,6,0,L|465:4,3,50,2|2|2|2,3:0|3:0|3:0|3:0,0:0:0:0:
372,151,59883,2,0,L|374:203,1,50,2|2,3:0|3:0,0:0:0:0:
256,112,60033,5,8,0:0:0:0:
211,107,60108,1,8,0:0:0:0:
156,118,60183,5,8,0:0:0:0:
105,109,60258,1,8,0:0:0:0:
