osu file format v14

[General]
AudioFilename: audio.ogg
AudioLeadIn: 0
PreviewTime:30858
Countdown: 0
SampleSet: Soft
StackLeniency: 0.4
Mode: 0
LetterboxInBreaks: 0
WidescreenStoryboard: 1

[Editor]
DistanceSpacing: 1
BeatDivisor: 4
GridSize: 32
TimelineZoom: 2.799999

[Metadata]
Title:Kuuchuu Bunkai
TitleUnicode:空中分解
Artist:Three
ArtistUnicode:すりぃ
Creator:Kuki1537
Version:Normal
Source:
Tags:Collage Japanese Rock J-Rock JRock Male Vocal Surii ボーカロイド ボカロ VOCALOID 鏡音レン Kagamine Len 真ひろ まめでん ま子 enuhq full_combo olsonn hanabyte
BeatmapID:3539052
BeatmapSetID:1731357

[Difficulty]
HPDrainRate:3
CircleSize:3.2
OverallDifficulty:4
ApproachRate:5.5
SliderMultiplier:0.999999999999999
SliderTickRate:1

[Events]
//Background and Video events
Video,0,"video.mp4"
0,0,"682aba44-5340-42b3-bf44-3788d5c011e7.jpg",0,0
//Break Periods
//Storyboard Layer 0 (Background)
//Storyboard Layer 1 (Fail)
//Storyboard Layer 2 (Pass)
//Storyboard Layer 3 (Foreground)
//Storyboard Layer 4 (Overlay)
//Storyboard Sound Samples

[TimingPoints]
333,300,4,2,22,70,1,0
1458,-100,4,2,22,5,0,0
1533,-100,4,2,22,80,0,0
6258,-100,4,2,22,5,0,0
6333,-100,4,2,22,80,0,0
11133,-100,4,2,22,55,0,0
20733,-100,4,2,22,65,0,0
25533,-100,4,2,22,75,0,0
30351,-100,4,2,22,30,0,0
30933,-100,4,2,22,75,0,0
31533,-100,4,2,22,85,0,1
43758,-100,4,2,22,5,0,1
43833,-100,4,2,22,85,0,1
48333,-100,4,2,22,85,0,0
48633,-100,4,2,22,5,0,0
49983,-100,4,2,22,70,0,0
50658,-100,4,2,22,5,0,0
50733,-100,4,2,22,80,0,0

[Colours]
Combo1 : 236,168,66
Combo2 : 192,193,181
Combo3 : 255,64,64

[HitObjects]
14,57,333,6,0,P|43:26|196:22,1,200,2|2,0:2|0:2,0:2:0:0:
256,93,1233,1,2,0:2:0:0:
177,155,1533,6,0,L|167:268,1,99.9999999999999,6|10,1:2|0:2,0:0:0:0:
166,304,1983,2,0,L|215:299,2,50,2|2|2,0:2|1:2|0:2,0:0:0:0:
93,372,2583,1,2,0:2:0:0:
93,372,2733,2,0,P|55:377|-6:351,1,99.9999999999999,2|10,1:2|0:2,0:2:0:0:
13,256,3333,2,0,L|24:149,1,99.9999999999999,2|10,1:2|0:2,0:0:0:0:
106,101,3933,6,0,P|134:91|207:111,1,99.9999999999999,6|10,1:2|0:2,0:0:0:0:
242,133,4383,2,0,L|251:79,2,50,2|2|2,0:2|1:2|0:2,0:0:0:0:
289,227,4983,1,2,0:2:0:0:
289,227,5133,2,0,P|326:253|394:244,1,99.9999999999999,2|10,1:2|0:2,0:2:0:0:
477,229,5733,2,0,L|487:175,1,50,2|2,1:2|0:2,0:0:0:0:
495,130,6033,1,10,0:2:0:0:
402,92,6333,6,0,P|354:87|282:75,1,99.9999999999999,6|10,1:2|0:2,0:0:0:0:
253,71,6783,2,0,P|246:42|243:18,2,50,2|2|2,0:2|1:2|0:2,0:0:0:0:
162,109,7383,1,2,0:2:0:0:
162,109,7533,2,0,P|135:157|138:217,1,99.9999999999999,2|10,1:2|0:2,0:2:0:0:
225,240,8133,2,0,L|336:259,1,99.9999999999999,2|10,1:2|0:2,0:0:0:0:
307,355,8733,6,0,L|208:338,1,99.9999999999999,6|10,1:2|0:2,0:0:0:0:
159,328,9183,2,0,L|167:381,2,50,2|2|2,0:2|1:2|0:2,0:0:0:0:
71,289,9783,1,2,0:2:0:0:
71,289,9933,2,0,P|37:335|-13:350,2,99.9999999999999,10|10|10,0:2|0:2|0:2,0:2:0:0:
25,200,10833,2,0,L|20:147,1,50,10|8,0:2|0:2,0:0:0:0:
14,100,11133,6,0,L|121:115,1,99.9999999999999,6|8,1:2|0:1,0:2:0:0:
208,15,12033,1,8,0:1:0:0:
347,33,12633,1,8,0:1:0:0:
432,144,13233,1,8,0:1:0:0:
414,283,13833,1,8,0:1:0:0:
303,368,14433,1,8,0:1:0:0:
164,350,15033,1,8,0:1:0:0:
97,283,15333,5,0,1:2:0:0:
97,283,15483,2,0,L|42:278,2,50,10|10|10,0:2|0:2|0:2,0:0:0:0:
133,248,15933,6,0,P|142:198|111:160,1,99.9999999999999,6|0,1:2|0:2,0:2:0:0:
70,137,16383,2,0,L|16:150,2,50,2|2|2,0:0|1:2|0:0,0:0:0:0:
113,49,16983,1,2,0:0:0:0:
113,49,17133,2,0,P|150:25|222:35,1,99.9999999999999,2|2,1:2|0:2,0:2:0:0:
250,46,17583,1,2,0:2:0:0:
306,128,17883,2,0,L|355:139,2,50,2|2|2,0:2|0:2|0:2,0:0:0:0:
264,155,18333,6,0,P|256:207|241:267,1,99.9999999999999,2|2,1:2|0:2,0:2:0:0:
150,219,18933,2,0,P|142:251|141:277,2,50,2|2|2,1:2|0:0|0:2,0:2:0:0:
131,120,19533,2,0,P|160:89|222:78,1,99.9999999999999,2|2,1:2|0:2,0:2:0:0:
256,48,19983,1,2,0:0:0:0:
355,48,20283,2,0,L|366:-16,2,50,10|10|10,0:2|0:2|0:2,0:0:0:0:
392,81,20733,6,0,P|437:113|460:166,1,99.9999999999999,2|8,1:2|0:2,0:2:0:0:
498,181,21183,1,2,0:2:0:0:
466,275,21483,2,0,L|362:290,1,99.9999999999999,2|2,1:2|0:2,0:2:0:0:
339,248,21933,2,0,P|299:222|234:219,1,99.9999999999999,2|10,1:2|0:2,0:2:0:0:
199,231,22383,1,10,0:2:0:0:
157,322,22683,2,0,L|166:380,2,50,2|10|2,1:2|0:2|0:2,0:0:0:0:
113,296,23133,6,0,L|96:197,1,99.9999999999999,2|10,1:2|0:2,0:2:0:0:
49,109,23733,2,0,L|-7:116,2,50,2|2|10,0:2|1:2|0:2,0:0:0:0:
82,72,24183,1,2,0:2:0:0:
168,21,24483,2,0,L|222:30,1,50,2|10,1:2|0:2,0:0:0:0:
242,72,24783,2,0,L|341:54,1,99.9999999999999,10|2,0:2|1:2,0:2:0:0:
368,95,25233,1,10,0:2:0:0:
296,164,25533,6,0,P|304:206|282:267,1,99.9999999999999,6|8,1:2|0:2,0:2:0:0:
251,294,25983,2,0,L|192:285,2,50,2|2|2,0:2|0:2|1:2,0:0:0:0:
339,352,26583,1,2,0:2:0:0:
339,352,26733,2,0,P|379:344|436:365,1,99.9999999999999,2|10,1:2|0:2,0:0:0:0:
473,332,27183,2,0,L|484:229,1,99.9999999999999,10|2,0:2|1:2,0:2:0:0:
489,183,27633,1,10,0:2:0:0:
486,83,27933,5,6,1:2:0:0:
387,68,28233,1,10,0:2:0:0:
288,53,28533,2,0,L|233:46,1,50,2|0,1:2|1:2,0:2:0:0:
189,38,28833,1,10,0:2:0:0:
108,97,29133,2,0,P|75:82|56:77,2,50,2|2|10,1:2|1:2|0:2,0:0:0:0:
139,136,29583,2,0,L|130:244,1,99.9999999999999,10|10,0:2|0:2,0:0:0:0:
92,268,30033,2,0,L|98:325,1,50,10|10,0:2|0:2,0:0:0:0:
104,367,30333,1,0,3:2:0:0:
293,301,30933,6,0,P|325:265|426:262,1,150,10|10,0:2|0:2,0:2:0:0:
466,282,31533,5,6,1:2:0:0:
510,192,31833,1,10,0:2:0:0:
465,102,32133,2,0,L|344:122,1,99.9999999999999,2|10,1:2|0:2,0:0:0:0:
316,124,32583,2,0,P|291:81|301:16,2,99.9999999999999,2|2|2,0:2|0:2|1:2,0:2:0:0:
360,219,33483,1,2,1:2:0:0:
360,219,33633,2,0,L|306:227,1,50,10|2,0:2|0:2,0:0:0:0:
270,256,33933,6,0,P|240:274|160:272,1,99.9999999999999,2|10,1:2|0:2,0:0:0:0:
87,324,34533,2,0,L|96:375,2,50,2|2|10,1:2|1:2|0:2,0:0:0:0:
48,291,34983,2,0,P|35:242|67:181,1,99.9999999999999,2|2,0:2|0:2,0:2:0:0:
85,160,35433,2,0,L|76:110,1,50,10|2,0:2|1:2,0:0:0:0:
159,55,35883,2,0,L|150:2,2,50,2|10|2,1:2|0:2|0:2,0:0:0:0:
203,79,36333,5,6,1:2:0:0:
296,44,36633,1,10,0:2:0:0:
372,108,36933,2,0,P|412:127|485:129,1,99.9999999999999,2|10,1:2|0:2,0:0:0:0:
512,226,37533,1,2,1:2:0:0:
512,226,37683,2,0,P|467:226|401:256,1,99.9999999999999,2|2,0:2|1:2,0:2:0:0:
371,336,38283,1,2,1:2:0:0:
371,336,38433,2,0,P|337:330|322:317,1,50,10|2,0:2|0:2,0:0:0:0:
293,283,38733,6,0,L|283:168,1,99.9999999999999,10|2,0:2|0:2,0:0:0:0:
248,148,39183,1,6,1:2:0:0:
283,54,39483,1,6,1:2:0:0:
197,1,39783,2,0,P|143:10|89:32,1,99.9999999999999,2|0,1:2|1:2,0:0:0:0:
58,50,40233,1,10,0:2:0:0:
58,50,40383,2,0,L|70:166,1,99.9999999999999,10|10,0:2|0:2,0:0:0:0:
73,199,40833,1,10,0:2:0:0:
25,286,41133,5,6,1:2:0:0:
98,354,41433,1,10,0:2:0:0:
194,326,41733,2,0,P|186:276|179:227,1,99.9999999999999,2|10,1:2|0:2,0:0:0:0:
267,176,42333,1,2,1:2:0:0:
267,176,42483,2,0,P|259:123|251:67,1,99.9999999999999,2|2,0:2|1:2,0:2:0:0:
330,13,43083,1,2,1:2:0:0:
330,13,43233,2,0,P|366:13|394:29,1,50,10|2,0:2|0:2,0:0:0:0:
409,59,43533,6,0,L|421:173,1,99.9999999999999,6|10,1:2|0:2,0:2:0:0:
453,254,44133,2,0,P|489:258|511:268,2,50,2|2|10,1:2|1:2|0:2,0:0:0:0:
423,294,44583,2,0,P|388:317|330:317,1,99.9999999999999,2|2,0:2|0:2,0:2:0:0:
291,287,45033,2,0,P|267:278|233:275,1,50,10|2,0:2|1:2,0:0:0:0:
145,297,45483,2,0,L|150:358,2,50,2|10|2,1:2|0:2|0:2,0:0:0:0:
115,256,45933,5,6,1:2:0:0:
178,178,46233,1,10,0:2:0:0:
139,85,46533,2,0,P|90:77|38:102,1,99.9999999999999,2|10,1:2|0:2,0:0:0:0:
19,140,46983,1,2,0:2:0:0:
19,140,47133,2,0,P|15:177|10:252,1,99.9999999999999,2|10,1:2|0:2,0:0:0:0:
7,289,47583,1,2,1:2:0:0:
85,359,47883,1,2,1:2:0:0:
85,359,48033,2,0,P|121:350|141:335,1,50,10|2,0:2|0:2,0:0:0:0:
170,311,48333,6,0,P|221:322|288:329,1,99.9999999999999,2|0,1:2|0:2,0:2:0:0:
443,271,49983,6,0,L|427:108,1,150,0|12,1:2|0:2,0:0:0:0:
463,28,50733,6,0,P|412:21|358:49,1,99.9999999999999,6|10,1:2|0:2,0:0:0:0:
329,71,51183,2,0,L|319:137,2,50,2|2|2,0:2|1:2|0:2,0:0:0:0:
246,24,51783,1,2,0:2:0:0:
246,24,51933,2,0,P|195:15|147:41,1,99.9999999999999,2|10,1:2|0:2,0:2:0:0:
119,129,52533,2,0,P|128:181|146:247,1,99.9999999999999,2|10,1:2|0:2,0:0:0:0:
178,318,53133,6,0,P|142:326|79:306,1,99.9999999999999,6|10,1:2|0:2,0:0:0:0:
42,277,53583,1,2,0:2:0:0:
42,277,53733,2,0,P|33:225|15:159,1,99.9999999999999,2|10,1:2|0:2,0:2:0:0:
80,99,54333,2,0,L|203:113,1,99.9999999999999,2|8,1:2|0:2,0:0:0:0:
253,43,54933,2,0,L|310:35,1,50,0|2,1:2|0:2,0:0:0:0:
352,28,55233,1,14,0:2:0:0:
451,33,55533,6,0,P|482:77|469:140,1,99.9999999999999,6|0,1:2|1:2,0:2:0:0:
473,171,55983,2,0,B|467:234,1,50,0|2,3:2|1:2,0:2:0:0:
464,270,56283,1,2,0:2:0:0:
391,339,56583,1,2,0:2:0:0:
391,339,56733,2,0,P|346:318|290:318,2,99.9999999999999,2|2|2,1:2|1:2|1:2,0:0:0:0:
378,239,57633,2,0,L|371:185,1,50,0|0,1:2|1:2,0:0:0:0:
367,139,57933,6,0,P|328:135|256:122,1,99.9999999999999,6|10,1:2|0:2,0:2:0:0:
235,94,58383,1,2,0:2:0:0:
235,94,58533,2,0,P|196:98|124:111,1,99.9999999999999,0|8,1:2|0:2,0:2:0:0:
58,171,59133,2,0,L|49:277,1,99.9999999999999,10|2,0:2|0:0,0:0:0:0:
27,315,59583,2,0,P|68:314|149:328,1,99.9999999999999,8|8,0:2|0:2,0:0:0:0:
179,337,60033,1,2,1:2:0:0:
179,337,60183,1,2,1:2:0:0:
