osu file format v14

[General]
AudioFilename: audio.ogg
AudioLeadIn: 0
PreviewTime:30858
Countdown: 0
SampleSet: Soft
StackLeniency: 0.4
Mode: 0
LetterboxInBreaks: 0
WidescreenStoryboard: 1

[Editor]
DistanceSpacing: 1.4
BeatDivisor: 4
GridSize: 32
TimelineZoom: 2.799999

[Metadata]
Title:Kuuchuu Bunkai
TitleUnicode:空中分解
Artist:Three
ArtistUnicode:すりぃ
Creator:Kuki1537
Version:Enu's Hard
Source:
Tags:Collage Japanese Rock J-Rock JRock Male Vocal Surii ボーカロイド ボカロ VOCALOID 鏡音レン Kagamine Len 真ひろ まめでん ま子 enuhq full_combo olsonn hanabyte
BeatmapID:3539628
BeatmapSetID:1731357

[Difficulty]
HPDrainRate:4
CircleSize:3.4
OverallDifficulty:6.4
ApproachRate:7.8
SliderMultiplier:1.42
SliderTickRate:1

[Events]
//Background and Video events
Video,0,"video.mp4"
0,0,"682aba44-5340-42b3-bf44-3788d5c011e7.jpg",0,0
//Break Periods
//Storyboard Layer 0 (Background)
//Storyboard Layer 1 (Fail)
//Storyboard Layer 2 (Pass)
//Storyboard Layer 3 (Foreground)
//Storyboard Layer 4 (Overlay)
//Storyboard Sound Samples

[TimingPoints]
333,300,4,2,22,70,1,0
1458,-100,4,2,22,5,0,0
1533,-98.0392156862745,4,2,22,80,0,0
6258,-98.0392156862745,4,2,22,5,0,0
6333,-98.0392156862745,4,2,22,80,0,0
11133,-121.951219512195,4,2,22,55,0,0
15933,-116.279069767442,4,2,22,55,0,0
20733,-108.695652173913,4,2,22,65,0,0
25533,-108.695652173913,4,2,22,75,0,0
30351,-108.695652173913,4,2,22,30,0,0
30933,-108.695652173913,4,2,22,75,0,0
31533,-98.0392156862745,4,2,22,85,0,0
43758,-98.0392156862745,4,2,22,5,0,0
43833,-98.0392156862745,4,2,22,85,0,0
48633,-98.0392156862745,4,2,22,5,0,0
49983,-98.0392156862745,4,2,22,70,0,0
50658,-98.0392156862745,4,2,22,5,0,0
50733,-98.0392156862745,4,2,22,80,0,0

[Colours]
Combo1 : 236,168,66
Combo2 : 192,193,181
Combo3 : 255,64,64

[HitObjects]
134,53,1533,6,0,P|186:40|239:29,1,108.630000663025,6|0,1:2|0:0,0:0:0:0:
274,51,1833,2,0,P|309:59|344:68,1,72.4200004420166,10|2,0:2|0:2,0:0:0:0:
414,10,2133,1,2,1:2:0:0:
474,79,2283,2,0,P|464:119|454:163,1,72.4200004420166,2|8,0:2|0:2,0:2:0:0:
372,177,2583,6,0,P|388:249|406:328,1,144.840000884033,2|2,0:2|0:2,0:0:0:0:
336,377,3033,2,0,P|307:354|272:349,1,72.4200004420166,10|2,0:2|0:2,0:2:0:0:
202,293,3333,2,0,P|173:315|138:320,1,72.4200004420166,2|2,1:2|0:2,0:0:0:0:
68,369,3633,1,10,0:2:0:0:
68,369,3783,1,2,0:2:0:0:
12,293,3933,6,0,P|23:242|36:186,1,108.630000663025,6|0,1:2|0:0,0:0:0:0:
54,155,4233,2,0,P|44:114|34:70,1,72.4200004420166,10|2,0:2|0:2,0:0:0:0:
98,19,4533,1,2,1:2:0:0:
163,82,4683,2,0,P|191:60|226:54,1,72.4200004420166,2|8,0:2|0:2,0:2:0:0:
307,6,4983,6,0,P|337:72|314:138,1,144.840000884033,2|2,0:2|0:2,0:0:0:0:
255,219,5433,2,0,P|295:229|339:239,1,72.4200004420166,10|2,0:2|0:2,0:2:0:0:
377,313,5733,1,2,1:2:0:0:
377,313,5883,1,2,0:2:0:0:
445,256,6033,2,0,P|455:216|465:172,1,72.4200004420166,10|0,0:2|0:0,0:2:0:0:
474,84,6333,6,0,P|423:101|373:83,1,108.630000663025,6|0,1:2|0:0,0:0:0:0:
344,55,6633,2,0,P|308:44|273:54,1,72.4200004420166,10|2,0:2|0:2,0:0:0:0:
224,128,6933,1,2,1:2:0:0:
146,63,7083,2,0,P|136:104|126:148,1,72.4200004420166,2|8,0:2|0:2,0:2:0:0:
43,182,7383,6,0,P|27:254|9:333,1,144.840000884033,2|2,0:2|0:2,0:0:0:0:
118,300,7833,2,0,P|147:323|182:328,1,72.4200004420166,10|2,0:2|0:2,0:2:0:0:
259,381,8133,2,0,P|288:359|323:354,1,72.4200004420166,2|2,1:2|0:2,0:0:0:0:
388,299,8433,1,10,0:2:0:0:
388,299,8583,1,2,0:2:0:0:
472,362,8733,6,0,B|492:313|492:313|473:258,1,108.630000663025,6|0,1:2|0:0,0:0:0:0:
481,229,9033,2,0,B|468:194|468:194|479:160,1,72.4200004420166,10|2,0:2|0:2,0:0:0:0:
509,78,9333,1,2,1:2:0:0:
422,40,9483,2,0,P|381:50|337:60,1,72.4200004420166,2|8,0:2|0:2,0:2:0:0:
270,105,9783,6,0,P|229:95|185:85,1,72.4200004420166,2|10,0:2|0:2,0:0:0:0:
127,154,10083,2,0,L|85:144,2,36.2100002210083,0|0|10,1:2|1:2|0:2,0:0:0:0:
190,219,10383,2,0,L|231:228,2,36.2100002210083,0|0|10,1:2|1:2|0:2,0:0:0:0:
113,273,10683,1,8,0:2:0:0:
166,351,10833,2,0,L|207:360,3,36.2100002210083,10|8|8|8,0:2|0:2|0:2|0:2,0:0:0:0:
225,364,11133,6,0,L|304:345,1,58.2200008883667,6|0,1:2|0:0,0:2:0:0:
357,324,11433,1,8,0:1:0:0:
233,201,12033,1,8,0:1:0:0:
357,77,12633,1,8,0:1:0:0:
480,201,13233,1,8,0:1:0:0:
357,324,13833,5,8,0:1:0:0:
233,201,14433,1,8,0:1:0:0:
357,77,15033,1,8,0:1:0:0:
463,184,15333,1,0,1:2:0:0:
463,184,15483,1,10,0:2:0:0:
406,242,15633,1,10,0:2:0:0:
452,308,15783,1,10,0:2:0:0:
389,366,15933,6,0,L|266:337,1,122.120001863403,6|0,1:2|0:2,0:2:0:0:
169,200,16533,2,0,L|291:228,1,122.120001863403,0|0,1:2|0:2,0:2:0:0:
418,116,17133,6,0,L|358:102,1,61.0600009317017,2|2,1:2|0:2,0:2:0:0:
297,50,17433,1,2,0:2:0:0:
297,50,17583,2,0,L|237:63,1,61.0600009317017,2|2,0:2|1:2,0:0:0:0:
154,85,17883,2,0,L|140:25,2,61.0600009317017,2|2|2,0:2|0:2|0:2,0:0:0:0:
71,108,18333,6,0,L|99:230,1,122.120001863403,0|0,1:2|0:2,0:2:0:0:
237,175,18933,2,0,L|209:297,1,122.120001863403,0|0,1:2|0:2,0:2:0:0:
330,376,19533,6,0,L|390:362,1,61.0600009317017,0|0,1:2|0:0,0:2:0:0:
469,340,19833,1,0,0:2:0:0:
469,340,19983,2,0,L|456:280,1,61.0600009317017,0|0,0:0|1:2,0:0:0:0:
384,233,20283,1,10,0:2:0:0:
384,233,20433,1,10,0:2:0:0:
442,164,20583,1,10,0:2:0:0:
371,109,20733,6,0,L|243:138,1,130.639995614502,2|8,1:2|0:2,0:2:0:0:
173,88,21183,1,2,0:2:0:0:
173,88,21333,2,0,P|182:59|207:34,2,65.319997807251,2|2|8,0:2|1:2|0:2,0:0:0:0:
101,144,21783,1,2,0:2:0:0:
167,207,21933,6,0,L|152:273,1,65.319997807251,2|2,1:2|0:2,0:2:0:0:
92,340,22233,1,10,0:2:0:0:
92,340,22383,2,0,L|222:374,1,130.639995614502,10|2,0:2|1:2,0:2:0:0:
284,310,22833,1,10,0:2:0:0:
284,310,22983,1,2,0:2:0:0:
349,373,23133,6,0,P|374:314|357:252,1,130.639995614502,2|10,1:2|0:2,0:2:0:0:
196,176,23733,1,2,0:2:0:0:
196,176,23883,1,2,1:2:0:0:
260,110,24033,2,0,L|326:125,1,65.319997807251,10|2,0:2|0:2,0:0:0:0:
423,134,24333,6,0,L|438:68,2,65.319997807251,0|2|10,1:2|1:2|0:2,0:0:0:0:
456,228,24783,2,0,B|485:284|485:284|458:346,1,130.639995614502,10|2,0:2|1:2,0:2:0:0:
383,292,25233,2,0,L|317:307,1,65.319997807251,10|2,0:2|0:2,0:0:0:0:
242,356,25533,6,0,L|115:322,1,130.639995614502,6|8,1:2|0:2,0:2:0:0:
45,273,25983,1,2,0:2:0:0:
45,273,26133,2,0,P|36:302|11:327,2,65.319997807251,2|2|8,0:2|1:2|0:2,0:0:0:0:
8,194,26583,5,2,0:2:0:0:
8,194,26733,2,0,L|74:179,1,65.319997807251,2|2,1:2|0:2,0:0:0:0:
140,119,27033,1,10,0:2:0:0:
140,119,27183,2,0,L|267:153,1,130.639995614502,10|2,0:2|1:2,0:2:0:0:
330,225,27633,1,10,0:2:0:0:
330,225,27783,1,2,0:2:0:0:
401,142,27933,6,0,P|406:174|422:201,1,65.319997807251,6|0,1:2|0:2,0:2:0:0:
476,279,28233,2,0,P|471:311|454:338,1,65.319997807251,10|0,0:2|0:2,0:2:0:0:
364,376,28533,2,0,P|331:367|298:361,1,65.319997807251,2|0,1:2|1:2,0:2:0:0:
220,306,28833,1,10,0:2:0:0:
220,306,28983,1,0,0:2:0:0:
119,319,29133,6,0,P|113:350|126:388,2,65.319997807251,2|2|10,1:2|1:2|0:2,0:0:0:0:
45,257,29583,2,0,P|54:224|60:191,1,65.319997807251,10|0,0:2|1:2,0:0:0:0:
100,109,29883,1,10,0:2:0:0:
176,163,30033,1,10,0:2:0:0:
245,102,30183,1,10,0:2:0:0:
453,318,30933,6,0,L|479:204,2,97.9799967108766,10|10|10,0:2|0:2|0:2,0:2:0:0:
379,376,31533,2,0,P|348:357|312:358,1,72.4200004420166,6|0,1:2|0:2,0:2:0:0:
234,314,31833,2,0,P|203:332|167:331,1,72.4200004420166,10|0,0:2|0:2,0:2:0:0:
48,384,32133,2,0,P|75:319|45:255,1,144.840000884033,2|10,1:2|0:2,0:0:0:0:
102,179,32583,1,2,0:2:0:0:
28,110,32733,6,0,P|60:98|96:85,1,72.4200004420166,0|2,1:2|0:2,0:0:0:0:
169,24,33033,1,8,0:2:0:0:
169,24,33183,2,0,P|244:40|316:57,1,144.840000884033,2|2,1:2|1:2,0:2:0:0:
387,0,33633,1,10,0:2:0:0:
387,0,33783,1,2,0:2:0:0:
444,77,33933,6,0,P|414:140|441:205,1,144.840000884033,2|10,1:2|0:2,0:0:0:0:
497,290,34383,1,2,0:2:0:0:
436,358,34533,2,0,P|400:349|365:341,1,72.4200004420166,2|2,1:2|1:2,0:0:0:0:
290,279,34833,1,10,0:2:0:0:
216,357,34983,6,0,P|199:281|182:209,1,144.840000884033,2|2,0:2|0:2,0:2:0:0:
260,159,35433,1,10,0:2:0:0:
199,86,35583,2,0,P|134:58|70:88,1,144.840000884033,2|2,1:2|1:2,0:2:0:0:
8,154,36033,1,10,0:2:0:0:
8,154,36183,1,2,0:2:0:0:
66,226,36333,6,0,P|57:261|49:296,1,72.4200004420166,6|0,1:2|0:2,0:2:0:0:
106,371,36633,2,0,P|137:352|173:353,1,72.4200004420166,10|0,0:2|0:2,0:2:0:0:
243,278,36933,1,2,1:2:0:0:
243,278,37083,1,2,1:2:0:0:
315,344,37233,2,0,P|350:335|385:327,1,72.4200004420166,10|2,0:2|0:2,0:0:0:0:
448,255,37533,5,2,1:2:0:0:
375,193,37683,2,0,P|383:157|391:122,1,72.4200004420166,2|8,0:2|0:2,0:2:0:0:
475,84,37983,2,0,P|435:25|365:15,1,144.840000884033,2|2,1:2|1:2,0:2:0:0:
299,84,38433,2,0,P|263:84|232:66,1,72.4200004420166,10|2,0:2|0:2,0:0:0:0:
155,5,38733,5,10,0:2:0:0:
155,5,38883,2,0,P|146:40|138:75,1,72.4200004420166,0|2,1:2|0:2,0:0:0:0:
44,78,39183,2,0,P|52:113|60:148,1,72.4200004420166,6|0,1:2|0:0,0:0:0:0:
119,218,39483,1,6,1:2:0:0:
13,377,39783,6,0,P|60:325|130:325,1,144.840000884033,2|0,1:2|1:2,0:0:0:0:
205,382,40233,1,10,0:2:0:0:
262,307,40383,2,0,L|297:298,2,36.2100002210083,10|8|0,0:2|0:2|1:2,0:0:0:0:
190,238,40683,1,10,0:2:0:0:
190,238,40758,1,8,0:2:0:0:
190,238,40833,2,0,L|154:229,3,36.2100002210083,10|8|8|8,0:2|0:2|0:2|0:2,0:0:0:0:
124,217,41133,6,0,P|123:181|142:150,1,72.4200004420166,6|0,1:2|0:2,0:2:0:0:
30,128,41433,2,0,P|49:97|48:61,1,72.4200004420166,10|0,0:2|0:2,0:2:0:0:
128,2,41733,2,0,P|183:44|253:32,1,144.840000884033,2|10,1:2|0:2,0:0:0:0:
335,84,42183,1,2,0:2:0:0:
335,84,42333,1,2,1:2:0:0:
407,7,42483,6,0,P|415:42|423:77,1,72.4200004420166,2|8,0:2|0:2,0:2:0:0:
484,147,42783,2,0,P|468:222|451:294,1,144.840000884033,2|2,1:2|1:2,0:2:0:0:
398,368,43233,1,10,0:2:0:0:
398,368,43383,1,2,0:2:0:0:
320,301,43533,6,0,P|255:273|191:303,1,144.840000884033,6|10,1:2|0:2,0:2:0:0:
128,378,43983,1,2,0:2:0:0:
53,322,44133,2,0,P|61:287|54:252,1,72.4200004420166,2|2,1:2|1:2,0:0:0:0:
106,173,44433,1,10,0:2:0:0:
24,103,44583,6,0,P|99:87|171:70,1,144.840000884033,2|2,0:2|0:2,0:2:0:0:
253,25,45033,1,10,0:2:0:0:
318,121,45183,2,0,P|245:132|211:192,1,144.840000884033,2|2,1:2|1:2,0:2:0:0:
128,253,45633,1,10,0:2:0:0:
128,253,45783,1,2,0:2:0:0:
191,332,45933,6,0,P|226:323|261:315,1,72.4200004420166,6|0,1:2|0:2,0:2:0:0:
348,358,46233,2,0,P|384:365|419:374,1,72.4200004420166,10|0,0:2|0:2,0:2:0:0:
509,336,46533,1,2,1:2:0:0:
509,336,46683,1,2,1:2:0:0:
451,244,46834,2,0,P|458:208|467:173,1,72.4200004420166,10|2,0:2|0:2,0:0:0:0:
476,65,47133,6,0,P|440:73|405:82,1,72.4200004420166,2|2,1:2|0:2,0:0:0:0:
321,32,47433,1,10,0:2:0:0:
321,32,47583,2,0,P|285:39|250:48,1,72.4200004420166,2|0,1:2|0:2,0:2:0:0:
176,103,47883,5,2,1:2:0:0:
240,173,48033,1,10,0:2:0:0:
177,247,48183,1,2,0:2:0:0:
240,312,48333,1,2,1:2:0:0:
503,74,49983,5,0,1:2:0:0:
503,74,50058,1,0,1:2:0:0:
503,74,50133,2,0,L|492:31,3,36.2100002210083,8|8|0|0,0:2|0:2|1:2|1:2,0:2:0:0:
479,3,50433,2,0,P|443:11|408:19,1,72.4200004420166,12|0,0:2|0:0,0:2:0:0:
332,69,50733,6,0,P|282:58|226:45,1,108.630000663025,6|0,1:2|0:0,0:0:0:0:
210,14,51033,2,0,P|170:24|126:34,1,72.4200004420166,10|2,0:2|0:2,0:0:0:0:
73,94,51333,1,2,1:2:0:0:
143,158,51483,2,0,P|152:192|144:227,1,72.4200004420166,2|8,0:2|0:2,0:2:0:0:
68,307,51783,6,0,P|140:323|219:341,1,144.840000884033,2|2,0:2|0:2,0:0:0:0:
294,384,52233,2,0,P|304:344|314:300,1,72.4200004420166,10|2,0:2|0:2,0:2:0:0:
415,339,52533,2,0,P|405:299|395:255,1,72.4200004420166,2|2,1:2|0:2,0:0:0:0:
463,198,52833,1,10,0:2:0:0:
463,198,52983,1,2,0:2:0:0:
390,131,53133,6,0,P|339:114|289:132,1,108.630000663025,6|0,1:2|0:0,0:0:0:0:
250,152,53433,2,0,P|214:163|179:153,1,72.4200004420166,10|2,0:2|0:2,0:0:0:0:
109,100,53733,1,2,1:2:0:0:
46,169,53883,2,0,P|56:209|66:253,1,72.4200004420166,2|10,0:2|0:2,0:0:0:0:
84,356,54183,6,0,P|129:301|199:293,1,144.840000884033,2|2,0:2|0:2,0:0:0:0:
283,363,54633,2,0,P|293:323|303:279,1,72.4200004420166,8|2,0:2|0:2,0:0:0:0:
245,212,54933,1,0,1:2:0:0:
245,212,55083,1,2,0:2:0:0:
316,150,55233,2,0,P|356:160|400:170,1,72.4200004420166,14|0,0:2|0:2,0:0:0:0:
490,137,55533,6,0,P|474:209|456:288,1,144.840000884033,6|0,1:2|1:2,0:2:0:0:
389,340,55983,1,0,3:2:0:0:
389,340,56058,1,0,3:2:0:0:
389,340,56133,2,0,P|360:317|325:312,1,72.4200004420166,2|2,1:2|0:2,0:2:0:0:
253,254,56433,2,0,P|224:276|189:281,1,72.4200004420166,8|2,0:2|0:2,0:0:0:0:
122,345,56733,5,2,1:2:0:0:
65,267,56883,1,2,3:2:0:0:
65,267,56958,1,0,3:2:0:0:
65,267,57033,2,0,P|75:227|85:183,1,72.4200004420166,2|2,1:2|3:2,0:0:0:0:
10,118,57333,2,0,P|45:112|73:90,1,72.4200004420166,2|2,1:2|0:2,0:2:0:0:
163,61,57633,2,0,L|172:26,3,36.2100002210083,0|0|0|0,1:2|1:2|1:2|1:2,0:0:0:0:
160,94,57933,6,0,P|195:86|230:77,1,72.4200004420166,6|0,1:2|0:0,0:2:0:0:
318,53,58233,1,10,0:2:0:0:
378,130,58383,2,0,P|356:158|350:193,1,72.4200004420166,2|0,0:2|1:2,0:0:0:0:
363,220,58608,1,0,3:2:0:0:
363,220,58683,1,2,3:2:0:0:
435,281,58833,1,8,0:2:0:0:
368,351,58983,6,0,P|302:329|228:313,1,144.840000884033,2|2,0:2|0:2,0:0:0:0:
58,374,59583,2,0,L|67:338,5,36.2100002210083,8|8|8|8|8|8,0:2|0:2|0:2|0:2|0:2|0:2,0:0:0:0:
79,303,60033,2,0,L|88:267,1,36.2100002210083,2|2,1:2|1:2,0:0:0:0:
101,226,60183,1,2,1:2:0:0:
