osu file format v14

[General]
AudioFilename: audio.mp3
AudioLeadIn: 0
PreviewTime: 30858
Countdown: 0
SampleSet: Normal
StackLeniency: 0.7
Mode: 1
LetterboxInBreaks: 0
WidescreenStoryboard: 1

[Editor]
Bookmarks: 11133,31533,50733,60333
DistanceSpacing: 0.7
BeatDivisor: 8
GridSize: 4
TimelineZoom: 2.1

[Metadata]
Title:Kuuchuu Bunkai
TitleUnicode:空中分解
Artist:Three
ArtistUnicode:すりぃ
Creator:Een Persoon
Version:Oni
Source:
Tags:Collage 鏡音レン Kagamine Len vocaloid ボーカロイド ボカロ version AERIAL BREAKUP japanese rock j-rock jrock
BeatmapID:3116399
BeatmapSetID:1478435

[Difficulty]
HPDrainRate:6.5
CircleSize:2
OverallDifficulty:5
ApproachRate:10
SliderMultiplier:1.4
SliderTickRate:1

[Events]
//Background and Video events
0,0,"BG.jpg",0,0
//Break Periods
//Storyboard Layer 0 (Background)
//Storyboard Layer 1 (Fail)
//Storyboard Layer 2 (Pass)
//Storyboard Layer 3 (Foreground)
//Storyboard Layer 4 (Overlay)
//Storyboard Sound Samples

[TimingPoints]
-3217,300,4,1,0,72,1,0
308,-125,4,1,0,72,0,0
1208,-83.3333333333333,4,1,0,72,0,0
1508,-100,4,1,0,92,0,0
11258,-100,4,1,0,72,0,0
11408,-101.449275362319,4,1,0,72,0,0
11933,-104.477611940299,4,1,0,72,0,0
12308,-106.060606060606,4,1,0,72,0,0
12608,-107.692307692308,4,1,0,72,0,0
13208,-111.111111111111,4,1,0,72,0,0
13508,-112.903225806452,4,1,0,72,0,0
13808,-114.754098360656,4,1,0,72,0,0
14408,-118.64406779661,4,1,0,72,0,0
14708,-120.689655172414,4,1,0,72,0,0
15008,-122.80701754386,4,1,0,72,0,0
15308,-125,4,1,0,72,0,0
15458,-100,4,1,0,72,0,0
16208,-125,4,1,0,72,0,0
20258,-90.9090909090909,4,1,0,72,0,0
20708,-90.9090909090909,4,1,0,82,0,0
21008,-111.111111111111,4,1,0,82,0,0
25508,-111.111111111111,4,1,0,82,0,0
25808,-110.344827586207,4,1,0,82,0,0
26108,-109.58904109589,4,1,0,82,0,0
26258,-109.215017064846,4,1,0,82,0,0
26558,-108.474576271186,4,1,0,82,0,0
26708,-108.108108108108,4,1,0,82,0,0
27008,-107.38255033557,4,1,0,82,0,0
27158,-107.023411371237,4,1,0,82,0,0
27458,-106.312292358804,4,1,0,82,0,0
27608,-105.960264900662,4,1,0,82,0,0
27758,-105.610561056106,4,1,0,82,0,0
27908,-105.263157894737,4,1,0,82,0,0
28208,-104.575163398693,4,1,0,82,0,0
28358,-104.234527687296,4,1,0,82,0,0
28508,-103.896103896104,4,1,0,82,0,0
28658,-103.559870550162,4,1,0,82,0,0
28808,-103.225806451613,4,1,0,82,0,0
29108,-102.564102564103,4,1,0,82,0,0
29258,-102.239034863511,4,1,0,82,0,0
29370,-102.077272495279,4,1,0,82,0,0
29445,-101.916021198532,4,1,0,82,0,0
29558,-101.587301587302,4,1,0,82,0,0
29708,-101.26582278481,4,1,0,82,0,0
29858,-100.946372239748,4,1,0,82,0,0
30008,-100.62893081761,4,1,0,82,0,0
30158,-100.313479623824,4,1,0,82,0,0
30308,-100,4,1,0,82,0,0
30908,-83.3333333333333,4,1,0,92,0,0
31133,-85.7142857142857,4,1,0,92,0,0
31358,-88.2352941176471,4,1,0,92,0,0
31583,-90.9090909090909,4,1,0,92,0,1
48383,-90.9090909090909,4,1,0,92,0,0
48458,-111.111111111111,4,1,0,72,0,0
50070,-109.89010989011,4,1,0,72,0,0
50145,-108.695652173913,4,1,0,72,0,0
50220,-107.52688172043,4,1,0,72,0,0
50295,-106.382978723404,4,1,0,72,0,0
50445,-104.166666666667,4,1,0,72,0,0
50708,-100,4,1,0,92,0,0
59145,-100,4,1,0,92,0,0
59220,-99.3377483443709,4,1,0,92,0,0
59295,-98.6842105263158,4,1,0,92,0,0
59370,-98.0392156862745,4,1,0,92,0,0
59445,-97.4025974025974,4,1,0,92,0,0
59595,-96.1538461538461,4,1,0,92,0,0
59745,-94.9367088607595,4,1,0,92,0,0
59895,-93.75,4,1,0,92,0,0
60045,-92.5925925925926,4,1,0,92,0,0
60120,-92.0245398773006,4,1,0,92,0,0
60195,-91.4634146341463,4,1,0,92,0,0
60270,-90.9090909090909,4,1,0,92,0,0

[HitObjects]
265,119,383,5,0,0:0:0:0:
265,119,608,1,0,0:0:0:0:
265,119,833,1,0,0:0:0:0:
265,119,1020,1,0,0:0:0:0:
259,322,1283,1,12,0:0:0:0:
259,322,1583,1,12,0:0:0:0:
275,66,1733,1,0,0:0:0:0:
275,66,1808,1,0,0:0:0:0:
275,66,1883,1,8,0:0:0:0:
282,57,2033,1,0,0:0:0:0:
284,57,2183,1,8,0:0:0:0:
284,57,2333,1,0,0:0:0:0:
284,57,2633,1,8,0:0:0:0:
239,39,2708,1,8,0:0:0:0:
277,39,2783,1,8,0:0:0:0:
277,39,2933,1,0,0:0:0:0:
277,39,3083,1,8,0:0:0:0:
277,39,3233,1,8,0:0:0:0:
277,39,3383,1,0,0:0:0:0:
277,39,3533,1,8,0:0:0:0:
277,39,3683,1,0,0:0:0:0:
276,47,3833,1,0,0:0:0:0:
262,44,3983,1,8,0:0:0:0:
262,44,4058,1,8,0:0:0:0:
262,44,4133,1,0,0:0:0:0:
262,44,4208,1,0,0:0:0:0:
262,44,4283,1,8,0:0:0:0:
262,44,4433,1,0,0:0:0:0:
262,44,4583,1,8,0:0:0:0:
262,44,4733,1,8,0:0:0:0:
277,46,5033,1,0,0:0:0:0:
260,31,5108,1,0,0:0:0:0:
277,46,5183,1,8,0:0:0:0:
277,46,5333,1,8,0:0:0:0:
260,31,5483,1,0,0:0:0:0:
260,31,5633,1,0,0:0:0:0:
264,21,5783,1,8,0:0:0:0:
264,21,5858,1,0,0:0:0:0:
264,21,5933,1,8,0:0:0:0:
264,21,6083,1,0,0:0:0:0:
244,63,6233,1,8,0:0:0:0:
277,57,6383,1,0,0:0:0:0:
275,48,6458,1,0,0:0:0:0:
277,57,6533,1,8,0:0:0:0:
275,48,6608,1,0,0:0:0:0:
275,48,6683,1,8,0:0:0:0:
275,48,6833,1,0,0:0:0:0:
275,48,6983,1,8,0:0:0:0:
275,48,7133,1,0,0:0:0:0:
239,49,7433,1,8,0:0:0:0:
259,54,7508,1,8,0:0:0:0:
239,49,7583,1,8,0:0:0:0:
239,49,7733,1,0,0:0:0:0:
239,49,7883,1,8,0:0:0:0:
239,49,8033,1,0,0:0:0:0:
254,47,8108,1,0,0:0:0:0:
254,47,8183,1,8,0:0:0:0:
260,45,8333,1,8,0:0:0:0:
263,45,8483,1,0,0:0:0:0:
264,38,8558,1,0,0:0:0:0:
261,38,8633,1,0,0:0:0:0:
264,52,8783,1,8,0:0:0:0:
264,52,8933,1,0,0:0:0:0:
262,52,9008,1,0,0:0:0:0:
263,52,9083,1,8,0:0:0:0:
262,52,9233,1,0,0:0:0:0:
262,52,9383,1,8,0:0:0:0:
262,52,9533,1,8,0:0:0:0:
281,31,9833,1,0,0:0:0:0:
257,27,9908,1,0,0:0:0:0:
281,31,9983,1,8,0:0:0:0:
281,30,10133,1,8,0:0:0:0:
284,31,10283,1,0,0:0:0:0:
281,30,10433,1,8,0:0:0:0:
281,31,10583,1,0,0:0:0:0:
281,31,10733,1,0,0:0:0:0:
281,31,10808,1,0,0:0:0:0:
281,31,10883,1,8,0:0:0:0:
281,31,10958,1,0,0:0:0:0:
281,31,11033,1,8,0:0:0:0:
247,301,11183,1,4,0:0:0:0:
272,59,11483,1,8,0:0:0:0:
272,59,12083,1,8,0:0:0:0:
272,59,12683,1,8,0:0:0:0:
272,59,13283,1,8,0:0:0:0:
272,59,13883,1,8,0:0:0:0:
272,59,14483,1,8,0:0:0:0:
272,59,15083,1,8,0:0:0:0:
276,80,15383,1,0,0:0:0:0:
276,80,15533,1,8,0:0:0:0:
272,59,15683,1,8,0:0:0:0:
276,80,15833,1,8,0:0:0:0:
283,300,15983,1,4,0:0:0:0:
285,68,16283,1,8,0:0:0:0:
285,68,16433,1,8,0:0:0:0:
298,55,16733,1,0,0:0:0:0:
298,55,16883,1,8,0:0:0:0:
298,55,17183,1,0,0:0:0:0:
298,55,17483,1,8,0:0:0:0:
279,75,17633,1,0,0:0:0:0:
298,55,17783,1,8,0:0:0:0:
298,55,18083,1,8,0:0:0:0:
281,54,18383,1,0,0:0:0:0:
281,54,18683,1,8,0:0:0:0:
282,52,18833,1,8,0:0:0:0:
282,52,18983,1,0,0:0:0:0:
281,54,19283,1,8,0:0:0:0:
256,51,19583,1,0,0:0:0:0:
256,51,19883,1,0,0:0:0:0:
256,51,20033,1,8,0:0:0:0:
281,38,20333,1,8,0:0:0:0:
281,38,20483,1,8,0:0:0:0:
281,38,20633,1,8,0:0:0:0:
267,281,20783,1,4,0:0:0:0:
260,63,21083,1,8,0:0:0:0:
260,63,21233,1,8,0:0:0:0:
260,63,21383,1,0,0:0:0:0:
260,63,21533,1,8,0:0:0:0:
260,63,21833,1,0,0:0:0:0:
250,50,21983,1,0,0:0:0:0:
273,44,22283,1,8,0:0:0:0:
273,44,22433,1,0,0:0:0:0:
262,55,22733,1,0,0:0:0:0:
262,55,22883,1,8,0:0:0:0:
262,55,23033,1,0,0:0:0:0:
262,55,23183,1,8,0:0:0:0:
276,74,23483,1,8,0:0:0:0:
276,74,23783,1,0,0:0:0:0:
276,74,23933,1,8,0:0:0:0:
276,74,24083,1,8,0:0:0:0:
276,74,24233,1,0,0:0:0:0:
276,74,24533,1,8,0:0:0:0:
276,74,24683,1,0,0:0:0:0:
276,74,24833,1,8,0:0:0:0:
278,49,25133,1,8,0:0:0:0:
278,49,25283,1,0,0:0:0:0:
278,49,25433,1,0,0:0:0:0:
278,49,25583,1,12,0:0:0:0:
255,79,25883,1,0,0:0:0:0:
255,79,26183,1,0,0:0:0:0:
255,79,26333,1,8,0:0:0:0:
244,54,26633,1,8,0:0:0:0:
244,54,26783,1,0,0:0:0:0:
244,54,27083,1,8,0:0:0:0:
244,54,27233,1,8,0:0:0:0:
299,44,27533,1,0,0:0:0:0:
299,44,27683,1,8,0:0:0:0:
299,44,27833,1,8,0:0:0:0:
299,44,27983,1,0,0:0:0:0:
299,44,28283,1,8,0:0:0:0:
279,52,28433,1,0,0:0:0:0:
299,44,28583,1,8,0:0:0:0:
299,44,28733,1,8,0:0:0:0:
299,44,28883,1,0,0:0:0:0:
299,44,29183,1,8,0:0:0:0:
269,30,29333,1,8,0:0:0:0:
269,47,29408,1,8,0:0:0:0:
299,44,29483,1,0,0:0:0:0:
299,44,29633,1,8,0:0:0:0:
289,34,29783,1,0,0:0:0:0:
299,44,29933,1,8,0:0:0:0:
299,44,30083,1,8,0:0:0:0:
299,44,30233,1,8,0:0:0:0:
248,57,30983,1,8,0:0:0:0:
248,57,31208,1,8,0:0:0:0:
248,57,31433,1,0,0:0:0:0:
254,317,31583,1,12,0:0:0:0:
262,59,31883,1,8,0:0:0:0:
262,59,32108,1,0,0:0:0:0:
262,59,32183,1,8,0:0:0:0:
262,59,32333,1,8,0:0:0:0:
262,59,32483,1,0,0:0:0:0:
252,50,32633,1,0,0:0:0:0:
252,50,32783,1,8,0:0:0:0:
251,32,32933,1,8,0:0:0:0:
236,30,33008,1,8,0:0:0:0:
252,50,33083,1,0,0:0:0:0:
236,30,33233,1,8,0:0:0:0:
271,40,33533,1,8,0:0:0:0:
271,40,33683,1,0,0:0:0:0:
271,40,33833,1,0,0:0:0:0:
271,40,33983,1,8,0:0:0:0:
251,52,34133,1,0,0:0:0:0:
257,8,34208,1,0,0:0:0:0:
236,27,34283,1,8,0:0:0:0:
236,27,34433,1,0,0:0:0:0:
236,27,34583,1,8,0:0:0:0:
236,27,34733,1,8,0:0:0:0:
236,27,34808,1,8,0:0:0:0:
236,27,34883,1,0,0:0:0:0:
236,27,35033,1,8,0:0:0:0:
254,24,35333,1,0,0:0:0:0:
239,127,35483,1,8,0:0:0:0:
254,24,35633,1,0,0:0:0:0:
255,24,35708,1,0,0:0:0:0:
255,24,35783,1,0,0:0:0:0:
255,24,35933,1,8,0:0:0:0:
255,24,36083,1,0,0:0:0:0:
254,24,36233,1,0,0:0:0:0:
254,24,36383,1,8,0:0:0:0:
261,25,36683,1,8,0:0:0:0:
261,25,36908,1,0,0:0:0:0:
261,25,36983,1,8,0:0:0:0:
271,24,37133,1,0,0:0:0:0:
271,24,37283,1,8,0:0:0:0:
271,24,37433,1,8,0:0:0:0:
230,12,37583,1,0,0:0:0:0:
230,12,37733,1,8,0:0:0:0:
251,23,37808,1,8,0:0:0:0:
251,23,37883,1,0,0:0:0:0:
246,27,38033,1,8,0:0:0:0:
246,27,38183,1,0,0:0:0:0:
246,27,38333,1,8,0:0:0:0:
239,17,38483,1,8,0:0:0:0:
239,17,38633,1,0,0:0:0:0:
242,52,38708,1,0,0:0:0:0:
239,17,38783,1,8,0:0:0:0:
257,18,38933,1,8,0:0:0:0:
257,18,39083,1,0,0:0:0:0:
257,18,39233,1,8,0:0:0:0:
280,45,39533,1,0,0:0:0:0:
265,360,39833,1,12,0:0:0:0:
259,44,40133,1,0,0:0:0:0:
259,44,40283,1,8,0:0:0:0:
245,27,40433,1,8,0:0:0:0:
247,27,40508,1,8,0:0:0:0:
247,27,40583,1,0,0:0:0:0:
252,27,40733,1,8,0:0:0:0:
252,27,40808,1,8,0:0:0:0:
252,27,40883,1,8,0:0:0:0:
252,27,40958,1,8,0:0:0:0:
252,27,41033,1,0,0:0:0:0:
264,318,41183,1,12,0:0:0:0:
279,38,41483,1,8,0:0:0:0:
279,38,41708,1,0,0:0:0:0:
279,38,41783,1,8,0:0:0:0:
222,19,41933,1,0,0:0:0:0:
223,31,42008,1,0,0:0:0:0:
222,19,42083,1,8,0:0:0:0:
222,19,42233,1,0,0:0:0:0:
247,33,42383,1,8,0:0:0:0:
249,33,42533,1,8,0:0:0:0:
249,33,42683,1,0,0:0:0:0:
249,33,42833,1,8,0:0:0:0:
277,40,43133,1,8,0:0:0:0:
277,40,43208,1,8,0:0:0:0:
277,40,43283,1,0,0:0:0:0:
279,40,43433,1,0,0:0:0:0:
243,40,43583,1,8,0:0:0:0:
243,40,43733,1,0,0:0:0:0:
243,40,43883,1,8,0:0:0:0:
243,40,44033,1,8,0:0:0:0:
224,29,44183,1,0,0:0:0:0:
224,29,44333,1,0,0:0:0:0:
224,29,44408,1,0,0:0:0:0:
224,29,44483,1,8,0:0:0:0:
224,29,44633,1,0,0:0:0:0:
269,45,44933,1,0,0:0:0:0:
269,45,45083,1,8,0:0:0:0:
269,45,45233,1,0,0:0:0:0:
261,38,45308,1,0,0:0:0:0:
261,38,45383,1,0,0:0:0:0:
261,38,45533,1,8,0:0:0:0:
261,38,45683,1,0,0:0:0:0:
261,38,45833,1,0,0:0:0:0:
261,38,45983,1,8,0:0:0:0:
287,40,46283,1,8,0:0:0:0:
287,40,46508,1,0,0:0:0:0:
287,40,46583,1,8,0:0:0:0:
287,40,46733,1,0,0:0:0:0:
276,29,46808,1,0,0:0:0:0:
287,40,46883,1,8,0:0:0:0:
276,29,47033,1,0,0:0:0:0:
276,29,47183,1,8,0:0:0:0:
257,34,47333,1,8,0:0:0:0:
257,34,47483,1,0,0:0:0:0:
257,34,47633,1,8,0:0:0:0:
257,34,47708,1,8,0:0:0:0:
256,34,47783,1,0,0:0:0:0:
257,34,47933,1,8,0:0:0:0:
254,34,48083,1,8,0:0:0:0:
257,34,48233,1,8,0:0:0:0:
291,301,48383,1,4,0:0:0:0:
281,45,50033,1,0,0:0:0:0:
281,45,50108,1,0,0:0:0:0:
281,45,50183,1,8,0:0:0:0:
281,45,50258,1,0,0:0:0:0:
281,45,50333,1,8,0:0:0:0:
281,45,50483,1,8,0:0:0:0:
254,334,50783,1,4,0:0:0:0:
270,92,51083,1,8,0:0:0:0:
270,92,51233,1,0,0:0:0:0:
270,92,51308,1,0,0:0:0:0:
270,92,51383,1,8,0:0:0:0:
270,92,51533,1,8,0:0:0:0:
234,46,51608,1,8,0:0:0:0:
270,92,51683,1,0,0:0:0:0:
270,92,51833,1,0,0:0:0:0:
270,92,51983,1,8,0:0:0:0:
251,56,52133,1,8,0:0:0:0:
251,56,52283,1,0,0:0:0:0:
251,56,52433,1,8,0:0:0:0:
240,31,52508,1,8,0:0:0:0:
251,56,52583,1,0,0:0:0:0:
234,26,52733,1,8,0:0:0:0:
234,26,52883,1,8,0:0:0:0:
234,26,53033,1,0,0:0:0:0:
234,26,53183,1,8,0:0:0:0:
256,28,53483,1,8,0:0:0:0:
256,28,53558,1,8,0:0:0:0:
255,28,53633,1,0,0:0:0:0:
255,28,53708,1,0,0:0:0:0:
255,28,53783,1,8,0:0:0:0:
234,26,53933,1,8,0:0:0:0:
234,26,54008,1,0,0:0:0:0:
234,26,54083,1,8,0:0:0:0:
211,24,54233,1,0,0:0:0:0:
211,24,54383,1,8,0:0:0:0:
249,43,54533,1,8,0:0:0:0:
248,43,54683,1,0,0:0:0:0:
248,43,54833,1,8,0:0:0:0:
246,43,54983,1,0,0:0:0:0:
261,41,55133,1,8,0:0:0:0:
261,41,55208,1,8,0:0:0:0:
261,41,55283,1,8,0:0:0:0:
261,41,55433,1,0,0:0:0:0:
273,58,55583,1,8,0:0:0:0:
280,71,55883,1,8,0:0:0:0:
280,71,55958,1,0,0:0:0:0:
282,71,56033,1,0,0:0:0:0:
282,71,56108,1,0,0:0:0:0:
286,71,56183,1,8,0:0:0:0:
239,42,56333,1,0,0:0:0:0:
239,42,56408,1,0,0:0:0:0:
239,42,56483,1,8,0:0:0:0:
239,42,56633,1,0,0:0:0:0:
261,39,56783,1,8,0:0:0:0:
261,39,56933,1,0,0:0:0:0:
261,39,57008,1,0,0:0:0:0:
261,40,57083,1,8,0:0:0:0:
267,36,57233,1,0,0:0:0:0:
241,17,57383,1,8,0:0:0:0:
241,17,57533,1,8,0:0:0:0:
241,17,57683,1,0,0:0:0:0:
240,17,57758,1,0,0:0:0:0:
240,17,57833,1,0,0:0:0:0:
240,17,57908,1,0,0:0:0:0:
259,304,57983,1,12,0:0:0:0:
236,43,58283,1,0,0:0:0:0:
236,43,58433,1,8,0:0:0:0:
236,43,58508,1,0,0:0:0:0:
236,43,58583,1,8,0:0:0:0:
236,43,58733,1,0,0:0:0:0:
236,43,58883,1,0,0:0:0:0:
236,43,59033,1,8,0:0:0:0:
236,43,59183,1,0,0:0:0:0:
236,43,59258,1,0,0:0:0:0:
262,27,59333,1,0,0:0:0:0:
268,26,59408,1,0,0:0:0:0:
267,24,59483,1,0,0:0:0:0:
267,24,59633,1,8,0:0:0:0:
265,24,59783,1,8,0:0:0:0:
265,24,59933,1,0,0:0:0:0:
265,24,60083,1,8,0:0:0:0:
222,21,60158,1,8,0:0:0:0:
222,21,60233,1,8,0:0:0:0:
222,21,60308,1,8,0:0:0:0:
