osu file format v14

[General]
AudioFilename: audio.mp3
AudioLeadIn: 0
PreviewTime: 30858
Countdown: 0
SampleSet: Normal
StackLeniency: 0.7
Mode: 1
LetterboxInBreaks: 0
WidescreenStoryboard: 1

[Editor]
Bookmarks: 11133,31533,50733,60333
DistanceSpacing: 0.7
BeatDivisor: 4
GridSize: 4
TimelineZoom: 2.1

[Metadata]
Title:Kuuchuu Bunkai
TitleUnicode:空中分解
Artist:Three
ArtistUnicode:すりぃ
Creator:Een Persoon
Version:Futsuu
Source:
Tags:Collage 鏡音レン Kagamine Len vocaloid ボーカロイド ボカロ version AERIAL BREAKUP japanese rock j-rock jrock
BeatmapID:3033106
BeatmapSetID:1478435

[Difficulty]
HPDrainRate:8
CircleSize:2
OverallDifficulty:3
ApproachRate:10
SliderMultiplier:1.4
SliderTickRate:1

[Events]
//Background and Video events
0,0,"BG.jpg",0,0
//Break Periods
2,11383,15083
//Storyboard Layer 0 (Background)
//Storyboard Layer 1 (Fail)
//Storyboard Layer 2 (Pass)
//Storyboard Layer 3 (Foreground)
//Storyboard Layer 4 (Overlay)
//Storyboard Sound Samples

[TimingPoints]
-3217,300,4,1,0,72,1,0
1508,-100,4,1,0,92,0,0
11258,-100,4,1,0,72,0,0
20708,-100,4,1,0,82,0,0
30908,-100,4,1,0,92,0,0
31583,-100,4,1,0,92,0,1
48383,-100,4,1,0,92,0,0
48458,-100,4,1,0,72,0,0
50708,-100,4,1,0,92,0,0

[HitObjects]
254,325,1583,5,12,0:0:0:0:
239,110,1883,1,0,0:0:0:0:
241,78,2033,1,0,0:0:0:0:
239,110,2183,1,8,0:0:0:0:
265,99,2333,1,0,0:0:0:0:
257,80,2633,1,8,0:0:0:0:
257,80,2783,1,8,0:0:0:0:
257,80,3083,1,0,0:0:0:0:
257,80,3233,1,0,0:0:0:0:
257,80,3383,1,8,0:0:0:0:
277,94,3683,1,8,0:0:0:0:
269,51,3983,1,0,0:0:0:0:
269,51,4283,1,8,0:0:0:0:
269,51,4433,1,0,0:0:0:0:
269,51,4583,1,8,0:0:0:0:
269,51,4733,1,8,0:0:0:0:
269,51,5033,1,0,0:0:0:0:
284,74,5183,1,8,0:0:0:0:
305,89,5483,1,0,0:0:0:0:
277,78,5783,1,8,0:0:0:0:
227,81,6383,1,0,0:0:0:0:
287,74,6683,1,0,0:0:0:0:
287,74,6983,1,8,0:0:0:0:
287,74,7133,1,0,0:0:0:0:
245,57,7433,1,8,0:0:0:0:
245,57,7583,1,8,0:0:0:0:
261,72,7733,1,0,0:0:0:0:
245,57,7883,1,0,0:0:0:0:
264,36,8183,1,8,0:0:0:0:
261,95,8483,1,0,0:0:0:0:
261,95,8783,1,8,0:0:0:0:
261,95,9083,1,0,0:0:0:0:
261,95,9233,1,0,0:0:0:0:
261,95,9383,1,8,0:0:0:0:
261,95,9533,1,0,0:0:0:0:
289,85,9833,1,0,0:0:0:0:
289,85,9983,1,8,0:0:0:0:
295,57,10283,1,8,0:0:0:0:
295,57,10433,1,0,0:0:0:0:
295,57,10583,1,8,0:0:0:0:
224,51,10733,1,8,0:0:0:0:
224,51,10883,1,8,0:0:0:0:
263,303,11183,1,4,0:0:0:0:
294,84,15533,5,8,0:0:0:0:
294,84,15683,1,8,0:0:0:0:
276,289,15983,1,4,0:0:0:0:
283,97,16583,1,0,0:0:0:0:
283,97,16733,1,8,0:0:0:0:
220,117,17183,1,0,0:0:0:0:
208,72,17483,1,8,0:0:0:0:
220,117,17633,1,8,0:0:0:0:
290,86,18083,1,0,0:0:0:0:
293,70,18383,1,8,0:0:0:0:
293,70,18683,1,8,0:0:0:0:
293,70,18983,1,8,0:0:0:0:
275,94,19133,1,0,0:0:0:0:
275,94,19283,1,0,0:0:0:0:
275,64,19583,1,8,0:0:0:0:
241,76,20033,1,8,0:0:0:0:
307,88,20333,1,0,0:0:0:0:
307,88,20483,1,0,0:0:0:0:
282,269,20783,1,12,0:0:0:0:
326,87,21383,1,0,0:0:0:0:
326,87,21533,1,8,0:0:0:0:
266,90,21983,1,0,0:0:0:0:
274,78,22283,1,8,0:0:0:0:
236,63,22433,1,8,0:0:0:0:
329,107,22883,1,0,0:0:0:0:
313,83,23183,1,8,0:0:0:0:
313,83,23483,1,0,0:0:0:0:
313,83,23783,1,8,0:0:0:0:
253,72,23933,1,0,0:0:0:0:
313,83,24083,1,0,0:0:0:0:
313,83,24383,1,8,0:0:0:0:
327,71,24833,1,8,0:0:0:0:
327,71,25283,1,0,0:0:0:0:
270,127,25583,1,12,0:0:0:0:
277,75,26183,1,0,0:0:0:0:
277,75,26333,1,8,0:0:0:0:
236,86,26783,1,0,0:0:0:0:
261,73,27083,1,8,0:0:0:0:
261,73,27233,1,8,0:0:0:0:
282,98,27683,1,0,0:0:0:0:
282,98,27983,1,8,0:0:0:0:
282,98,28283,1,0,0:0:0:0:
282,98,28583,1,8,0:0:0:0:
282,98,28733,1,8,0:0:0:0:
287,90,28883,1,0,0:0:0:0:
286,90,29183,1,8,0:0:0:0:
214,59,29483,1,8,0:0:0:0:
214,59,29633,1,0,0:0:0:0:
214,59,29933,1,0,0:0:0:0:
214,59,30083,1,8,0:0:0:0:
214,59,30233,1,8,0:0:0:0:
279,99,30983,1,0,0:0:0:0:
279,99,31208,1,0,0:0:0:0:
279,99,31433,1,0,0:0:0:0:
273,314,31583,1,12,0:0:0:0:
286,78,31883,1,0,0:0:0:0:
286,78,32183,1,8,0:0:0:0:
276,61,32333,1,8,0:0:0:0:
286,78,32483,1,0,0:0:0:0:
286,78,32783,1,0,0:0:0:0:
286,78,32933,1,8,0:0:0:0:
298,93,33233,1,8,0:0:0:0:
280,92,33683,1,0,0:0:0:0:
280,92,33983,1,8,0:0:0:0:
279,92,34283,1,0,0:0:0:0:
280,92,34433,1,8,0:0:0:0:
280,92,34583,1,0,0:0:0:0:
229,61,34883,1,0,0:0:0:0:
221,100,35033,1,8,0:0:0:0:
221,100,35633,1,0,0:0:0:0:
221,100,36083,1,0,0:0:0:0:
253,68,36383,1,8,0:0:0:0:
253,68,36683,1,8,0:0:0:0:
253,68,36983,1,8,0:0:0:0:
253,68,37133,1,0,0:0:0:0:
253,68,37283,1,8,0:0:0:0:
253,68,37583,1,0,0:0:0:0:
227,117,37733,1,8,0:0:0:0:
308,67,38033,1,8,0:0:0:0:
308,67,38483,1,0,0:0:0:0:
293,116,38783,1,8,0:0:0:0:
268,69,38933,1,8,0:0:0:0:
293,116,39083,1,0,0:0:0:0:
293,116,39233,1,8,0:0:0:0:
260,114,39533,1,0,0:0:0:0:
251,299,39833,1,12,0:0:0:0:
265,95,40433,1,0,0:0:0:0:
265,95,40583,1,8,0:0:0:0:
271,88,40883,1,0,0:0:0:0:
260,78,41033,1,0,0:0:0:0:
238,322,41183,1,12,0:0:0:0:
306,89,41483,1,0,0:0:0:0:
256,129,41783,1,8,0:0:0:0:
230,47,41933,1,8,0:0:0:0:
230,47,42083,1,0,0:0:0:0:
230,47,42383,1,0,0:0:0:0:
230,47,42533,1,8,0:0:0:0:
230,47,42833,1,8,0:0:0:0:
263,64,43283,1,0,0:0:0:0:
286,76,43583,1,8,0:0:0:0:
286,76,43883,1,0,0:0:0:0:
286,76,44033,1,0,0:0:0:0:
286,76,44183,1,8,0:0:0:0:
275,127,44483,1,0,0:0:0:0:
230,42,44633,1,8,0:0:0:0:
230,42,45233,1,0,0:0:0:0:
252,58,45683,1,0,0:0:0:0:
288,80,45983,1,8,0:0:0:0:
288,80,46283,1,8,0:0:0:0:
288,80,46583,1,8,0:0:0:0:
288,80,46733,1,8,0:0:0:0:
288,80,46883,1,0,0:0:0:0:
249,109,47183,1,8,0:0:0:0:
326,118,47333,1,0,0:0:0:0:
248,70,47483,1,0,0:0:0:0:
249,109,47633,1,8,0:0:0:0:
248,70,48083,1,8,0:0:0:0:
276,342,48383,1,4,0:0:0:0:
196,128,50033,1,0,0:0:0:0:
196,128,50183,1,8,0:0:0:0:
224,123,50333,1,0,0:0:0:0:
196,128,50483,1,8,0:0:0:0:
275,290,50783,1,4,0:0:0:0:
262,103,51383,1,8,0:0:0:0:
231,78,51683,1,0,0:0:0:0:
231,78,51833,1,0,0:0:0:0:
231,78,51983,1,8,0:0:0:0:
281,58,52133,1,0,0:0:0:0:
300,39,52433,1,8,0:0:0:0:
246,68,52733,1,8,0:0:0:0:
257,63,52883,1,0,0:0:0:0:
273,73,53183,1,8,0:0:0:0:
273,73,53483,1,8,0:0:0:0:
274,71,53633,1,0,0:0:0:0:
273,73,53783,1,8,0:0:0:0:
273,73,53933,1,8,0:0:0:0:
273,73,54083,1,8,0:0:0:0:
217,99,54383,1,0,0:0:0:0:
217,99,54833,1,8,0:0:0:0:
217,99,55133,1,0,0:0:0:0:
217,99,55283,1,8,0:0:0:0:
247,69,55433,1,8,0:0:0:0:
247,69,55583,1,0,0:0:0:0:
298,41,56183,1,8,0:0:0:0:
292,97,56483,1,8,0:0:0:0:
292,97,56783,1,0,0:0:0:0:
267,88,56933,1,8,0:0:0:0:
250,72,57083,1,0,0:0:0:0:
267,88,57233,1,8,0:0:0:0:
267,88,57383,1,0,0:0:0:0:
282,326,57983,1,12,0:0:0:0:
317,85,58283,1,0,0:0:0:0:
302,68,58433,1,8,0:0:0:0:
265,73,58583,1,8,0:0:0:0:
265,73,58733,1,0,0:0:0:0:
259,84,59033,1,8,0:0:0:0:
358,136,59183,2,0,L|125:64,1,210
247,54,59933,1,0,0:0:0:0:
247,54,60083,1,8,0:0:0:0:
