osu file format v14

[General]
AudioFilename: audio.mp3
AudioLeadIn: 0
PreviewTime:34780
Countdown: 0
SampleSet: Soft
StackLeniency: 0.7
Mode: 0
LetterboxInBreaks: 0
WidescreenStoryboard: 1

[Editor]
Bookmarks: 18312,48712,67445
DistanceSpacing: 1.3
BeatDivisor: 4
GridSize: 4
TimelineZoom: 1.6

[Metadata]
Title:Ego Rock long
TitleUnicode:エゴロック long
Artist:Three
ArtistUnicode:すりぃ
Creator:Nevo
Version:Jon's Hard
Source:
Tags:Len Kagamine 鏡音レン vocaloid full version wanpachi cycopton Jonarwhal kyrian -white elcheer addy2607 gokugohan12468 KittyAdventure jrock j-rock japanese rock collage
BeatmapID:2624187
BeatmapSetID:1205168

[Difficulty]
HPDrainRate:6
CircleSize:3.8
OverallDifficulty:7
ApproachRate:8
SliderMultiplier:1.3
SliderTickRate:1

[Events]
//Background and Video events
0,0,"76261478_p0.jpg",0,0
//Break Periods
2,59095,66679
//Storyboard Layer 0 (Background)
//Storyboard Layer 1 (Fail)
//Storyboard Layer 2 (Pass)
//Storyboard Layer 3 (Foreground)
//Storyboard Layer 4 (Overlay)
//Storyboard Sound Samples

[TimingPoints]
-2971,266.666666666667,4,2,1,50,1,0
762,-100,4,2,1,60,0,0
1295,-100,4,2,1,70,0,0
18362,-100,4,2,1,60,0,0
19562,-100,4,2,1,5,0,0
19695,-100,4,2,1,60,0,0
26895,-100,4,2,1,65,0,0
33295,-100,4,2,1,60,0,0
33829,-100,4,2,1,70,0,0
34362,-100,4,2,1,80,0,0
34629,-100,4,2,1,90,0,0
34895,-100,4,2,1,100,0,0
35429,-100,4,2,1,90,0,1
38228,-100,4,2,1,5,0,1
38362,-100,4,2,1,90,0,1
42362,-100,4,2,1,5,0,1
42495,-100,4,2,1,90,0,1
42628,-100,4,2,1,5,0,1
42762,-100,4,2,1,90,0,1
43962,-100,4,2,1,85,0,1
56762,-100,4,2,1,75,0,0
58895,-100,4,2,1,70,0,0
75962,-100,4,2,1,60,0,0
81428,-100,4,2,1,5,0,0
81562,-100,4,2,1,60,0,0
84495,-100,4,2,1,65,0,0
90895,-100,4,2,1,60,0,0
91429,-100,4,2,1,70,0,0
91962,-100,4,2,1,80,0,0
92229,-100,4,2,1,90,0,0
92495,-100,4,2,1,100,0,0
93029,-100,4,2,1,90,0,1
99962,-100,4,2,1,5,0,1
100095,-100,4,2,1,90,0,1
100228,-100,4,2,1,5,0,1
100362,-100,4,2,1,90,0,1
101562,-100,4,2,1,85,0,1
105428,-100,4,2,1,5,0,1
105562,-100,4,2,1,85,0,1
114362,-100,4,2,1,75,0,0
116495,-100,4,2,1,90,0,0
123562,-100,4,2,1,5,0,0
123695,-100,4,2,1,90,0,0
123828,-100,4,2,1,5,0,0
123962,-100,4,2,1,90,0,0
124095,-100,4,2,1,5,0,0
124228,-100,4,2,1,90,0,0
124361,-100,4,2,1,5,0,0
124495,-100,4,2,1,90,0,0
125029,-100,4,2,1,80,0,0
133162,-100,4,2,1,5,0,0
133562,-125,4,2,1,75,0,0
140228,-125,4,2,1,5,0,0
140362,-125,4,2,1,75,0,0
141029,-100,4,2,1,75,0,0
142095,-100,4,2,1,90,0,1
149028,-100,4,2,1,5,0,1
149161,-100,4,2,1,90,0,1
149294,-100,4,2,1,5,0,1
149428,-100,4,2,1,90,0,1
150629,-100,4,2,1,85,0,1
161961,-100,4,2,1,5,0,1
162095,-100,4,2,1,85,0,1
162228,-100,4,2,1,5,0,1
162361,-100,4,2,1,85,0,1
163429,-100,4,2,1,75,0,0
165562,-100,4,2,1,100,0,0

[Colours]
Combo1 : 251,206,30
Combo2 : 255,128,64
Combo3 : 129,166,254

[HitObjects]
96,200,1295,5,6,1:2:0:0:
133,38,1562,1,8,0:0:0:0:
256,156,1829,1,2,1:2:0:0:
256,156,1962,1,2,1:2:0:0:
379,38,2229,2,0,P|401:110|444:146,1,130,2|2,1:2|1:2,0:0:0:0:
436,313,2762,1,2,0:0:0:0:
364,357,2895,2,0,L|299:348,1,65,2|2,1:2|1:2,0:0:0:0:
216,349,3162,2,0,L|151:357,1,65,10|2,0:0|0:0,0:0:0:0:
76,313,3429,5,2,1:2:0:0:
39,148,3695,1,10,0:0:0:0:
203,204,3962,1,2,1:2:0:0:
203,204,4095,1,2,1:2:0:0:
170,37,4362,2,0,P|247:50|309:40,1,130,2|2,1:2|1:2,0:0:0:0:
461,87,4895,1,2,0:0:0:0:
500,164,5029,2,0,P|489:194|486:226,1,65,2|2,1:2|1:2,0:0:0:0:
417,276,5295,2,0,P|386:265|354:262,1,65,10|2,0:0|0:0,0:0:0:0:
284,211,5562,5,6,1:2:0:0:
181,77,5829,1,8,0:0:0:0:
116,232,6095,1,2,1:2:0:0:
116,232,6229,1,2,1:2:0:0:
218,365,6495,2,0,L|362:357,1,130,2|2,1:2|1:2,0:0:0:0:
499,278,7029,1,2,0:0:0:0:
499,278,7162,2,0,L|507:201,1,65,2|2,1:2|1:2,0:0:0:0:
428,177,7429,2,0,L|420:100,1,65,10|2,0:0|0:0,0:0:0:0:
410,28,7695,5,6,1:2:0:0:
256,96,7962,1,10,0:0:0:0:
102,28,8229,1,2,1:2:0:0:
102,28,8362,1,2,1:2:0:0:
50,193,8629,1,2,1:2:0:0:
50,193,8762,2,0,L|115:190,1,65,0|2,0:0|1:2,0:0:0:0:
194,220,9029,2,0,P|256:203|318:219,1,130,10|10,0:0|0:0,0:0:0:0:
400,255,9429,1,2,1:2:0:0:
400,255,9562,1,10,0:0:0:0:
256,340,9829,5,6,1:2:0:0:
88,354,10095,1,8,0:0:0:0:
114,190,10362,1,2,1:2:0:0:
114,190,10495,1,2,1:2:0:0:
47,34,10762,2,0,B|141:42|141:42|171:22,1,130,2|2,1:2|1:2,0:0:0:0:
341,22,11295,1,2,0:0:0:0:
402,80,11429,2,0,P|402:114|422:148,1,65,2|2,1:2|1:2,0:0:0:0:
486,95,11695,2,0,P|500:123|499:156,1,65,10|2,0:0|0:0,0:0:0:0:
502,241,11962,5,2,1:2:0:0:
356,324,12229,1,10,0:0:0:0:
256,192,12495,1,2,1:2:0:0:
256,192,12629,1,2,1:2:0:0:
156,324,12895,2,0,P|119:282|47:242,1,130,2|2,1:2|1:2,0:0:0:0:
79,76,13429,1,2,0:0:0:0:
149,29,13562,2,0,L|233:37,1,65,2|2,1:2|1:2,0:0:0:0:
299,35,13829,2,0,L|363:28,1,65,10|2,0:0|0:0,0:0:0:0:
445,50,14095,5,6,1:2:0:0:
502,209,14362,1,8,0:0:0:0:
339,181,14629,1,2,1:2:0:0:
339,181,14762,1,2,1:2:0:0:
173,181,15029,2,0,P|110:197|48:180,1,130,2|2,1:2|1:2,0:0:0:0:
77,351,15562,1,2,0:0:0:0:
76,351,15695,2,0,L|140:344,1,65,2|2,1:2|1:2,0:0:0:0:
214,301,15962,1,10,0:0:0:0:
298,301,16095,6,0,L|441:317,1,130,6|2,1:2|1:2,0:0:0:0:
466,240,16495,2,0,L|401:232,1,65,10|2,0:0|1:2,0:0:0:0:
341,173,16762,1,2,1:2:0:0:
172,172,17029,1,2,1:2:0:0:
256,28,17295,2,0,L|320:20,1,65,10|10,0:0|0:0,0:0:0:0:
376,84,17562,2,0,L|440:76,1,65,2|2,1:2|1:2,0:0:0:0:
500,148,17829,1,10,0:0:0:0:
500,148,17962,1,10,0:0:0:0:
448,356,18362,6,0,P|389:329|326:337,1,130,6|10,1:2|0:0,0:0:0:0:
256,289,18762,1,2,0:0:0:0:
185,337,18895,2,0,P|122:329|64:356,1,130,2|10,1:2|0:0,0:0:0:0:
23,287,19295,1,2,0:0:0:0:
23,287,19429,2,0,L|35:208,1,65,2|0,1:2|2:0,0:0:0:0:
104,178,19695,2,0,L|113:113,1,65,10|0,0:0|0:0,0:0:0:0:
59,48,19962,2,0,P|118:27|176:54,1,130,2|10,1:2|0:0,0:0:0:0:
256,80,20362,1,0,0:0:0:0:
335,54,20495,6,0,P|393:27|452:48,1,130,2|10,1:2|0:0,0:0:0:0:
398,113,20895,1,0,0:0:0:0:
398,113,21029,2,0,L|408:178,1,65,2|2,1:2|1:2,0:0:0:0:
449,250,21295,1,10,0:0:0:0:
318,357,21562,2,0,P|255:340|193:357,1,130,2|10,1:2|0:0,0:0:0:0:
111,334,21962,1,2,1:2:0:0:
49,179,22229,1,2,1:2:0:0:
49,179,22362,1,10,0:0:0:0:
104,115,22495,6,0,L|241:105,1,130,6|2,1:2|1:2,0:0:0:0:
264,184,22895,2,0,L|247:252,1,65,10|2,0:0|0:0,0:0:0:0:
276,327,23162,2,0,L|413:317,1,130,2|10,1:2|0:0,0:0:0:0:
489,331,23562,1,2,1:2:0:0:
458,252,23695,2,0,L|473:188,1,65,2|2,1:2|0:0,0:0:0:0:
412,132,23962,2,0,P|428:69|411:7,1,130,10|2,0:0|1:2,0:0:0:0:
256,71,24495,1,10,0:0:0:0:
256,71,24629,1,2,0:0:0:0:
195,129,24762,6,0,P|169:187|190:248,1,130,2|10,1:2|0:0,0:0:0:0:
256,192,25162,1,2,0:0:0:0:
316,129,25295,2,0,P|342:187|322:248,1,130,2|10,1:2|0:0,0:0:0:0:
180,340,25829,1,14,1:2:0:0:
256,192,26095,1,14,1:2:0:0:
332,340,26362,1,14,1:2:0:0:
448,349,26895,6,0,P|432:286|457:222,1,130,6|10,1:2|0:0,0:0:0:0:
495,152,27295,1,2,0:0:0:0:
443,84,27429,2,0,L|300:75,1,130,2|10,1:2|0:0,0:0:0:0:
256,12,27829,1,2,0:0:0:0:
198,75,27962,2,0,L|133:79,1,65,2|2,1:2|0:0,0:0:0:0:
48,68,28229,2,0,L|52:132,1,65,10|0,0:0|0:0,0:0:0:0:
81,211,28495,2,0,P|144:203|196:239,1,130,2|10,1:2|0:0,0:0:0:0:
256,300,28895,1,2,0:0:0:0:
315,239,29029,6,0,P|367:203|431:211,1,130,2|10,1:2|0:0,0:0:0:0:
388,287,29429,1,2,0:0:0:0:
364,368,29562,2,0,L|299:372,1,65,2|2,1:2|1:2,0:0:0:0:
213,372,29829,1,10,0:0:0:0:
52,326,30095,2,0,P|88:273|80:210,1,130,2|10,1:2|0:0,0:0:0:0:
35,138,30495,2,0,P|27:74|63:22,1,130,2|2,1:2|1:2,0:0:0:0:
111,95,30895,1,10,0:0:0:0:
179,44,31029,6,0,L|338:38,1,130,6|2,1:2|1:2,0:0:0:0:
392,25,31429,2,0,P|394:57|381:86,1,65,10|2,0:0|0:0,0:0:0:0:
310,132,31695,2,0,B|281:191|281:191|309:252,1,130,2|10,1:2|0:0,0:0:0:0:
282,330,32095,1,2,1:2:0:0:
354,373,32229,2,0,P|367:344|364:312,1,65,2|2,1:2|0:0,0:0:0:0:
425,249,32495,2,0,P|367:225|308:248,1,130,10|2,0:0|1:2,0:0:0:0:
148,312,33029,1,10,0:0:0:0:
148,312,33162,1,2,0:0:0:0:
86,249,33295,6,0,P|145:224|204:248,1,130,14|10,1:2|1:2,0:0:0:0:
256,316,33695,1,10,1:2:0:0:
340,336,33829,2,0,P|398:360|457:337,1,130,10|10,1:2|1:2,0:0:0:0:
399,274,34229,1,10,1:2:0:0:
432,196,34362,2,0,L|420:56,2,130,10|10|10,1:2|1:2|1:2,0:0:0:0:
92,246,35429,6,0,P|119:302|181:312,1,130,6|10,1:2|0:0,0:0:0:0:
256,350,35829,1,2,0:0:0:0:
330,312,35962,2,0,P|392:302|419:246,1,130,2|10,1:2|0:0,0:0:0:0:
479,185,36362,1,2,0:0:0:0:
437,111,36495,2,0,L|363:118,1,65,2|2,1:2|0:0,0:0:0:0:
318,50,36762,2,0,P|256:65|194:51,1,130,10|2,0:0|1:2,0:0:0:0:
57,152,37295,2,0,L|42:243,1,65,10|2,0:0|0:0,0:0:0:0:
56,300,37562,6,0,B|145:292|145:292|178:326,1,130,6|10,1:2|0:0,0:0:0:0:
339,321,38095,2,0,L|415:313,1,65,2|0,1:2|2:0,0:0:0:0:
442,238,38362,2,0,L|371:231,1,65,10|2,0:0|0:0,0:0:0:0:
319,169,38629,2,0,P|256:185|193:170,1,130,2|10,1:2|0:0,0:0:0:0:
125,129,39029,1,0,0:0:0:0:
125,129,39162,1,2,1:2:0:0:
256,24,39429,1,10,0:0:0:0:
387,129,39695,6,0,B|416:156|468:152|468:152|460:220,1,130,6|10,1:2|0:0,0:0:0:0:
492,276,40095,1,2,0:0:0:0:
426,331,40229,2,0,L|297:351,1,130,2|10,1:2|0:0,0:0:0:0:
213,352,40629,1,2,0:0:0:0:
213,352,40762,2,0,L|84:332,1,130,2|10,1:2|0:0,0:0:0:0:
20,276,41162,1,2,0:0:0:0:
20,276,41295,1,2,1:2:0:0:
68,113,41562,2,0,L|150:125,1,65,10|2,0:0|0:0,0:0:0:0:
193,63,41829,6,0,P|255:48|318:64,1,130,6|2,1:2|1:2,0:0:0:0:
379,122,42229,2,0,L|444:113,1,65,10|0,1:2|2:0,0:0:0:0:
477,190,42495,2,0,L|412:199,1,65,10|0,1:2|2:0,0:0:0:0:
348,254,42762,2,0,P|256:283|165:254,1,195,14|10,1:2|0:0,0:0:0:0:
134,87,43429,1,2,1:2:0:0:
6,197,43695,1,10,0:0:0:0:
52,359,43962,6,0,L|196:352,1,130,6|10,1:2|0:0,0:0:0:0:
256,312,44362,1,0,0:0:0:0:
330,352,44495,2,0,L|460:359,1,130,2|10,1:2|0:0,0:0:0:0:
488,191,45029,2,0,L|473:109,1,65,2|0,1:2|0:0,0:0:0:0:
400,88,45295,2,0,L|385:170,1,65,10|0,0:0|0:0,0:0:0:0:
319,202,45562,2,0,P|256:186|194:201,1,130,2|10,1:2|0:0,0:0:0:0:
68,312,46095,6,0,B|87:348|87:348|178:353,1,130,6|10,1:2|0:0,0:0:0:0:
256,324,46495,1,0,0:0:0:0:
336,353,46629,2,0,L|420:348,1,65,2|0,1:2|0:0,0:0:0:0:
476,308,46895,1,10,0:0:0:0:
419,148,47162,2,0,P|447:89|414:19,1,130,2|10,1:2|0:0,0:0:0:0:
362,86,47562,1,0,0:0:0:0:
289,43,47695,2,0,L|220:43,1,65,2|0,1:2|0:0,0:0:0:0:
150,86,47962,1,10,0:0:0:0:
60,228,48229,6,0,P|32:287|65:357,1,130,6|10,1:2|0:0,0:0:0:0:
117,290,48629,1,0,0:0:0:0:
193,255,48762,2,0,B|255:274|255:274|318:256,1,130,2|10,1:2|0:0,0:0:0:0:
376,196,49162,2,0,P|404:255|371:325,1,130,6|0,1:2|0:0,0:0:0:0:
313,360,49562,2,0,L|248:364,1,65,10|0,0:0|0:0,0:0:0:0:
169,338,49829,2,0,P|108:317|51:345,1,130,2|10,1:2|0:0,0:0:0:0:
87,202,50362,6,0,L|96:44,1,130,6|10,1:2|0:0,0:0:0:0:
154,11,50762,1,0,0:0:0:0:
223,59,50895,2,0,L|288:59,1,65,2|0,1:2|0:0,0:0:0:0:
358,11,51162,1,10,0:0:0:0:
417,72,51295,2,0,L|425:202,1,130,6|2,1:2|0:0,0:0:0:0:
450,283,51695,2,0,P|419:292|392:317,1,65,10|2,0:0|0:0,0:0:0:0:
318,350,51962,2,0,B|256:334|256:334|193:350,1,130,2|10,1:2|0:0,0:0:0:0:
24,359,52495,6,0,B|53:281|53:281|32:239,1,130,6|10,1:2|0:0,0:0:0:0:
60,72,53029,2,0,P|140:79|185:37,1,130,2|10,1:2|0:0,0:0:0:0:
256,20,53429,1,0,0:0:0:0:
336,50,53562,2,0,L|400:44,1,65,2|0,1:2|0:0,0:0:0:0:
431,123,53829,2,0,L|366:128,1,65,10|0,0:0|0:0,0:0:0:0:
320,198,54095,2,0,P|257:182|195:197,1,130,2|10,1:2|0:0,0:0:0:0:
62,304,54629,6,0,L|202:315,1,130,6|10,1:2|0:0,0:0:0:0:
256,368,55029,1,0,0:0:0:0:
320,314,55162,2,0,L|385:309,1,65,2|0,1:2|0:0,0:0:0:0:
462,345,55429,2,0,P|471:314|465:282,1,65,10|0,0:0|0:0,0:0:0:0:
443,201,55695,1,2,1:2:0:0:
457,32,55962,2,0,L|387:14,1,65,10|0,0:0|0:0,0:0:0:0:
317,52,56229,2,0,B|255:36|255:36|192:52,1,130,2|10,1:2|0:0,0:0:0:0:
78,182,56762,5,6,1:2:0:0:
78,182,57829,6,0,L|87:311,1,130,6|2,1:2|0:0,0:0:0:0:
252,350,58362,2,0,L|242:220,1,130,2|2,0:0|0:0,0:0:0:0:
78,182,58895,1,6,1:2:0:0:
232,64,67429,5,6,1:2:0:0:
68,32,67695,1,8,0:0:0:0:
126,193,67962,1,2,1:2:0:0:
126,193,68095,1,2,1:2:0:0:
68,352,68362,2,0,L|211:341,1,130,2|2,1:2|1:2,0:0:0:0:
364,364,68895,1,2,0:0:0:0:
412,296,69029,2,0,L|407:217,1,65,2|2,1:2|1:2,0:0:0:0:
492,244,69295,2,0,L|487:179,1,65,10|2,0:0|0:0,0:0:0:0:
408,148,69562,6,0,P|355:164|324:232,1,130,2|10,1:2|0:0,0:0:0:0:
197,342,70095,1,2,1:2:0:0:
197,342,70229,1,2,1:2:0:0:
30,368,70495,2,0,L|19:231,1,130,2|2,1:2|1:2,0:0:0:0:
91,84,71029,1,2,0:0:0:0:
149,22,71162,2,0,L|221:27,1,65,2|2,1:2|1:2,0:0:0:0:
299,26,71429,2,0,L|363:21,1,65,10|2,0:0|0:0,0:0:0:0:
421,84,71695,6,0,B|467:123|421:156|474:199,1,130,6|8,1:2|0:0,0:0:0:0:
404,353,72229,1,2,1:2:0:0:
404,353,72362,1,2,1:2:0:0:
240,309,72629,2,0,B|291:267|245:234|291:195,1,130,2|2,1:2|1:2,0:0:0:0:
421,84,73162,1,2,0:0:0:0:
350,37,73295,2,0,P|318:32|286:39,1,65,2|2,1:2|1:2,0:0:0:0:
227,101,73562,1,10,0:0:0:0:
227,101,73695,6,0,P|195:108|114:56,1,130,6|2,1:2|1:2,0:0:0:0:
40,28,74095,1,10,0:0:0:0:
76,192,74362,1,2,1:2:0:0:
40,356,74629,1,2,1:2:0:0:
201,307,74895,2,0,L|272:316,1,65,10|10,0:0|0:0,0:0:0:0:
334,364,75162,2,0,L|405:355,1,65,2|2,1:2|1:2,0:0:0:0:
479,324,75429,1,10,0:0:0:0:
479,324,75562,1,10,0:0:0:0:
410,79,75962,6,0,B|414:38|414:38|305:46,1,130,6|10,1:2|0:0,0:0:0:0:
256,92,76362,1,2,0:0:0:0:
186,44,76495,2,0,B|98:38|98:38|102:79,1,130,2|10,1:2|0:0,0:0:0:0:
51,147,76895,1,2,0:0:0:0:
51,147,77029,2,0,L|57:242,1,65,2|0,1:2|0:0,0:0:0:0:
139,227,77295,2,0,L|133:322,1,65,10|0,0:0|0:0,0:0:0:0:
63,339,77562,2,0,P|118:375|180:364,1,130,2|10,1:2|0:0,0:0:0:0:
256,328,77962,1,2,0:0:0:0:
333,364,78095,6,0,P|396:374|449:339,1,130,2|10,1:2|0:0,0:0:0:0:
380,288,78495,1,0,0:0:0:0:
380,288,78629,2,0,L|375:200,1,65,2|2,1:2|1:2,0:0:0:0:
400,144,78895,1,10,0:0:0:0:
256,60,79162,1,2,1:2:0:0:
112,144,79429,2,0,P|151:193|144:256,1,130,10|2,0:0|1:2,0:0:0:0:
72,302,79829,1,2,1:2:0:0:
67,218,79962,1,10,0:0:0:0:
67,218,80095,6,0,P|27:168|35:106,1,130,6|2,1:2|1:2,0:0:0:0:
80,34,80495,2,0,L|164:25,1,65,10|2,0:0|0:0,0:0:0:0:
192,96,80762,2,0,B|240:120|244:80|268:80|272:120|319:96,1,130,2|10,1:2|0:0,0:0:0:0:
367,27,81162,1,2,1:2:0:0:
367,27,81295,2,0,L|432:34,1,65,2|0,1:2|2:0,0:0:0:0:
486,98,81562,2,0,B|434:139|480:172|434:211,1,130,10|2,0:0|1:2,0:0:0:0:
288,297,82095,2,0,L|222:297,1,65,10|2,0:0|0:0,0:0:0:0:
151,251,82362,6,0,B|202:209|156:176|202:137,1,130,2|10,1:2|0:0,0:0:0:0:
256,72,82762,1,2,0:0:0:0:
310,137,82895,2,0,B|356:176|310:209|361:250,1,130,2|10,1:2|0:0,0:0:0:0:
424,92,83429,1,14,1:2:0:0:
256,72,83695,1,14,1:2:0:0:
88,92,83962,1,14,1:2:0:0:
207,230,84495,6,0,L|64:221,1,130,6|10,1:2|0:0,0:0:0:0:
28,152,84895,1,2,0:0:0:0:
88,92,85029,2,0,P|118:42|202:28,1,130,2|10,1:2|0:0,0:0:0:0:
256,68,85429,1,2,0:0:0:0:
328,23,85562,2,0,L|393:27,1,65,2|2,1:2|0:0,0:0:0:0:
393,111,85829,2,0,L|457:115,1,65,10|0,0:0|0:0,0:0:0:0:
449,197,86095,2,0,P|398:235|336:227,1,130,2|10,1:2|0:0,0:0:0:0:
256,263,86495,1,2,0:0:0:0:
175,227,86629,6,0,P|112:236|62:198,1,130,2|10,1:2|0:0,0:0:0:0:
134,153,87029,1,2,0:0:0:0:
204,106,87162,2,0,P|184:80|156:66,1,65,2|2,1:2|1:2,0:0:0:0:
79,31,87429,1,10,0:0:0:0:
62,198,87695,1,2,1:2:0:0:
61,197,87829,2,0,B|34:256|34:256|59:317,1,130,0|2,0:0|1:2,0:0:0:0:
128,365,88229,2,0,L|192:358,1,65,2|2,1:2|1:2,0:0:0:0:
362,357,88629,1,6,1:2:0:0:
362,357,88762,6,0,L|428:364,1,65,0|2,0:0|1:2,0:0:0:0:
455,284,89029,2,0,L|390:277,1,65,10|2,0:0|0:0,0:0:0:0:
310,252,89295,2,0,B|281:193|281:193|309:132,1,130,2|10,1:2|0:0,0:0:0:0:
282,54,89695,1,2,1:2:0:0:
354,11,89829,2,0,P|367:40|364:72,1,65,2|2,1:2|0:0,0:0:0:0:
425,134,90095,2,0,P|367:158|308:135,1,130,10|2,0:0|1:2,0:0:0:0:
148,72,90629,1,10,0:0:0:0:
148,72,90762,1,2,0:0:0:0:
86,135,90895,6,0,P|145:160|204:136,1,130,14|10,1:2|1:2,0:0:0:0:
256,68,91295,1,10,1:2:0:0:
340,48,91429,2,0,P|398:24|457:47,1,130,10|10,1:2|1:2,0:0:0:0:
399,110,91829,1,10,1:2:0:0:
432,188,91962,2,0,L|420:328,2,130,10|10|10,1:2|1:2|1:2,0:0:0:0:
101,117,93029,6,0,B|94:81|94:81|191:75,1,130,6|10,1:2|0:0,0:0:0:0:
256,25,93429,1,2,0:0:0:0:
324,75,93562,2,0,B|418:81|418:81|411:117,1,130,2|10,1:2|0:0,0:0:0:0:
457,187,93962,1,2,0:0:0:0:
421,263,94095,2,0,P|419:298|393:331,1,65,2|2,1:2|0:0,0:0:0:0:
320,341,94362,2,0,B|256:325|256:325|192:341,1,130,10|2,0:0|1:2,0:0:0:0:
57,232,94895,2,0,L|42:141,1,65,10|2,0:0|0:0,0:0:0:0:
56,83,95162,6,0,P|112:49|174:54,1,130,6|10,1:2|0:0,0:0:0:0:
339,54,95695,2,0,P|377:57|403:72,1,65,2|2,1:2|0:0,0:0:0:0:
453,136,95962,2,0,P|424:150|391:151,1,65,10|2,0:0|0:0,0:0:0:0:
320,196,96229,2,0,B|256:180|256:180|192:196,1,130,2|10,1:2|0:0,0:0:0:0:
130,251,96629,1,0,0:0:0:0:
130,251,96762,1,2,1:2:0:0:
256,360,97029,1,10,0:0:0:0:
382,251,97295,6,0,B|463:241|463:241|476:191,1,130,6|10,1:2|0:0,0:0:0:0:
499,112,97695,1,2,0:0:0:0:
428,64,97829,2,0,B|421:21|421:21|376:37|336:20,1,130,2|10,1:2|0:0,0:0:0:0:
256,52,98229,1,2,0:0:0:0:
175,20,98362,2,0,B|135:37|90:21|90:21|84:64,1,130,2|10,1:2|0:0,0:0:0:0:
20,108,98762,1,2,0:0:0:0:
20,108,98895,1,2,1:2:0:0:
68,272,99162,2,0,L|150:284,1,65,10|2,0:0|0:0,0:0:0:0:
194,338,99429,6,0,P|256:323|319:339,1,130,6|2,1:2|1:2,0:0:0:0:
379,281,99829,2,0,L|444:272,1,65,10|0,1:2|2:0,0:0:0:0:
477,194,100095,2,0,L|412:185,1,65,10|0,1:2|2:0,0:0:0:0:
348,130,100362,2,0,P|256:101|165:130,1,195,14|10,1:2|0:0,0:0:0:0:
134,297,101029,1,2,1:2:0:0:
6,187,101295,1,10,0:0:0:0:
55,25,101562,6,0,B|107:54|122:0|179:33,1,130,6|10,1:2|0:0,0:0:0:0:
256,72,101962,1,0,0:0:0:0:
332,33,102095,2,0,B|389:0|404:54|457:25,1,130,2|10,1:2|0:0,0:0:0:0:
456,194,102629,2,0,P|472:228|472:258,1,65,2|0,1:2|0:0,0:0:0:0:
409,310,102895,2,0,P|392:275|392:245,1,65,10|0,0:0|0:0,0:0:0:0:
318,206,103162,2,0,B|256:188|256:188|194:206,1,130,2|10,1:2|0:0,0:0:0:0:
73,86,103695,6,0,P|116:39|178:27,1,130,6|10,1:2|0:0,0:0:0:0:
256,60,104095,1,0,0:0:0:0:
333,27,104229,2,0,P|365:27|395:39,1,65,2|0,1:2|0:0,0:0:0:0:
470,77,104495,1,10,0:0:0:0:
419,236,104762,2,0,P|447:295|414:365,1,130,2|10,1:2|0:0,0:0:0:0:
362,298,105162,1,0,0:0:0:0:
289,341,105295,2,0,L|220:341,1,65,2|0,1:2|2:0,0:0:0:0:
150,298,105562,1,10,0:0:0:0:
60,156,105829,6,0,P|32:97|65:27,1,130,6|10,1:2|0:0,0:0:0:0:
117,94,106229,1,0,0:0:0:0:
194,128,106362,2,0,B|257:110|257:110|319:126,1,130,2|10,1:2|0:0,0:0:0:0:
376,188,106762,2,0,P|404:129|371:59,1,130,6|0,1:2|0:0,0:0:0:0:
312,23,107162,2,0,L|247:19,1,65,10|0,0:0|0:0,0:0:0:0:
169,45,107429,2,0,P|108:66|51:38,1,130,2|10,1:2|0:0,0:0:0:0:
79,205,107962,6,0,P|57:264|85:322,1,130,6|10,1:2|0:0,0:0:0:0:
154,373,108362,1,0,0:0:0:0:
223,325,108495,2,0,L|288:325,1,65,2|0,1:2|0:0,0:0:0:0:
358,373,108762,1,10,0:0:0:0:
426,322,108895,2,0,P|454:264|433:205,1,130,6|2,1:2|0:0,0:0:0:0:
416,121,109295,2,0,L|351:117,1,65,10|2,0:0|0:0,0:0:0:0:
320,37,109562,2,0,P|257:53|194:38,1,130,2|10,1:2|0:0,0:0:0:0:
23,46,110095,6,0,P|50:103|29:163,1,130,6|10,1:2|0:0,0:0:0:0:
51,333,110629,2,0,B|113:317|113:317|176:333,1,130,2|10,1:2|0:0,0:0:0:0:
256,364,111029,1,0,0:0:0:0:
336,334,111162,2,0,L|400:340,1,65,2|0,1:2|0:0,0:0:0:0:
431,261,111429,2,0,L|366:256,1,65,10|0,0:0|0:0,0:0:0:0:
318,186,111695,2,0,B|256:202|256:202|193:186,1,130,2|10,1:2|0:0,0:0:0:0:
60,78,112229,6,0,P|125:54|196:63,1,130,6|10,1:2|0:0,0:0:0:0:
256,16,112629,1,0,0:0:0:0:
328,59,112762,2,0,L|393:64,1,65,2|0,1:2|0:0,0:0:0:0:
470,28,113029,2,0,P|479:59|473:91,1,65,10|0,0:0|0:0,0:0:0:0:
451,172,113295,1,2,1:2:0:0:
457,341,113562,2,0,L|387:349,1,65,10|0,0:0|0:0,0:0:0:0:
319,305,113829,2,0,P|256:321|193:306,1,130,2|10,1:2|0:0,0:0:0:0:
65,195,114362,5,6,1:2:0:0:
65,195,115429,6,0,L|74:66,1,130,6|2,1:2|0:0,0:0:0:0:
239,27,115962,2,0,L|229:157,1,130,2|2,0:0|0:0,0:0:0:0:
65,195,116495,6,0,L|60:259,1,65,6|0,1:2|0:0,0:0:0:0:
32,340,116762,1,10,0:0:0:0:
194,292,117029,2,0,P|256:277|319:293,1,130,2|10,1:2|0:0,0:0:0:0:
382,349,117429,1,2,0:0:0:0:
438,189,117695,1,0,0:0:0:0:
481,115,117829,2,0,L|475:45,1,65,10|0,0:0|0:0,0:0:0:0:
392,37,118095,2,0,L|386:101,1,65,2|2,1:2|1:2,0:0:0:0:
318,151,118362,1,10,0:0:0:0:
318,151,118495,6,0,P|255:135|193:150,1,130,2|2,0:0|0:0,0:0:0:0:
126,101,118895,2,0,L|120:37,1,65,10|2,0:0|0:0,0:0:0:0:
36,50,119161,2,0,L|31:115,1,65,2|2,1:2|0:0,0:0:0:0:
67,192,119429,2,0,L|73:256,1,65,10|2,0:0|0:0,0:0:0:0:
110,332,119695,1,2,1:2:0:0:
256,248,119962,1,10,0:0:0:0:
402,332,120229,2,0,P|446:288|444:212,1,130,2|10,1:2|0:0,0:0:0:0:
368,252,120629,1,2,0:0:0:0:
324,180,120762,6,0,L|314:115,1,65,6|0,1:2|0:0,0:0:0:0:
256,56,121029,1,10,0:0:0:0:
188,180,121295,2,0,L|197:115,1,65,2|2,1:2|1:2,0:0:0:0:
344,28,121696,1,2,0:0:0:0:
469,140,121962,1,0,0:0:0:0:
448,223,122096,2,0,L|454:293,1,65,10|2,0:0|0:0,0:0:0:0:
404,356,122362,2,0,L|334:362,1,65,2|2,1:2|1:2,0:0:0:0:
257,335,122629,1,10,0:0:0:0:
107,355,122895,6,0,P|66:308|74:245,1,130,6|10,1:2|1:2,0:0:0:0:
140,191,123295,1,0,0:0:0:0:
140,191,123429,2,0,L|125:118,1,65,2|0,1:2|2:0,0:0:0:0:
200,85,123695,2,0,L|212:21,1,65,10|0,0:0|2:0,0:0:0:0:
299,21,123962,2,0,L|312:85,1,65,2|0,1:2|2:0,0:0:0:0:
385,127,124228,2,0,L|372:190,1,65,10|0,0:0|2:0,0:0:0:0:
319,257,124495,2,0,P|256:241|194:256,1,130,2|10,1:2|0:0,0:0:0:0:
115,290,124896,1,0,0:0:0:0:
149,367,125029,6,0,L|223:360,1,65,6|0,1:2|0:0,0:0:0:0:
299,360,125295,2,0,L|363:366,1,65,10|0,0:0|0:0,0:0:0:0:
438,326,125562,2,0,P|424:264|460:199,1,130,2|10,1:2|0:0,0:0:0:0:
462,37,126095,2,0,B|434:20|434:20|337:35,1,130,2|10,1:2|0:0,0:0:0:0:
256,16,126495,1,0,0:0:0:0:
175,35,126629,1,2,1:2:0:0:
22,107,126895,1,10,0:0:0:0:
30,276,127162,6,0,L|36:346,1,65,6|0,1:2|0:0,0:0:0:0:
119,354,127428,2,0,L|125:290,1,65,10|0,0:0|0:0,0:0:0:0:
193,240,127695,2,0,P|256:256|318:241,1,130,2|10,1:2|0:0,0:0:0:0:
366,171,128095,1,2,1:2:0:0:
318,100,128229,2,0,P|255:85|193:101,1,130,2|10,1:2|0:0,0:0:0:0:
146,171,128629,1,0,0:0:0:0:
146,171,128762,1,2,1:2:0:0:
256,300,129029,1,10,0:0:0:0:
366,171,129295,5,6,1:2:0:0:
396,337,129562,2,0,L|304:341,1,65,10|0,0:0|0:0,0:0:0:0:
256,300,129829,1,2,1:2:0:0:
180,339,129962,2,0,L|116:337,1,65,2|10,1:2|0:0,0:0:0:0:
47,286,130229,2,0,B|63:258|63:258|48:161,1,130,2|2,1:2|1:2,0:0:0:0:
25,80,130629,2,0,P|56:73|88:81,1,65,10|2,0:0|0:0,0:0:0:0:
145,18,130895,2,0,P|165:41|175:73,1,65,2|2,1:2|0:0,0:0:0:0:
258,90,131162,2,0,P|247:119|225:144,1,65,10|2,0:0|0:0,0:0:0:0:
182,215,131429,6,0,B|165:242|165:242|180:339,1,130,6|10,1:2|0:0,0:0:0:0:
257,375,131829,1,2,0:0:0:0:
332,339,131962,2,0,L|410:328,2,65,2|2|10,1:2|0:0|0:0,0:0:0:0:
256,192,132362,12,0,133162,2:0:0:0:
112,130,133562,6,0,P|177:121|225:133,1,104,6|2,1:2|1:2,0:0:0:0:
298,255,134095,2,0,P|349:263|400:254,1,104,2|2,1:2|1:2,0:0:0:0:
477,268,134495,1,2,0:0:0:0:
453,193,134629,2,0,L|448:141,1,52,2|2,1:2|0:0,0:0:0:0:
431,65,134895,2,0,B|364:54|364:54|328:76,1,104,2|2,1:2|1:2,0:0:0:0:
179,72,135429,1,2,1:2:0:0:
152,145,135562,1,2,0:0:0:0:
97,89,135695,6,0,P|73:141|98:201,1,104,2|2,1:2|1:2,0:0:0:0:
73,265,136095,1,2,0:0:0:0:
73,265,136229,2,0,L|75:316,1,52,2|2,1:2|0:0,0:0:0:0:
151,334,136495,2,0,L|154:272,1,52,2|2,1:2|0:0,0:0:0:0:
206,223,136762,2,0,P|256:210|306:223,1,104,2|2,1:2|1:2,0:0:0:0:
435,135,137295,2,0,P|384:147|334:134,1,104,2|2,1:2|1:2,0:0:0:0:
205,45,137829,6,0,P|255:32|305:45,1,104,6|2,1:2|1:2,0:0:0:0:
435,135,138362,2,0,L|445:205,1,52,2|2,1:2|0:0,0:0:0:0:
385,239,138629,2,0,L|375:309,1,52,2|2,1:2|0:0,0:0:0:0:
308,327,138896,2,0,B|256:317|256:317|200:329,1,104,2|2,1:2|1:2,0:0:0:0:
135,290,139295,1,2,0:0:0:0:
135,290,139429,1,2,1:2:0:0:
23,180,139696,1,2,1:2:0:0:
23,180,139829,1,2,0:0:0:0:
46,108,139962,6,0,P|96:97|146:109,1,104,2|0,1:2|2:0,0:0:0:0:
205,56,140362,2,0,P|255:66|305:54,2,104
420,138,142095,6,0,P|393:82|331:72,1,130,6|10,1:2|0:0,0:0:0:0:
256,34,142495,1,2,0:0:0:0:
182,72,142628,2,0,P|120:82|93:138,1,130,2|10,1:2|0:0,0:0:0:0:
33,199,143028,1,2,0:0:0:0:
75,273,143161,2,0,L|149:266,1,65,2|2,1:2|0:0,0:0:0:0:
194,334,143428,2,0,P|256:319|318:333,1,130,10|2,0:0|1:2,0:0:0:0:
455,232,143961,2,0,L|470:141,1,65,10|2,0:0|0:0,0:0:0:0:
456,84,144228,6,0,B|367:92|367:92|334:58,1,130,6|10,1:2|0:0,0:0:0:0:
173,63,144761,2,0,L|97:71,1,65,2|2,1:2|0:0,0:0:0:0:
70,146,145028,2,0,L|141:153,1,65,10|2,0:0|0:0,0:0:0:0:
193,215,145295,2,0,P|256:199|319:214,1,130,2|10,1:2|0:0,0:0:0:0:
387,255,145695,1,0,0:0:0:0:
387,255,145828,1,2,1:2:0:0:
256,360,146095,1,10,0:0:0:0:
125,255,146362,6,0,B|96:228|44:232|44:232|52:164,1,130,6|10,1:2|0:0,0:0:0:0:
20,108,146761,1,2,0:0:0:0:
86,53,146895,2,0,L|215:33,1,130,2|10,1:2|0:0,0:0:0:0:
299,32,147295,1,2,0:0:0:0:
299,32,147428,2,0,L|428:52,1,130,2|10,1:2|0:0,0:0:0:0:
492,108,147828,1,2,0:0:0:0:
492,108,147961,1,2,1:2:0:0:
444,271,148228,2,0,L|362:259,1,65,10|2,0:0|0:0,0:0:0:0:
319,321,148495,6,0,P|257:336|194:320,1,130,6|2,1:2|1:2,0:0:0:0:
133,262,148895,2,0,L|68:271,1,65,10|0,1:2|2:0,0:0:0:0:
35,194,149161,2,0,L|100:185,1,65,10|0,1:2|2:0,0:0:0:0:
164,130,149429,2,0,P|256:101|347:130,1,195,14|10,1:2|0:0,0:0:0:0:
378,297,150095,1,2,1:2:0:0:
506,187,150361,1,10,0:0:0:0:
460,25,150628,6,0,L|316:32,1,130,6|10,1:2|0:0,0:0:0:0:
256,72,151028,1,0,0:0:0:0:
182,32,151162,2,0,L|52:25,1,130,2|10,1:2|0:0,0:0:0:0:
27,192,151695,2,0,L|42:274,1,65,2|0,1:2|0:0,0:0:0:0:
112,296,151961,2,0,L|127:214,1,65,10|0,0:0|0:0,0:0:0:0:
193,182,152228,2,0,P|256:198|318:183,1,130,2|10,1:2|0:0,0:0:0:0:
444,72,152762,6,0,B|425:36|425:36|334:31,1,130,6|10,1:2|0:0,0:0:0:0:
256,60,153161,1,0,0:0:0:0:
176,31,153295,2,0,L|92:36,1,65,2|0,1:2|0:0,0:0:0:0:
36,76,153561,1,10,0:0:0:0:
93,236,153828,2,0,P|65:295|98:365,1,130,2|10,1:2|0:0,0:0:0:0:
150,298,154228,1,0,0:0:0:0:
223,341,154361,2,0,L|292:341,1,65,2|0,1:2|0:0,0:0:0:0:
362,298,154628,1,10,0:0:0:0:
452,156,154895,6,0,P|480:97|447:27,1,130,6|10,1:2|0:0,0:0:0:0:
395,94,155295,1,0,0:0:0:0:
319,129,155428,2,0,B|257:110|257:110|194:128,1,130,2|10,1:2|0:0,0:0:0:0:
136,188,155828,2,0,P|108:129|141:59,1,130,6|0,1:2|0:0,0:0:0:0:
199,24,156228,2,0,L|264:20,1,65,10|0,0:0|0:0,0:0:0:0:
343,46,156495,2,0,P|404:67|461:39,1,130,2|10,1:2|0:0,0:0:0:0:
425,182,157028,6,0,L|416:340,1,130,6|10,1:2|0:0,0:0:0:0:
358,373,157428,1,0,0:0:0:0:
289,325,157561,2,0,L|224:325,1,65,2|0,1:2|0:0,0:0:0:0:
154,373,157828,1,10,0:0:0:0:
95,312,157962,2,0,L|87:182,1,130,6|2,1:2|0:0,0:0:0:0:
62,101,158361,2,0,P|93:92|120:67,1,65,10|2,0:0|0:0,0:0:0:0:
194,34,158628,2,0,B|256:50|256:50|319:34,1,130,2|10,1:2|0:0,0:0:0:0:
488,25,159162,6,0,B|459:103|459:103|480:145,1,130,6|10,1:2|0:0,0:0:0:0:
452,312,159695,2,0,P|372:305|327:347,1,130,2|10,1:2|0:0,0:0:0:0:
256,364,160095,1,0,0:0:0:0:
176,334,160228,2,0,L|112:340,1,65,2|0,1:2|0:0,0:0:0:0:
81,261,160495,2,0,L|146:256,1,65,10|0,0:0|0:0,0:0:0:0:
192,186,160762,2,0,P|255:202|317:187,1,130,2|10,1:2|0:0,0:0:0:0:
450,80,161295,6,0,L|310:69,1,130,6|10,1:2|0:0,0:0:0:0:
256,16,161695,1,0,0:0:0:0:
192,70,161828,2,0,L|127:75,1,65,2|0,1:2|2:0,0:0:0:0:
50,39,162095,2,0,P|41:70|47:102,1,65,10|0,0:0|2:0,0:0:0:0:
69,183,162361,1,2,1:2:0:0:
55,352,162628,2,0,L|125:370,1,65,10|0,0:0|0:0,0:0:0:0:
195,332,162895,2,0,B|257:348|257:348|320:332,1,130,2|10,1:2|0:0,0:0:0:0:
434,202,163428,5,6,1:2:0:0:
434,202,164495,6,0,L|425:73,1,130,6|2,1:2|0:0,0:0:0:0:
260,34,165028,2,0,L|270:164,1,130,2|2,0:0|0:0,0:0:0:0:
434,202,165562,6,0,L|439:266,1,65,6|2,1:2|0:0,0:0:0:0:
361,310,165829,2,0,L|356:246,1,65,2|2,1:2|0:0,0:0:0:0:
275,269,166095,2,0,L|270:333,1,65,2|2,1:2|0:0,0:0:0:0:
192,289,166362,2,0,L|197:225,1,65,2|2,1:2|0:0,0:0:0:0:
168,144,166629,5,14,1:2:0:0:
