osu file format v14

[General]
AudioFilename: audio.mp3
AudioLeadIn: 0
PreviewTime:34780
Countdown: 0
SampleSet: Soft
StackLeniency: 0.4
Mode: 0
LetterboxInBreaks: 0
WidescreenStoryboard: 1

[Editor]
DistanceSpacing: 0.9
BeatDivisor: 4
GridSize: 32
TimelineZoom: 2.999999

[Metadata]
Title:Ego Rock long
TitleUnicode:エゴロック long
Artist:Three
ArtistUnicode:すりぃ
Creator:Nevo
Version:Elcheer's Extra
Source:
Tags:Len Kagamine 鏡音レン vocaloid full version wanpachi cycopton Jonarwhal kyrian -white elcheer addy2607 gokugohan12468 KittyAdventure jrock j-rock japanese rock collage
BeatmapID:2693310
BeatmapSetID:1205168

[Difficulty]
HPDrainRate:5
CircleSize:3.7
OverallDifficulty:8.8
ApproachRate:9.6
SliderMultiplier:1.6
SliderTickRate:1

[Events]
//Background and Video events
0,0,"76261478_p0.jpg",0,0
//Break Periods
//Storyboard Layer 0 (Background)
//Storyboard Layer 1 (Fail)
//Storyboard Layer 2 (Pass)
//Storyboard Layer 3 (Foreground)
//Storyboard Layer 4 (Overlay)
//Storyboard Sound Samples

[TimingPoints]
-2971,266.666666666667,4,2,1,50,1,0
229,-166.666666666667,4,2,1,50,0,0
762,-500,4,2,1,60,0,0
1295,-100,4,2,1,70,0,0
18362,-125,4,2,1,60,0,0
19562,-125,4,2,1,5,0,0
19695,-125,4,2,1,60,0,0
24162,-125,4,2,1,5,0,0
24229,-125,4,2,1,60,0,0
25495,-125,4,2,1,5,0,0
25562,-125,4,2,1,60,0,0
25762,-125,4,2,1,5,0,0
25829,-100,4,2,1,60,0,0
26562,-100,4,2,1,5,0,0
26629,-100,4,2,1,60,0,0
26895,-125,4,2,1,65,0,0
33295,-100,4,2,1,60,0,0
33829,-100,4,2,1,70,0,0
34362,-100,4,2,1,80,0,0
34629,-100,4,2,1,90,0,0
34895,-200,4,2,1,100,0,0
35295,-200,4,2,1,5,0,0
35429,-83.3333333333333,4,2,1,90,0,1
43962,-100,4,2,1,85,0,1
56762,-125,4,2,1,75,0,0
58895,-100,4,2,1,70,0,0
73695,-100,4,2,1,70,0,0
75962,-125,4,2,1,60,0,0
79095,-125,4,2,1,5,0,0
79162,-125,4,2,1,60,0,0
81428,-125,4,2,1,5,0,0
81562,-125,4,2,1,60,0,0
83429,-100,4,2,1,60,0,0
83895,-100,4,2,1,5,0,0
83962,-100,4,2,1,60,0,0
84162,-100,4,2,1,5,0,0
84229,-100,4,2,1,60,0,0
84495,-100,4,2,1,65,0,0
90895,-100,4,2,1,60,0,0
91429,-100,4,2,1,70,0,0
91962,-100,4,2,1,80,0,0
92229,-100,4,2,1,90,0,0
92495,-200,4,2,1,100,0,0
92628,-200,4,2,1,5,0,0
92695,-200,4,2,1,100,0,0
93029,-83.3333333333333,4,2,1,90,0,1
101562,-100,4,2,1,85,0,1
105428,-100,4,2,1,5,0,1
105562,-100,4,2,1,85,0,1
105695,-100,4,2,1,5,0,1
105829,-100,4,2,1,85,0,1
114362,-125,4,2,1,75,0,0
116162,-125,4,2,1,5,0,0
116229,-125,4,2,1,75,0,0
116495,-100,4,2,1,90,0,0
121229,-100,4,2,1,5,0,0
121295,-100,4,2,1,90,0,0
125029,-125,4,2,1,80,0,0
126228,-125,4,2,1,5,0,0
126362,-125,4,2,1,80,0,0
126495,-125,4,2,1,5,0,0
126629,-125,4,2,1,80,0,0
128362,-125,4,2,1,5,0,0
128495,-125,4,2,1,80,0,0
133295,-125,4,2,1,5,0,0
133562,-166.666666666667,4,2,1,75,0,0
142095,-83.3333333333333,4,2,1,90,0,1
150629,-100,4,2,1,85,0,1
161428,-100,4,2,1,5,0,1
161562,-100,4,2,1,85,0,1
161695,-100,4,2,1,5,0,1
161829,-100,4,2,1,85,0,1
162228,-100,4,2,1,5,0,1
162362,-100,4,2,1,85,0,1
163429,-125,4,2,1,75,0,0
165562,-83.3333333333333,4,2,1,100,0,0
166561,-83.3333333333333,4,2,1,5,0,0
166629,-83.3333333333333,4,2,1,100,0,0

[Colours]
Combo1 : 251,206,30
Combo2 : 255,128,64
Combo3 : 129,166,254

[HitObjects]
0,124,229,6,0,L|9:174,1,47.9999985351563,2|2,0:0|0:0,0:0:0:0:
72,111,495,2,0,L|81:161,1,47.9999985351563,2|2,0:0|0:0,0:0:0:0:
147,98,762,6,0,L|156:148,1,47.9999985351563,2|0,0:0|0:0,0:0:0:0:
223,79,1295,6,0,L|240:173,1,80,6|0,1:2|0:0,0:0:0:0:
404,69,1562,2,0,P|351:42|312:61,1,80,8|2,0:0|1:2,0:0:0:0:
308,63,1762,1,2,1:2:0:0:
308,63,1829,1,2,1:2:0:0:
402,177,1962,1,2,1:2:0:0:
472,26,2095,1,10,0:0:0:0:
316,161,2229,6,0,P|268:161|220:154,1,80,2|0,1:2|0:0,0:0:0:0:
262,3,2495,2,0,P|296:33|308:78,1,80,2|10,1:2|0:0,0:0:0:0:
269,247,2762,1,2,0:0:0:0:
269,247,2829,1,0,0:0:0:0:
269,247,2895,1,2,1:2:0:0:
138,120,3029,1,2,1:2:0:0:
236,157,3162,1,10,0:0:0:0:
114,251,3295,1,2,0:0:0:0:
264,323,3429,6,0,P|273:259|260:233,1,80,2|2,1:2|0:0,0:0:0:0:
141,120,3695,2,0,P|178:159|225:162,1,80,10|2,0:0|1:2,0:0:0:0:
236,157,3895,1,2,1:2:0:0:
236,157,3961,1,2,1:2:0:0:
125,7,4095,1,2,1:2:0:0:
55,164,4229,1,10,0:0:0:0:
220,33,4362,6,0,P|265:18|301:32,1,80,2|0,1:2|0:0,0:0:0:0:
406,115,4629,2,0,P|451:130|487:116,1,80,2|10,1:2|0:0,0:0:0:0:
395,20,4895,1,2,0:0:0:0:
395,20,4962,1,0,0:0:0:0:
395,20,5029,1,2,1:2:0:0:
318,169,5162,1,2,1:2:0:0:
220,33,5295,1,10,0:0:0:0:
171,213,5429,1,2,0:0:0:0:
61,58,5562,6,0,P|40:104|47:144,1,80,6|0,1:2|0:0,0:0:0:0:
229,131,5829,2,0,L|145:118,1,80,8|2,0:0|1:2,0:0:0:0:
123,115,6029,1,2,1:2:0:0:
123,115,6095,1,2,1:2:0:0:
220,33,6229,1,2,1:2:0:0:
245,221,6362,1,10,0:0:0:0:
354,91,6495,6,0,L|438:78,1,80,2|0,1:2|0:0,0:0:0:0:
365,249,6762,2,0,P|337:200|345:162,1,80,2|10,1:2|0:0,0:0:0:0:
478,237,7029,1,2,0:0:0:0:
478,237,7095,1,2,0:0:0:0:
478,237,7162,1,2,1:2:0:0:
379,327,7295,1,2,1:2:0:0:
432,158,7429,1,10,0:0:0:0:
260,115,7562,1,2,0:0:0:0:
290,252,7695,6,0,P|331:262|369:245,2,80,6|2|10,1:2|0:0|0:0,0:0:0:0:
194,192,8095,1,0,0:0:0:0:
194,192,8162,1,0,0:0:0:0:
194,192,8229,1,2,1:2:0:0:
340,97,8362,1,2,1:2:0:0:
290,252,8495,1,10,0:0:0:0:
184,96,8628,1,2,1:2:0:0:
100,272,8762,5,0,0:0:0:0:
194,192,8895,1,2,1:2:0:0:
44,90,9029,1,10,0:0:0:0:
76,192,9162,1,2,1:2:0:0:
147,60,9295,1,10,0:0:0:0:
179,242,9429,1,2,1:2:0:0:
317,96,9562,1,10,0:0:0:0:
342,83,9629,1,0,0:0:0:0:
369,81,9695,1,10,0:0:0:0:
396,88,9762,1,10,0:0:0:0:
419,104,9829,6,0,L|432:187,1,80,6|0,1:2|0:0,0:0:0:0:
266,238,10095,2,0,P|296:186|326:179,1,80,8|2,0:0|1:2,0:0:0:0:
347,177,10295,1,2,1:2:0:0:
347,177,10362,1,2,1:2:0:0:
458,305,10495,1,2,1:2:0:0:
349,260,10629,1,10,0:0:0:0:
258,367,10762,6,0,P|296:383|336:378,1,80,2|0,1:2|0:0,0:0:0:0:
266,238,11029,2,0,P|227:231|188:249,1,80,2|10,1:2|0:0,0:0:0:0:
131,353,11295,1,2,0:0:0:0:
131,353,11362,1,0,0:0:0:0:
131,353,11429,1,2,1:2:0:0:
84,203,11562,1,2,1:2:0:0:
199,249,11695,1,10,0:0:0:0:
49,324,11829,1,2,0:0:0:0:
2,150,11962,6,0,P|-6:110|9:59,1,80,2|2,1:2|0:0,0:0:0:0:
193,99,12229,2,0,P|149:131|117:129,1,80,10|2,0:0|1:2,0:0:0:0:
100,121,12429,1,2,1:2:0:0:
100,121,12495,1,2,1:2:0:0:
159,13,12629,1,2,1:2:0:0:
226,196,12762,1,10,0:0:0:0:
345,72,12895,6,0,B|307:51|307:51|256:59,1,80,2|0,1:2|0:0,0:0:0:0:
370,221,13162,2,0,L|381:141,1,80,2|10,1:2|0:0,0:0:0:0:
403,16,13429,1,2,0:0:0:0:
403,16,13495,1,0,0:0:0:0:
403,16,13562,1,2,1:2:0:0:
485,167,13695,1,2,1:2:0:0:
345,72,13829,1,10,0:0:0:0:
368,253,13962,1,2,0:0:0:0:
237,145,14095,6,0,P|216:183|219:228,1,80,6|0,1:2|0:0,0:0:0:0:
324,322,14362,2,0,P|274:292|241:297,1,80,8|2,0:0|1:2,0:0:0:0:
229,307,14562,1,2,1:2:0:0:
229,307,14629,1,2,1:2:0:0:
325,205,14762,1,2,1:2:0:0:
397,380,14895,1,10,0:0:0:0:
505,274,15029,6,0,P|517:220|502:191,1,80,2|0,1:2|0:0,0:0:0:0:
406,96,15295,2,0,P|392:132|402:170,1,80,2|10,1:2|0:0,0:0:0:0:
504,66,15562,1,2,0:0:0:0:
504,66,15629,1,2,0:0:0:0:
504,66,15695,1,2,1:2:0:0:
376,14,15829,1,2,1:2:0:0:
474,140,15962,1,10,0:0:0:0:
321,77,16095,6,0,B|277:59|237:73|247:94|209:105|161:84,1,160,6|2,1:2|1:2,0:0:0:0:
116,34,16429,1,0,0:0:0:0:
116,34,16495,2,0,P|143:83|134:117,1,80,10|2,0:0|1:2,0:0:0:0:
51,205,16762,5,2,1:2:0:0:
74,190,16829,1,0,0:0:0:0:
102,186,16895,1,2,1:2:0:0:
128,193,16962,1,2,1:2:0:0:
150,211,17029,2,0,L|157:258,3,40,2|2|2|0,1:2|1:2|1:2|0:0,0:0:0:0:
163,287,17295,1,10,0:0:0:0:
180,308,17362,1,10,0:0:0:0:
205,320,17429,1,10,0:0:0:0:
233,321,17495,1,2,1:2:0:0:
259,308,17562,2,0,L|274:250,1,40,2|2,1:2|1:2,0:0:0:0:
325,174,17695,2,0,L|335:212,1,40,2|2,1:2|1:2,0:0:0:0:
364,307,17829,5,10,0:0:0:0:
501,248,17962,1,10,0:0:0:0:
501,248,18362,6,0,L|512:157,2,64,6|0|10,1:2|0:0|0:0,0:0:0:0:
489,337,18762,1,2,0:0:0:0:
401,222,18895,2,0,L|338:239,1,64,2|2,1:2|1:2,0:0:0:0:
255,272,19162,1,10,0:0:0:0:
381,331,19295,1,2,0:0:0:0:
350,154,19429,6,0,L|336:73,1,64,2|0,1:2|2:0,0:0:0:0:
251,28,19695,2,0,B|246:53|246:53|223:58|223:58|216:91,1,64,10|0,0:0|0:0,0:0:0:0:
260,191,19962,2,0,P|224:150|184:211,1,128,2|10,1:2|0:0,0:0:0:0:
265,315,20362,1,0,0:0:0:0:
265,315,20495,6,0,B|234:295|196:302|208:324|171:339|126:313,1,128,2|10,1:2|0:0,0:0:0:0:
79,257,20895,1,0,0:0:0:0:
35,377,21029,1,2,1:2:0:0:
143,321,21162,1,2,1:2:0:0:
51,184,21295,2,0,P|20:205|3:236,1,64,10|2,0:0|0:0,0:0:0:0:
178,251,21562,6,0,P|169:175|157:120,1,128,2|10,1:2|0:0,0:0:0:0:
227,32,21962,1,2,1:2:0:0:
227,32,22229,5,2,1:2:0:0:
280,192,22362,1,10,0:0:0:0:
401,65,22495,6,0,P|374:90|383:183,1,128,6|2,1:2|1:2,0:0:0:0:
494,266,22895,2,0,P|446:246|419:251,1,64,10|2,0:0|0:0,0:0:0:0:
331,322,23162,1,2,1:2:0:0:
331,322,23429,5,10,0:0:0:0:
280,192,23562,1,2,1:2:0:0:
177,315,23695,1,2,1:2:0:0:
295,236,23829,1,2,0:0:0:0:
163,111,23962,2,0,P|140:152|151:198,1,96,10|0,0:0|2:0,0:0:0:0:
185,218,24229,1,2,1:2:0:0:
185,218,24495,5,10,0:0:0:0:
290,104,24629,1,2,0:0:0:0:
80,100,24762,6,0,P|64:152|86:229,1,128,2|10,1:2|0:0,0:0:0:0:
149,328,25162,1,2,0:0:0:0:
256,182,25295,2,0,P|298:170|345:191,1,96,2|0,1:2|2:0,0:0:0:0:
364,213,25562,2,0,L|351:313,1,96,10|0,0:0|2:0,0:0:0:0:
345,356,25829,5,14,1:2:0:0:
256,182,25962,1,0,0:0:0:0:
433,291,26095,1,14,1:2:0:0:
349,119,26229,1,0,0:0:0:0:
231,256,26362,2,0,P|188:226|190:139,1,120,14|0,1:2|2:0,0:0:0:0:
293,169,26629,6,0,L|254:182,1,40,2|0,0:0|0:0,0:0:0:0:
213,369,26895,5,6,1:2:0:0:
118,269,27029,1,2,0:0:0:0:
79,377,27162,1,10,0:0:0:0:
131,236,27295,1,2,0:0:0:0:
19,310,27429,5,2,1:2:0:0:
182,355,27562,1,2,1:2:0:0:
51,205,27695,1,10,0:0:0:0:
79,377,27829,1,2,0:0:0:0:
152,197,27962,5,2,1:2:0:0:
193,383,28095,1,2,0:0:0:0:
293,236,28229,2,0,P|323:228|354:235,1,64,10|0,0:0|0:0,0:0:0:0:
467,340,28495,2,0,P|444:277|468:212,1,128,2|10,1:2|0:0,0:0:0:0:
500,97,28895,1,2,0:0:0:0:
500,97,29029,6,0,B|472:119|431:103|446:89|408:76|373:93,1,128,2|10,1:2|0:0,0:0:0:0:
311,150,29429,1,2,0:0:0:0:
226,52,29562,2,0,L|212:121,1,64,2|2,1:2|1:2,0:0:0:0:
323,212,29829,2,0,L|311:150,1,64,10|2,0:0|0:0,0:0:0:0:
167,207,30095,6,0,L|244:228,2,64,2|0|10,1:2|0:0|0:0,0:0:0:0:
62,246,30495,2,0,B|88:208|88:208|68:121,1,128,2|2,1:2|1:2,0:0:0:0:
44,20,30895,1,10,0:0:0:0:
159,104,31029,6,0,P|212:110|225:42,1,128,6|2,1:2|1:2,0:0:0:0:
222,188,31429,1,10,0:0:0:0:
297,139,31562,1,2,0:0:0:0:
340,287,31695,5,2,1:2:0:0:
365,200,31829,1,0,0:0:0:0:
235,278,31962,1,10,0:0:0:0:
396,340,32095,1,2,1:2:0:0:
291,216,32229,5,2,1:2:0:0:
301,370,32362,1,2,0:0:0:0:
174,290,32495,2,0,P|211:275|255:288,1,64,10|2,0:0|0:0,0:0:0:0:
120,231,32762,2,0,P|89:288|112:345,1,128,2|10,1:2|0:0,0:0:0:0:
221,199,33162,1,2,0:0:0:0:
221,199,33295,6,0,P|215:120|196:40,1,160,14|10,1:2|1:2,0:0:0:0:
304,198,33695,1,10,1:2:0:0:
304,198,33828,6,0,P|298:119|279:39,1,160,10|10,1:2|1:2,0:0:0:0:
387,199,34229,1,10,1:2:0:0:
387,199,34362,5,10,1:2:0:0:
358,35,34629,1,10,1:2:0:0:
477,208,34895,6,0,P|471:129|459:78,1,120,10|0,1:2|2:0,0:0:0:0:
387,199,35429,6,0,P|369:252|367:299,1,95.9999970703126,6|0,1:2|0:0,0:0:0:0:
273,188,35695,1,10,0:0:0:0:
239,335,35829,1,2,0:0:0:0:
169,217,35962,5,2,1:2:0:0:
295,269,36095,1,2,1:2:0:0:
312,120,36229,2,0,P|316:56|301:24,1,95.9999970703126,10|2,0:0|0:0,0:0:0:0:
143,61,36495,6,0,L|237:85,1,95.9999970703126,2|2,1:2|0:0,0:0:0:0:
119,225,36762,2,0,L|93:117,1,95.9999970703126,10|0,0:0|0:0,0:0:0:0:
59,120,36962,1,0,0:0:0:0:
59,120,37029,2,0,L|82:221,1,95.9999970703126,2|0,1:2|0:0,0:0:0:0:
109,329,37295,1,10,0:0:0:0:
0,269,37429,1,2,0:0:0:0:
193,155,37562,6,0,B|244:132|291:153|276:173|335:196|380:161,1,191.999994140625,6|10,1:2|0:0,0:0:0:0:
499,62,37962,1,2,0:0:0:0:
340,1,38095,2,0,B|315:41|315:41|334:101,1,95.9999970703126,2|0,1:2|0:0,0:0:0:0:
449,207,38362,2,0,B|463:160|463:160|438:120,1,95.9999970703126,10|2,0:0|0:0,0:0:0:0:
310,252,38629,5,2,1:2:0:0:
229,71,38762,1,2,0:0:0:0:
95,182,38895,2,0,P|79:226|95:283,1,95.9999970703126,10|0,0:0|0:0,0:0:0:0:
115,313,39095,1,0,0:0:0:0:
115,313,39162,2,0,L|213:296,1,95.9999970703126,2|0,1:2|0:0,0:0:0:0:
360,262,39429,1,10,0:0:0:0:
260,384,39562,1,2,0:0:0:0:
183,194,39695,6,0,P|163:97|162:2,2,191.999994140625,6|10|2,1:2|0:0|1:2,0:0:0:0:
298,104,40362,1,2,1:2:0:0:
356,255,40495,2,0,P|402:276|451:266,1,95.9999970703126,10|2,0:0|0:0,0:0:0:0:
421,95,40762,6,0,L|405:199,1,95.9999970703126,2|0,1:2|0:0,0:0:0:0:
285,351,41029,2,0,L|270:256,1,95.9999970703126,10|2,0:0|0:0,0:0:0:0:
263,217,41229,1,0,0:0:0:0:
263,217,41295,2,0,P|217:246|170:235,1,95.9999970703126,2|2,1:2|1:2,0:0:0:0:
84,182,41562,1,10,0:0:0:0:
250,115,41695,1,2,0:0:0:0:
90,2,41829,6,0,P|60:70|93:194,1,191.999994140625,6|2,1:2|1:2,0:0:0:0:
193,45,42229,2,0,P|246:28|292:37,1,95.9999970703126,10|0,1:2|0:0,0:0:0:0:
381,189,42495,2,0,P|328:172|282:181,1,95.9999970703126,10|0,1:2|0:0,0:0:0:0:
116,292,42762,6,0,P|186:268|216:378,1,191.999994140625,14|2,1:2|1:2,0:0:0:0:
289,178,43162,2,0,P|284:234|305:283,1,95.9999970703126,10|0,0:0|0:0,0:0:0:0:
329,306,43362,1,10,0:0:0:0:
329,306,43429,2,0,P|373:313|427:293,1,95.9999970703126,2|0,1:2|0:0,0:0:0:0:
351,107,43695,1,10,0:0:0:0:
308,86,43762,1,10,0:0:0:0:
260,89,43829,1,2,0:0:0:0:
221,115,43895,1,2,0:0:0:0:
198,157,43962,6,0,B|162:176|114:161|133:143|81:123|44:145,1,160,6|10,1:2|0:0,0:0:0:0:
59,328,44362,1,0,0:0:0:0:
59,328,44495,2,0,B|77:224|77:224|26:253,1,160,2|10,1:2|0:0,0:0:0:0:
150,345,44895,1,0,0:0:0:0:
150,345,45029,6,0,L|235:333,1,80,2|0,1:2|0:0,0:0:0:0:
371,224,45295,2,0,L|286:212,1,80,10|0,0:0|0:0,0:0:0:0:
138,361,45562,2,0,L|223:349,1,80,2|0,1:2|0:0,0:0:0:0:
381,214,45828,2,0,L|296:202,1,80,10|0,0:0|0:0,0:0:0:0:
399,367,46095,6,0,P|418:316|410:284,1,80,6|0,1:2|0:0,0:0:0:0:
306,138,46362,2,0,P|287:189|295:221,1,80,10|0,0:0|0:0,0:0:0:0:
413,108,46629,1,2,1:2:0:0:
330,4,46762,1,0,0:0:0:0:
229,99,46895,2,0,P|186:116|138:100,1,80,10|0,0:0|0:0,0:0:0:0:
26,17,47162,6,0,P|65:53|53:157,1,160,2|10,1:2|0:0,0:0:0:0:
185,39,47562,1,0,0:0:0:0:
209,207,47695,2,0,L|222:296,1,80,2|0,1:2|0:0,0:0:0:0:
374,152,47962,2,0,L|285:139,1,80,10|0,0:0|0:0,0:0:0:0:
357,317,48229,6,0,B|429:305|429:305|439:294|439:294|515:283,2,160,6|10|2,1:2|0:0|1:2,0:0:0:0:
417,200,48895,1,0,0:0:0:0:
469,379,49029,1,10,0:0:0:0:
314,251,49162,6,0,B|276:230|227:247|248:265|203:286|160:257,1,160,6|0,1:2|0:0,0:0:0:0:
184,113,49562,2,0,L|201:201,1,80,10|0,0:0|0:0,0:0:0:0:
77,305,49829,2,0,L|92:226,1,80,2|0,1:2|0:0,0:0:0:0:
195,97,50095,2,0,L|212:185,1,80,10|0,0:0|0:0,0:0:0:0:
353,98,50362,6,0,P|304:19|233:43,2,160,6|10|2,1:2|0:0|1:2,0:0:0:0:
319,210,51029,1,0,0:0:0:0:
445,110,51162,1,10,0:0:0:0:
392,306,51295,6,0,B|348:318|309:301|323:282|274:270|231:300,1,160,6|2,1:2|0:0,0:0:0:0:
116,371,51695,2,0,P|154:386|199:383,1,80,10|2,0:0|0:0,0:0:0:0:
209,218,51962,2,0,P|177:243|157:283,1,80,2|2,1:2|0:0,0:0:0:0:
319,210,52229,1,10,0:0:0:0:
338,175,52295,1,10,0:0:0:0:
342,135,52362,1,10,0:0:0:0:
329,98,52428,1,10,0:0:0:0:
302,69,52495,6,0,B|227:63|227:63|218:56|218:56|139:52,1,160,6|10,1:2|0:0,0:0:0:0:
33,148,52895,1,0,0:0:0:0:
33,148,53029,2,0,B|49:256|49:256|96:222,1,160,2|10,1:2|0:0,0:0:0:0:
224,122,53429,1,0,0:0:0:0:
224,122,53562,6,0,P|245:180|236:210,1,80,2|0,1:2|0:0,0:0:0:0:
108,300,53829,2,0,P|88:265|90:225,1,80,10|0,0:0|0:0,0:0:0:0:
241,110,54095,2,0,P|262:168|253:198,1,80,2|0,1:2|0:0,0:0:0:0:
93,317,54362,2,0,P|73:282|75:242,1,80,10|0,0:0|0:0,0:0:0:0:
224,122,54629,6,0,L|306:138,1,80,6|0,1:2|0:0,0:0:0:0:
277,287,54895,2,0,L|195:303,1,80,10|0,0:0|0:0,0:0:0:0:
374,181,55162,1,2,1:2:0:0:
423,323,55295,1,0,0:0:0:0:
509,187,55429,2,0,P|518:127|502:100,1,80,10|0,0:0|0:0,0:0:0:0:
419,25,55695,1,2,1:2:0:0:
262,279,55962,6,0,P|204:297|172:280,1,80,10|0,0:0|0:0,0:0:0:0:
305,43,56229,2,0,P|349:84|350:120,1,80,2|0,1:2|0:0,0:0:0:0:
86,148,56495,2,0,P|99:88|130:69,1,80,10|10,0:0|0:0,0:0:0:0:
335,308,56762,6,0,P|231:378|107:315,1,256,6|2,1:2|0:0,0:0:0:0:
242,140,57562,1,0,0:0:0:0:
374,245,57829,6,0,P|417:258|489:199,1,128,6|2,1:2|0:0,0:0:0:0:
430,44,58362,2,0,P|419:106|413:189,1,128,2|2,0:0|0:0,0:0:0:0:
253,55,58895,6,0,P|270:105|269:136,1,80,6|0,1:2|0:0,0:0:0:0:
110,57,59162,2,0,P|92:116|93:135,1,80,8|2,0:0|1:2,0:0:0:0:
110,166,59362,1,0,0:0:0:0:
110,166,59429,1,2,1:2:0:0:
180,99,59562,1,2,1:2:0:0:
202,223,59695,1,10,0:0:0:0:
339,131,59829,6,0,P|382:121|421:135,1,80,2|0,1:2|0:0,0:0:0:0:
302,289,60095,2,0,L|280:193,1,80,2|10,1:2|0:0,0:0:0:0:
264,117,60362,1,2,0:0:0:0:
264,117,60429,1,0,0:0:0:0:
264,117,60495,1,2,1:2:0:0:
392,214,60629,1,2,1:2:0:0:
348,42,60762,1,10,0:0:0:0:
285,212,60895,1,2,0:0:0:0:
462,148,61029,6,0,P|482:180|483:226,1,80,2|2,1:2|0:0,0:0:0:0:
310,368,61295,2,0,P|324:313|350:300,1,80,10|2,0:0|1:2,0:0:0:0:
374,293,61495,1,2,1:2:0:0:
374,293,61562,1,2,1:2:0:0:
463,384,61695,1,2,1:2:0:0:
484,221,61829,1,10,0:0:0:0:
310,368,61962,6,0,L|231:360,1,80,2|0,1:2|0:0,0:0:0:0:
303,210,62229,2,0,L|386:196,1,80,2|10,1:2|0:0,0:0:0:0:
310,368,62495,1,2,0:0:0:0:
310,368,62562,1,2,0:0:0:0:
310,368,62629,1,2,1:2:0:0:
211,196,62762,1,2,1:2:0:0:
158,377,62895,1,10,0:0:0:0:
303,210,63029,1,2,0:0:0:0:
94,298,63162,6,0,P|85:259|105:220,1,80,6|0,1:2|0:0,0:0:0:0:
187,81,63429,2,0,L|203:169,1,80,8|2,0:0|1:2,0:0:0:0:
211,196,63629,1,2,1:2:0:0:
211,196,63695,1,2,1:2:0:0:
293,28,63829,1,2,1:2:0:0:
350,215,63962,1,10,0:0:0:0:
448,56,64095,6,0,L|368:40,1,80,2|0,1:2|0:0,0:0:0:0:
438,216,64362,2,0,P|463:171|453:132,1,80,2|10,1:2|0:0,0:0:0:0:
310,116,64629,1,2,0:0:0:0:
310,116,64695,1,2,0:0:0:0:
310,116,64762,1,2,1:2:0:0:
369,259,64895,1,2,1:2:0:0:
205,193,65029,1,10,0:0:0:0:
271,335,65162,1,2,0:0:0:0:
106,297,65295,6,0,P|96:248|112:215,2,80,6|2|10,1:2|0:0|0:0,0:0:0:0:
164,384,65695,1,0,0:0:0:0:
164,384,65762,1,0,0:0:0:0:
164,384,65829,1,2,1:2:0:0:
270,239,65962,1,2,1:2:0:0:
106,297,66095,1,10,0:0:0:0:
254,359,66229,1,2,1:2:0:0:
205,193,66362,5,0,0:0:0:0:
171,356,66495,1,2,1:2:0:0:
288,213,66629,1,10,0:0:0:0:
106,297,66762,1,2,1:2:0:0:
194,111,66895,1,10,0:0:0:0:
267,318,67029,1,2,1:2:0:0:
389,154,67162,1,10,0:0:0:0:
366,137,67229,1,0,0:0:0:0:
340,127,67295,1,10,0:0:0:0:
312,127,67362,1,10,0:0:0:0:
286,136,67429,6,0,B|272:173|272:173|286:217,1,80,6|0,1:2|0:0,0:0:0:0:
415,343,67695,2,0,B|427:304|427:304|413:267,1,80,8|2,0:0|1:2,0:0:0:0:
401,242,67895,1,2,1:2:0:0:
401,242,67962,1,2,1:2:0:0:
297,358,68095,1,2,1:2:0:0:
244,168,68229,1,10,0:0:0:0:
136,316,68362,6,0,L|221:331,1,80,2|0,1:2|0:0,0:0:0:0:
135,155,68629,2,0,P|101:192|98:225,1,80,2|10,1:2|0:0,0:0:0:0:
251,172,68895,1,2,0:0:0:0:
251,172,68962,1,0,0:0:0:0:
251,172,69029,1,2,1:2:0:0:
161,21,69162,1,2,1:2:0:0:
307,50,69295,1,10,0:0:0:0:
135,155,69429,1,2,0:0:0:0:
333,225,69562,6,0,L|413:247,1,80,2|2,1:2|0:0,0:0:0:0:
468,63,69829,2,0,P|416:72|394:101,1,80,10|2,0:0|1:2,0:0:0:0:
391,124,70029,1,2,1:2:0:0:
391,124,70095,1,2,1:2:0:0:
508,222,70229,1,2,1:2:0:0:
345,305,70362,1,10,0:0:0:0:
489,384,70495,6,0,L|501:303,1,80,2|0,1:2|0:0,0:0:0:0:
333,225,70762,2,0,L|345:306,1,80,2|10,1:2|0:0,0:0:0:0:
276,383,71029,1,2,0:0:0:0:
276,383,71095,1,0,0:0:0:0:
276,383,71162,1,2,1:2:0:0:
207,215,71295,1,2,1:2:0:0:
344,304,71429,1,10,0:0:0:0:
184,367,71562,1,2,0:0:0:0:
134,170,71695,6,0,P|135:115|158:86,1,80,6|0,1:2|0:0,0:0:0:0:
359,113,71962,2,0,L|270:134,1,80,8|2,0:0|1:2,0:0:0:0:
254,144,72162,1,2,1:2:0:0:
254,144,72229,1,2,1:2:0:0:
186,0,72362,1,2,1:2:0:0:
329,35,72495,1,10,0:0:0:0:
271,226,72629,6,0,L|262:314,1,80,2|0,1:2|0:0,0:0:0:0:
93,376,72895,2,0,L|84:296,1,80,2|10,1:2|0:0,0:0:0:0:
82,187,73162,1,2,0:0:0:0:
82,187,73229,1,0,0:0:0:0:
82,187,73295,1,2,1:2:0:0:
192,344,73429,1,2,1:2:0:0:
158,121,73562,1,10,0:0:0:0:
302,228,73695,6,0,B|349:253|387:233|375:219|425:202|464:230,1,160,6|2,1:2|1:2,0:0:0:0:
503,291,74029,1,0,0:0:0:0:
503,291,74095,2,0,L|489:378,1,80,10|2,0:0|1:2,0:0:0:0:
339,158,74362,5,2,1:2:0:0:
335,130,74429,1,2,1:2:0:0:
332,102,74495,1,2,1:2:0:0:
329,74,74562,1,2,1:2:0:0:
326,46,74629,2,0,L|279:58,3,40,2|2|2|2,1:2|1:2|1:2|1:2,0:0:0:0:
254,34,74895,1,10,0:0:0:0:
226,38,74962,1,10,0:0:0:0:
198,43,75029,1,10,0:0:0:0:
171,48,75095,1,2,1:2:0:0:
143,55,75162,2,0,L|100:66,1,40,2|2,1:2|1:2,0:0:0:0:
203,140,75295,2,0,L|246:151,1,40,2|2,1:2|1:2,0:0:0:0:
115,218,75429,5,10,0:0:0:0:
296,260,75562,1,10,0:0:0:0:
296,260,75962,5,6,1:2:0:0:
320,346,76095,1,0,0:0:0:0:
383,283,76229,1,10,0:0:0:0:
233,323,76362,1,2,0:0:0:0:
359,197,76495,2,0,P|364:151|354:127,1,64,2|2,1:2|1:2,0:0:0:0:
225,133,76762,2,0,P|262:160|288:163,1,64,10|2,0:0|0:0,0:0:0:0:
372,60,77029,5,2,1:2:0:0:
288,27,77162,1,0,0:0:0:0:
225,133,77295,2,0,P|179:146|155:138,1,64,10|0,0:0|0:0,0:0:0:0:
66,54,77562,1,2,1:2:0:0:
66,54,77695,2,0,L|73:125,1,64,0|10,0:0|0:0,0:0:0:0:
84,159,77895,1,0,0:0:0:0:
84,159,77962,2,0,L|90:196,1,32,2|0,0:0|0:0,0:0:0:0:
103,282,78095,6,0,B|142:262|173:271|162:286|197:300|228:285,1,128,2|10,1:2|0:0,0:0:0:0:
295,229,78495,1,0,0:0:0:0:
295,229,78629,1,2,1:2:0:0:
310,319,78762,1,2,1:2:0:0:
206,210,78895,2,0,L|225:110,1,96,10|0,0:0|2:0,0:0:0:0:
231,77,79162,5,2,1:2:0:0:
300,135,79295,1,0,0:0:0:0:
328,17,79429,2,0,L|397:4,1,64,10|2,0:0|1:2,0:0:0:0:
453,159,79695,1,2,1:2:0:0:
466,69,79829,2,0,L|403:80,1,64,2|10,1:2|0:0,0:0:0:0:
314,217,80095,6,0,B|371:231|371:231|386:226|386:226|449:243,1,128,6|2,1:2|1:2,0:0:0:0:
260,282,80495,1,10,0:0:0:0:
232,196,80629,1,2,0:0:0:0:
120,322,80762,5,2,1:2:0:0:
92,236,80895,1,0,0:0:0:0:
178,261,81029,1,10,0:0:0:0:
37,303,81162,1,2,1:2:0:0:
127,131,81295,6,0,P|156:169|157:192,1,64,2|0,1:2|2:0,0:0:0:0:
12,215,81562,2,0,P|4:175|21:143,1,64,10|2,0:0|0:0,0:0:0:0:
150,45,81829,2,0,P|123:93|51:88,1,128,2|10,1:2|0:0,0:0:0:0:
206,127,82229,1,2,0:0:0:0:
206,127,82362,6,0,B|242:110|274:123|266:139|301:152|338:138,1,128,2|10,1:2|0:0,0:0:0:0:
326,2,82762,1,2,0:0:0:0:
326,2,82895,2,0,L|315:71,1,64,2|2,1:2|1:2,0:0:0:0:
421,161,83162,2,0,L|410:97,1,64,10|0,0:0|0:0,0:0:0:0:
291,200,83429,6,0,L|269:328,1,120,14|0,1:2|0:0,0:0:0:0:
319,377,83695,6,0,P|281:343|203:364,1,120,14|0,1:2|2:0,0:0:0:0:
146,323,83962,6,0,B|169:281|155:234|155:234|126:249,1,120,14|0,1:2|2:0,0:0:0:0:
69,293,84229,6,0,L|29:283,1,40,2|0,0:0|0:0,0:0:0:0:
211,134,84495,5,6,1:2:0:0:
253,268,84629,1,2,0:0:0:0:
294,169,84762,1,10,0:0:0:0:
188,221,84895,1,2,0:0:0:0:
223,51,85029,5,2,1:2:0:0:
372,143,85162,1,2,1:2:0:0:
308,29,85295,1,10,0:0:0:0:
283,196,85429,1,2,0:0:0:0:
427,75,85562,6,0,P|468:62|506:79,1,80,2|2,1:2|0:0,0:0:0:0:
475,225,85829,2,0,L|460:129,1,80,10|0,0:0|0:0,0:0:0:0:
283,196,86095,2,0,P|326:232|358:230,1,80,2|2,1:2|1:2,0:0:0:0:
306,89,86362,1,10,0:0:0:0:
306,89,86495,1,2,0:0:0:0:
206,207,86629,6,0,B|170:226|121:214|136:198|90:179|44:204,1,160,2|10,1:2|0:0,0:0:0:0:
174,131,87029,1,2,0:0:0:0:
241,290,87162,2,0,P|281:303|327:293,1,80,2|2,1:2|1:2,0:0:0:0:
299,136,87429,2,0,L|286:221,1,80,10|2,0:0|0:0,0:0:0:0:
442,309,87695,6,0,L|435:211,2,80,2|0|10,1:2|0:0|0:0,0:0:0:0:
512,202,88095,1,2,1:2:0:0:
370,94,88229,2,0,L|375:173,1,80,2|2,1:2|1:2,0:0:0:0:
450,59,88495,1,10,0:0:0:0:
450,59,88629,6,0,P|406:8|309:30,1,160,6|2,1:2|1:2,0:0:0:0:
253,108,89029,1,10,0:0:0:0:
198,5,89162,1,2,0:0:0:0:
148,177,89295,5,2,1:2:0:0:
102,63,89429,1,0,0:0:0:0:
222,113,89562,1,10,0:0:0:0:
81,224,89695,1,2,1:2:0:0:
81,224,89762,1,0,0:0:0:0:
81,224,89829,5,2,1:2:0:0:
227,288,89962,1,2,0:0:0:0:
124,378,90095,2,0,P|115:324|125:286,1,80,10|2,0:0|0:0,0:0:0:0:
241,190,90362,2,0,P|327:199|402:217,1,160,2|10,1:2|0:0,0:0:0:0:
276,64,90762,1,2,0:0:0:0:
276,64,90895,6,0,P|309:100|391:46,1,160,14|10,1:2|1:2,0:0:0:0:
191,104,91295,1,10,1:2:0:0:
191,104,91428,6,0,P|158:140|76:86,1,160,10|10,1:2|1:2,0:0:0:0:
276,64,91829,1,10,1:2:0:0:
276,64,91962,5,10,1:2:0:0:
239,251,92229,1,10,1:2:0:0:
377,155,92495,6,0,L|389:207,1,40,10|0,1:2|2:0,0:0:0:0:
416,212,92695,1,0,3:0:0:0:
416,212,92762,2,0,L|403:277,1,60
458,328,93029,6,0,B|408:299|359:319|376:334|325:360|270:320,1,191.999994140625,6|10,1:2|0:0,0:0:0:0:
167,208,93429,1,2,0:0:0:0:
167,208,93562,2,0,P|202:170|255:160,1,95.9999970703126,2|2,1:2|1:2,0:0:0:0:
182,318,93829,2,0,P|129:317|86:302,1,95.9999970703126,10|2,0:0|0:0,0:0:0:0:
243,159,94095,5,2,1:2:0:0:
275,323,94229,1,2,0:0:0:0:
396,223,94362,2,0,P|414:168|400:128,1,95.9999970703126,10|0,0:0|0:0,0:0:0:0:
372,110,94562,1,0,0:0:0:0:
372,110,94629,2,0,P|354:55|368:15,1,95.9999970703126,2|0,1:2|0:0,0:0:0:0:
488,111,94895,1,10,0:0:0:0:
329,182,95029,1,2,0:0:0:0:
235,41,95162,6,0,P|139:26|43:20,1,191.999994140625,6|10,1:2|0:0,0:0:0:0:
148,217,95562,1,2,0:0:0:0:
148,217,95695,2,0,P|167:158|170:117,1,95.9999970703126,2|2,1:2|0:0,0:0:0:0:
45,258,95962,1,10,0:0:0:0:
202,331,96095,1,2,0:0:0:0:
259,149,96229,6,0,P|307:129|357:143,1,95.9999970703126,2|2,1:2|0:0,0:0:0:0:
501,83,96495,2,0,P|466:134|465:172,1,95.9999970703126,10|0,0:0|0:0,0:0:0:0:
493,205,96695,1,0,0:0:0:0:
493,205,96762,2,0,P|505:255|497:305,1,95.9999970703126,2|0,1:2|0:0,0:0:0:0:
402,381,97029,1,10,0:0:0:0:
326,212,97162,1,2,0:0:0:0:
135,331,97295,6,0,B|183:363|236:335|218:317|274:301|324:338,2,191.999994140625,6|10|2,1:2|0:0|1:2,0:0:0:0:
149,180,97962,1,2,1:2:0:0:
149,180,98095,2,0,B|186:212|186:212|180:273,1,95.9999970703126,10|2,0:0|0:0,0:0:0:0:
45,187,98362,5,2,1:2:0:0:
198,91,98495,1,0,0:0:0:0:
61,6,98629,2,0,P|34:76|38:100,1,95.9999970703126,10|2,0:0|0:0,0:0:0:0:
284,102,98895,2,0,P|255:28|135:34,1,191.999994140625,2|10,1:2|0:0,0:0:0:0:
253,215,99295,1,2,0:0:0:0:
253,215,99429,6,0,P|308:229|441:203,1,191.999994140625,6|2,1:2|1:2,0:0:0:0:
399,21,99829,2,0,P|373:74|372:113,1,95.9999970703126,10|0,1:2|0:0,0:0:0:0:
466,293,100095,2,0,P|461:245|438:203,1,95.9999970703126,10|0,1:2|0:0,0:0:0:0:
191,114,100362,6,0,P|250:136|268:27,1,191.999994140625,14|2,1:2|1:2,0:0:0:0:
173,212,100762,2,0,P|164:273|171:324,1,95.9999970703126,10|10,0:0|0:0,0:0:0:0:
193,348,100962,1,10,0:0:0:0:
193,348,101029,2,0,P|249:363|293:358,1,95.9999970703126,2|2,1:2|1:2,0:0:0:0:
437,202,101295,1,10,0:0:0:0:
389,206,101361,1,10,0:0:0:0:
353,236,101428,1,2,0:0:0:0:
340,281,101495,1,2,0:0:0:0:
356,327,101562,6,0,B|408:360|408:360|509:330,1,160,6|10,1:2|0:0,0:0:0:0:
490,134,101962,1,0,0:0:0:0:
490,134,102095,6,0,B|438:101|438:101|337:131,1,160,2|10,1:2|0:0,0:0:0:0:
164,184,102495,1,0,0:0:0:0:
164,184,102629,6,0,P|151:241|165:272,1,80,2|0,1:2|0:0,0:0:0:0:
326,330,102895,2,0,P|339:273|325:242,1,80,10|0,0:0|0:0,0:0:0:0:
153,172,103162,2,0,P|140:229|154:260,1,80,2|0,1:2|0:0,0:0:0:0:
337,342,103429,2,0,P|350:285|336:254,1,80,10|0,0:0|0:0,0:0:0:0:
91,301,103695,6,0,P|118:330|163:337,1,80,6|0,1:2|0:0,0:0:0:0:
333,182,103962,2,0,P|294:190|267:219,1,80,10|0,0:0|0:0,0:0:0:0:
410,342,104229,1,2,1:2:0:0:
485,203,104362,1,0,0:0:0:0:
363,94,104495,2,0,P|319:76|257:87,1,80,10|0,0:0|0:0,0:0:0:0:
147,178,104762,6,0,P|190:132|122:70,1,160,2|10,1:2|0:0,0:0:0:0:
249,218,105162,1,0,0:0:0:0:
75,135,105295,2,0,P|62:178|71:215,1,80,2|0,1:2|2:0,0:0:0:0:
243,294,105562,2,0,P|256:251|247:214,1,80,10|0,0:0|2:0,0:0:0:0:
38,335,105829,6,0,B|107:343|107:343|123:352|123:352|198:360,2,160,6|10|2,1:2|0:0|1:2,0:0:0:0:
199,224,106495,1,0,0:0:0:0:
16,157,106629,1,10,0:0:0:0:
178,70,106762,6,0,B|224:49|266:71|242:84|292:103|331:86,1,160,6|0,1:2|0:0,0:0:0:0:
211,145,107162,2,0,L|198:232,1,80,10|0,0:0|0:0,0:0:0:0:
333,329,107429,2,0,L|322:250,1,80,2|0,1:2|0:0,0:0:0:0:
202,137,107695,2,0,L|189:224,1,80,10|0,0:0|0:0,0:0:0:0:
414,343,107962,6,0,L|385:180,2,160,6|10|2,1:2|0:0|1:2,0:0:0:0:
311,223,108629,1,0,0:0:0:0:
494,272,108762,1,10,0:0:0:0:
447,142,108895,6,0,P|395:107|311:148,1,160,6|2,1:2|0:0,0:0:0:0:
238,300,109295,2,0,P|226:231|220:220,1,80,10|2,0:0|0:0,0:0:0:0:
129,121,109562,2,0,P|114:158|112:198,1,80,2|2,1:2|0:0,0:0:0:0:
313,144,109829,1,10,0:0:0:0:
306,104,109895,1,0,0:0:0:0:
284,71,109962,1,10,0:0:0:0:
251,50,110029,1,0,0:0:0:0:
211,44,110095,6,0,P|145:33|51:70,1,160,6|10,1:2|0:0,0:0:0:0:
199,165,110495,1,0,0:0:0:0:
199,165,110629,2,0,P|265:154|359:191,1,160,2|10,1:2|0:0,0:0:0:0:
254,327,111029,1,0,0:0:0:0:
254,327,111162,6,0,P|238:277|246:238,1,80,2|0,1:2|0:0,0:0:0:0:
338,108,111429,2,0,P|354:158|346:197,1,80,10|0,0:0|0:0,0:0:0:0:
241,336,111695,2,0,P|225:286|233:247,1,80,2|0,1:2|0:0,0:0:0:0:
347,96,111962,2,0,P|363:146|355:185,1,80,10|0,0:0|0:0,0:0:0:0:
170,206,112229,6,0,P|213:170|237:167,1,80,6|0,1:2|0:0,0:0:0:0:
433,224,112495,2,0,P|390:260|366:263,1,80,10|0,0:0|0:0,0:0:0:0:
235,167,112762,1,2,1:2:0:0:
420,95,112895,1,0,0:0:0:0:
259,1,113029,2,0,P|208:-8|173:4,1,80,10|0,0:0|0:0,0:0:0:0:
66,62,113295,1,2,1:2:0:0:
282,292,113562,6,0,P|303:246|296:207,1,80,10|0,0:0|0:0,0:0:0:0:
64,309,113829,2,0,P|93:350|130:363,1,80,2|0,1:2|0:0,0:0:0:0:
184,120,114095,2,0,P|133:124|103:150,1,80,10|10,0:0|0:0,0:0:0:0:
301,386,114362,6,0,P|371:292|356:147,1,256,6|2,1:2|0:0,0:0:0:0:
229,23,115162,1,0,0:0:0:0:
81,222,115429,2,0,P|137:243|206:216,1,128,6|2,1:2|0:0,0:0:0:0:
300,92,115962,2,0,P|356:71|410:94,1,96,2|0,0:0|2:0,0:0:0:0:
423,101,116229,6,0,L|429:126,4,21.3333333333333,2|2|2|2|2,0:0|0:0|0:0|0:0|0:0,0:0:0:0:
470,146,116495,6,0,L|463:244,1,80,6|0,1:2|0:0,0:0:0:0:
346,338,116762,2,0,L|340:258,1,80,10|2,0:0|0:0,0:0:0:0:
337,222,116962,1,0,0:0:0:0:
337,222,117029,1,2,1:2:0:0:
235,367,117162,1,2,1:2:0:0:
164,185,117295,1,10,0:0:0:0:
256,258,117429,1,2,0:0:0:0:
120,343,117562,6,0,P|78:357|40:345,1,80,2|0,1:2|0:0,0:0:0:0:
164,185,117829,1,10,0:0:0:0:
235,367,117962,1,0,0:0:0:0:
235,367,118029,1,0,0:0:0:0:
235,367,118095,1,2,1:2:0:0:
298,189,118229,1,2,1:2:0:0:
180,284,118362,1,10,0:0:0:0:
257,93,118495,1,2,0:0:0:0:
337,271,118629,5,6,1:2:0:0:
396,147,118762,1,2,0:0:0:0:
396,147,118829,1,2,0:0:0:0:
396,147,118895,2,0,P|402:112|397:91,1,40,10|2,0:0|0:0,0:0:0:0:
359,43,119029,5,2,0:0:0:0:
359,43,119096,1,2,0:0:0:0:
359,43,119162,2,0,P|324:37|303:42,1,40,2|2,1:2|0:0,0:0:0:0:
257,93,119295,5,2,0:0:0:0:
257,93,119362,1,2,0:0:0:0:
257,93,119429,1,10,0:0:0:0:
234,109,119495,1,2,0:0:0:0:
207,116,119562,1,2,0:0:0:0:
179,114,119629,1,2,0:0:0:0:
154,102,119695,5,2,1:2:0:0:
229,6,119829,1,2,0:0:0:0:
278,181,119962,2,0,L|294:272,1,80,10|2,0:0|1:2,0:0:0:0:
299,303,120162,1,2,1:2:0:0:
299,303,120229,2,0,P|247:290|218:304,1,80,2|2,1:2|1:2,0:0:0:0:
382,202,120495,2,0,P|419:212|456:198,1,80,10|2,0:0|0:0,0:0:0:0:
487,171,120695,1,0,0:0:0:0:
487,171,120762,5,6,1:2:0:0:
141,30,121029,6,0,P|107:87|125:147,1,120,10|0,0:0|2:0,0:0:0:0:
141,162,121295,1,2,1:2:0:0:
232,61,121429,1,2,1:2:0:0:
312,183,121562,1,10,0:0:0:0:
312,183,121695,6,0,P|327:247|336:348,1,160,2|0,0:0|0:0,0:0:0:0:
117,274,122095,2,0,P|151:242|203:235,1,80,10|2,0:0|0:0,0:0:0:0:
224,248,122295,1,0,0:0:0:0:
224,248,122362,1,2,1:2:0:0:
154,369,122495,1,2,1:2:0:0:
23,254,122629,2,0,P|13:205|25:174,1,80,10|2,0:0|0:0,0:0:0:0:
128,103,122895,5,6,1:2:0:0:
128,103,122984,2,0,L|144:159,1,53.3333333333333,2|2,0:0|0:0,0:0:0:0:
200,80,123162,1,10,1:2:0:0:
200,80,123251,2,0,L|216:136,1,53.3333333333333,2|2,0:0|0:0,0:0:0:0:
273,55,123429,1,2,1:2:0:0:
273,55,123517,2,0,L|289:111,1,53.3333333333333,2|2,0:0|0:0,0:0:0:0:
345,32,123695,1,10,0:0:0:0:
345,32,123784,2,0,L|361:88,1,53.3333333333333,2|2,0:0|0:0,0:0:0:0:
433,57,123962,5,2,1:2:0:0:
433,57,124051,2,0,L|419:6,1,53.3333333333333,2|2,0:0|0:0,0:0:0:0:
512,51,124229,1,10,0:0:0:0:
512,51,124317,2,0,L|497:0,1,53.3333333333333,2|2,0:0|0:0,0:0:0:0:
476,127,124495,6,0,L|457:297,1,160,2|10,1:2|0:0,0:0:0:0:
458,286,125029,6,0,P|406:306|374:295,1,64,6|0,1:2|0:0,0:0:0:0:
328,245,125295,2,0,P|276:225|244:236,1,64,10|0,0:0|0:0,0:0:0:0:
191,270,125562,1,2,1:2:0:0:
275,311,125695,1,2,1:2:0:0:
298,149,125829,1,10,0:0:0:0:
298,149,126095,6,0,L|307:73,1,64,2|0,1:2|2:0,0:0:0:0:
190,28,126362,2,0,P|170:59|171:95,1,64,10|0,0:0|2:0,0:0:0:0:
200,169,126629,1,2,1:2:0:0:
113,147,126762,1,2,1:2:0:0:
67,266,126895,1,10,0:0:0:0:
67,266,127162,6,0,L|134:256,1,64,6|0,1:2|0:0,0:0:0:0:
263,178,127429,2,0,L|196:168,1,64,10|0,0:0|0:0,0:0:0:0:
274,267,127695,1,2,1:2:0:0:
331,131,127829,1,2,1:2:0:0:
430,270,127962,1,10,0:0:0:0:
430,270,128229,6,0,L|502:282,1,64,2|0,1:2|2:0,0:0:0:0:
375,209,128495,2,0,P|352:242|350:273,1,64,10|0,0:0|0:0,0:0:0:0:
358,300,128695,1,0,0:0:0:0:
357,299,128762,2,0,P|351:330|332:355,1,64,2|2,1:2|1:2,0:0:0:0:
210,231,129029,2,0,P|216:200|235:176,1,64,10|2,0:0|1:2,0:0:0:0:
322,102,129295,1,6,1:2:0:0:
322,102,129562,6,0,P|273:145|208:108,1,128,10|2,0:0|1:2,0:0:0:0:
150,23,129962,1,2,1:2:0:0:
130,202,130095,1,10,0:0:0:0:
130,202,130229,6,0,B|97:182|58:192|73:213|29:224|0:201,1,128,2|2,1:2|1:2,0:0:0:0:
169,124,130629,1,10,0:0:0:0:
178,273,130762,1,2,0:0:0:0:
256,118,130895,5,2,1:2:0:0:
130,202,131029,1,2,0:0:0:0:
265,268,131162,1,10,0:0:0:0:
169,124,131295,1,2,0:0:0:0:
304,190,131429,5,6,1:2:0:0:
150,289,131562,1,0,0:0:0:0:
339,300,131695,5,10,0:0:0:0:
99,193,131829,1,2,0:0:0:0:
342,115,131962,5,2,1:2:0:0:
217,341,132095,1,2,0:0:0:0:
152,93,132229,1,10,0:0:0:0:
347,210,132362,1,6,1:2:0:0:
256,192,132429,12,0,133295,2:0:0:0:
44,259,133562,6,0,L|142:239,1,95.9999970703126,6|2,1:2|1:2,0:0:0:0:
138,239,134095,5,2,1:2:0:0:
221,214,134229,1,2,0:0:0:0:
281,307,134362,1,2,1:2:0:0:
364,282,134496,1,2,0:0:0:0:
225,174,134629,5,2,1:2:0:0:
194,307,134762,1,2,0:0:0:0:
329,207,134895,2,0,P|341:150|309:103,1,95.9999970703126,2|2,1:2|1:2,0:0:0:0:
325,117,135429,5,2,1:2:0:0:
247,78,135562,1,2,0:0:0:0:
247,78,135629,1,0,0:0:0:0:
247,78,135695,6,0,P|190:97|145:81,1,95.9999970703126,2|2,1:2|1:2,0:0:0:0:
96,25,136095,1,2,0:0:0:0:
66,127,136229,2,0,L|51:181,1,47.9999985351563,2|2,1:2|0:0,0:0:0:0:
190,226,136495,2,0,L|177:179,1,47.9999985351563,2|2,1:2|0:0,0:0:0:0:
51,261,136762,5,2,1:2:0:0:
81,341,136895,1,0,0:0:0:0:
170,349,137029,2,0,P|207:343|226:329,1,47.9999985351563,2|0,1:2|0:0,0:0:0:0:
296,252,137295,2,0,B|324:239|346:248|337:258|369:267|390:255,1,95.9999970703126,2|2,1:2|1:2,0:0:0:0:
480,200,137695,1,8,0:0:0:0:
480,200,137829,6,0,L|471:147,1,47.9999985351563,6|0,1:2|0:0,0:0:0:0:
388,44,138095,2,0,L|374:143,1,95.9999970703126,2|2,1:2|1:2,0:0:0:0:
301,187,138495,1,2,0:0:0:0:
256,76,138629,1,2,1:2:0:0:
256,76,138762,1,2,0:0:0:0:
187,148,138895,6,0,B|166:182|166:182|185:246,1,95.9999970703126,2|2,1:2|1:2,0:0:0:0:
219,326,139295,1,2,0:0:0:0:
219,326,139429,2,0,P|241:303|306:308,1,95.9999970703126,2|2,1:2|1:2,0:0:0:0:
384,364,139829,1,2,0:0:0:0:
455,256,139962,1,2,1:2:0:0:
455,256,141029,5,10,0:0:0:0:
382,104,141162,1,2,1:2:0:0:
332,194,141295,1,2,1:2:0:0:
229,66,141429,5,2,1:2:0:0:
247,153,141562,1,0,0:0:0:0:
315,39,141695,1,2,1:2:0:0:
143,170,141829,5,10,0:0:0:0:
277,256,141962,1,2,1:2:0:0:
115,375,142095,6,0,P|99:322|121:274,1,95.9999970703126,6|0,1:2|0:0,0:0:0:0:
224,187,142362,1,10,0:0:0:0:
268,359,142495,1,2,0:0:0:0:
355,184,142629,5,2,1:2:0:0:
187,299,142762,1,2,1:2:0:0:
362,346,142895,2,0,P|415:357|459:347,1,95.9999970703126,10|2,0:0|0:0,0:0:0:0:
355,184,143162,6,0,P|302:173|258:183,1,95.9999970703126,2|2,1:2|0:0,0:0:0:0:
127,242,143429,2,0,P|74:253|30:243,1,95.9999970703126,10|0,0:0|0:0,0:0:0:0:
4,220,143629,1,0,0:0:0:0:
4,220,143695,2,0,L|16:120,1,95.9999970703126,2|2,1:2|1:2,0:0:0:0:
32,0,143962,1,10,0:0:0:0:
145,155,144095,1,2,0:0:0:0:
218,9,144229,6,0,P|283:1|421:29,1,191.999994140625,6|10,1:2|0:0,0:0:0:0:
470,144,144629,1,2,0:0:0:0:
470,144,144762,2,0,P|477:200|466:242,1,95.9999970703126,2|2,1:2|0:0,0:0:0:0:
321,174,145029,2,0,P|314:118|325:76,1,95.9999970703126,10|2,0:0|0:0,0:0:0:0:
470,144,145295,5,2,1:2:0:0:
346,253,145429,1,2,0:0:0:0:
228,122,145562,2,0,P|170:112|128:126,1,95.9999970703126,10|0,0:0|0:0,0:0:0:0:
103,150,145762,1,0,0:0:0:0:
103,150,145829,2,0,P|89:203|96:250,1,95.9999970703126,2|2,1:2|1:2,0:0:0:0:
155,362,146095,1,10,0:0:0:0:
238,213,146229,1,2,0:0:0:0:
325,370,146362,6,0,B|377:392|424:373|410:359|463:337|510:373,2,191.999994140625,6|10|2,1:2|0:0|1:2,0:0:0:0:
343,214,147029,1,2,1:2:0:0:
343,214,147162,2,0,B|378:247|378:247|368:314,1,95.9999970703126,10|2,0:0|0:0,0:0:0:0:
191,226,147429,6,0,L|212:125,1,95.9999970703126,2|0,1:2|0:0,0:0:0:0:
386,74,147695,2,0,P|335:105|294:95,1,95.9999970703126,10|2,0:0|0:0,0:0:0:0:
271,75,147895,1,0,0:0:0:0:
271,75,147962,2,0,P|220:44|179:54,1,95.9999970703126,2|2,1:2|1:2,0:0:0:0:
274,196,148229,1,10,0:0:0:0:
353,0,148362,1,2,0:0:0:0:
464,145,148495,6,0,P|505:230|504:325,1,191.999994140625,6|2,1:2|1:2,0:0:0:0:
274,196,148895,2,0,P|251:267|256:300,1,95.9999970703126,10|0,1:2|0:0,0:0:0:0:
402,205,149162,2,0,P|425:276|420:309,1,95.9999970703126,10|0,1:2|0:0,0:0:0:0:
180,318,149429,6,0,P|174:256|224:133,1,191.999994140625,14|2,1:2|1:2,0:0:0:0:
364,321,149829,2,0,P|313:333|268:313,1,95.9999970703126,10|0,0:0|0:0,0:0:0:0:
252,286,150029,1,0,0:0:0:0:
252,286,150095,2,0,P|254:239|274:196,1,95.9999970703126,2|0,1:2|0:0,0:0:0:0:
431,94,150362,1,10,0:0:0:0:
401,130,150429,1,10,0:0:0:0:
355,140,150495,1,2,0:0:0:0:
313,119,150562,1,2,0:0:0:0:
295,75,150629,6,0,B|251:53|211:66|226:78|178:97|135:72,1,160,6|10,1:2|0:0,0:0:0:0:
30,3,151029,1,0,0:0:0:0:
30,3,151162,2,0,B|62:49|62:49|37:159,1,160,2|10,1:2|0:0,0:0:0:0:
8,288,151562,1,0,0:0:0:0:
8,288,151695,6,0,P|54:306|96:297,1,80,2|0,1:2|0:0,0:0:0:0:
181,185,151962,2,0,P|141:182|105:199,1,80,10|0,0:0|0:0,0:0:0:0:
0,299,152229,2,0,P|46:317|88:308,1,80,2|0,1:2|0:0,0:0:0:0:
187,173,152495,2,0,P|147:170|111:187,1,80,10|0,0:0|0:0,0:0:0:0:
231,340,152762,6,0,L|244:253,1,80,6|0,1:2|0:0,0:0:0:0:
100,107,153029,2,0,L|111:186,1,80,10|0,0:0|0:0,0:0:0:0:
229,85,153295,1,2,1:2:0:0:
66,19,153429,1,0,0:0:0:0:
181,185,153562,2,0,P|220:190|258:177,1,80,10|0,0:0|0:0,0:0:0:0:
400,61,153829,6,0,P|361:102|366:221,1,160,2|10,1:2|0:0,0:0:0:0:
420,308,154229,1,0,0:0:0:0:
420,308,154362,2,0,P|374:284|334:284,1,80,2|0,1:2|0:0,0:0:0:0:
196,333,154629,2,0,P|241:356|281:356,1,80,10|0,0:0|0:0,0:0:0:0:
208,187,154895,6,0,B|161:165|122:178|140:195|89:217|51:189,2,160,6|10|2,1:2|0:0|1:2,0:0:0:0:
85,114,155562,1,0,0:0:0:0:
111,298,155695,1,10,0:0:0:0:
292,204,155829,6,0,P|288:158|182:107,1,160,6|0,1:2|0:0,0:0:0:0:
193,309,156229,2,0,P|249:326|273:322,1,80,10|0,0:0|0:0,0:0:0:0:
368,189,156495,2,0,P|328:187|291:203,1,80,2|0,1:2|0:0,0:0:0:0:
178,321,156762,2,0,P|234:338|258:334,1,80,10|0,0:0|0:0,0:0:0:0:
434,246,157029,6,0,P|456:195|385:102,2,160,6|10|2,1:2|0:0|1:2,0:0:0:0:
358,368,157695,1,0,0:0:0:0:
291,203,157829,1,10,0:0:0:0:
126,367,157962,6,0,P|107:301|135:199,1,160,6|2,1:2|0:0,0:0:0:0:
267,129,158362,2,0,P|290:177|289:214,1,80,10|2,0:0|0:0,0:0:0:0:
120,127,158629,2,0,P|124:87|143:52,1,80,2|2,1:2|0:0,0:0:0:0:
330,74,158895,1,10,0:0:0:0:
353,106,158962,1,0,0:0:0:0:
370,142,159029,1,10,0:0:0:0:
379,181,159095,1,0,0:0:0:0:
378,221,159162,6,0,P|329:281|236:273,1,160,6|10,1:2|0:0,0:0:0:0:
96,230,159562,1,0,0:0:0:0:
96,230,159695,2,0,P|154:280|153:358,1,160,2|10,1:2|0:0,0:0:0:0:
16,243,160095,1,0,0:0:0:0:
16,243,160229,6,0,P|6:178|20:154,1,80,2|0,1:2|0:0,0:0:0:0:
141,88,160495,2,0,P|151:153|137:177,1,80,10|0,0:0|0:0,0:0:0:0:
5,259,160762,2,0,P|-5:194|9:170,1,80,2|0,1:2|0:0,0:0:0:0:
153,74,161028,2,0,P|163:139|149:163,1,80,10|0,0:0|0:0,0:0:0:0:
0,46,161295,6,0,L|86:33,1,80,6|0,1:2|2:0,0:0:0:0:
237,161,161562,2,0,L|151:148,1,80,10|0,0:0|2:0,0:0:0:0:
22,141,161829,1,2,1:2:0:0:
208,58,161962,1,0,0:0:0:0:
188,252,162095,2,0,L|179:339,1,80,10|0,0:0|2:0,0:0:0:0:
33,223,162362,1,2,1:2:0:0:
372,96,162629,6,0,P|401:138|400:177,1,80,10|0,0:0|0:0,0:0:0:0:
234,153,162896,2,0,P|255:107|290:89,1,80,2|0,1:2|0:0,0:0:0:0:
352,245,163163,2,0,P|301:250|267:229,1,80,10|10,0:0|0:0,0:0:0:0:
384,6,163429,6,0,P|465:97|455:243,1,256,6|2,1:2|0:0,0:0:0:0:
325,351,164229,1,2,0:0:0:0:
234,153,164495,6,0,P|180:115|111:124,1,128,6|2,1:2|0:0,0:0:0:0:
126,320,165029,2,0,P|148:281|159:194,1,128,2|2,0:0|0:0,0:0:0:0:
387,327,165562,6,0,P|374:299|375:268,3,47.9999985351563,6|0|2|0,1:2|0:0|0:0|0:0,0:0:0:0:
360,235,165829,2,0,P|341:249|329:269,3,47.9999985351563,2|0|2|0,1:2|0:0|0:0|0:0,0:0:0:0:
297,309,166095,2,0,P|284:281|285:250,3,47.9999985351563,2|0|2|0,1:2|0:0|0:0|0:0,0:0:0:0:
257,232,166362,6,0,P|219:272|218:375,1,143.999995605469,2|0,1:2|2:0,0:0:0:0:
135,258,166629,5,14,1:2:0:0:
