osu file format v14

[General]
AudioFilename: audio.mp3
AudioLeadIn: 0
PreviewTime:34780
Countdown: 0
SampleSet: Soft
StackLeniency: 0.7
Mode: 0
LetterboxInBreaks: 0
WidescreenStoryboard: 1

[Editor]
DistanceSpacing: 0.9
BeatDivisor: 4
GridSize: 8
TimelineZoom: 2.3

[Metadata]
Title:Ego Rock long
TitleUnicode:エゴロック long
Artist:Three
ArtistUnicode:すりぃ
Creator:Nevo
Version:Addy's Extra
Source:
Tags:Len Kagamine 鏡音レン vocaloid full version wanpachi cycopton Jonarwhal kyrian -white elcheer addy2607 gokugohan12468 KittyAdventure jrock j-rock japanese rock collage
BeatmapID:2579667
BeatmapSetID:1205168

[Difficulty]
HPDrainRate:6
CircleSize:3.8
OverallDifficulty:8.5
ApproachRate:9.2
SliderMultiplier:1.7
SliderTickRate:1

[Events]
//Background and Video events
0,0,"76261478_p0.jpg",0,0
//Break Periods
2,59095,66859
//Storyboard Layer 0 (Background)
//Storyboard Layer 1 (Fail)
//Storyboard Layer 2 (Pass)
//Storyboard Layer 3 (Foreground)
//Storyboard Layer 4 (Overlay)
//Storyboard Sound Samples

[TimingPoints]
-2971,266.666666666667,4,2,1,50,1,0
229,-166.666666666667,4,2,1,50,0,0
762,-86.9565217391304,4,2,1,60,0,0
1295,-100,4,2,1,70,0,0
18362,-133.333333333333,4,2,1,60,0,0
19895,-133.333333333333,4,2,1,5,0,0
19962,-133.333333333333,4,2,1,60,0,0
20695,-133.333333333333,4,2,1,5,0,0
20762,-133.333333333333,4,2,1,60,0,0
25829,-100,4,2,1,60,0,0
25962,-100,4,2,1,5,0,0
26095,-100,4,2,1,60,0,0
26895,-133.333333333333,4,2,1,65,0,0
33295,-105.263157894737,4,2,1,60,0,0
33829,-105.263157894737,4,2,1,70,0,0
34362,-105.263157894737,4,2,1,80,0,0
34629,-105.263157894737,4,2,1,90,0,0
34895,-181.818181818182,4,2,1,100,0,0
35429,-83.3333333333333,4,2,1,90,0,1
43962,-100,4,2,1,85,0,1
49495,-100,4,2,1,5,0,1
49562,-100,4,2,1,85,0,1
56762,-166.666666666667,4,2,1,75,0,0
58895,-100,4,2,1,70,0,0
73695,-100,4,2,1,70,0,0
75962,-133.333333333333,4,2,1,60,0,0
83429,-100,4,2,1,60,0,0
84495,-133.333333333333,4,2,1,65,0,0
90895,-100,4,2,1,60,0,0
91429,-100,4,2,1,70,0,0
91962,-100,4,2,1,80,0,0
92229,-100,4,2,1,90,0,0
92495,-181.818181818181,4,2,1,100,0,0
93029,-79.9999999999999,4,2,1,90,0,1
99562,-79.9999999999999,4,2,1,5,0,1
99695,-79.9999999999999,4,2,1,90,0,1
101562,-90.9090909090909,4,2,1,85,0,1
104895,-90.9090909090909,4,2,1,5,0,1
105029,-90.9090909090909,4,2,1,85,0,1
105162,-90.9090909090909,4,2,1,5,0,1
105295,-90.9090909090909,4,2,1,85,0,1
106029,-90.9090909090909,4,2,1,5,0,1
106095,-90.9090909090909,4,2,1,85,0,1
106562,-90.9090909090909,4,2,1,5,0,1
106629,-90.9090909090909,4,2,1,85,0,1
107095,-90.9090909090909,4,2,1,5,0,1
107162,-90.9090909090909,4,2,1,85,0,1
110228,-90.9090909090909,4,2,1,5,0,1
110362,-90.9090909090909,4,2,1,85,0,1
110762,-90.9090909090909,4,2,1,5,0,1
110895,-90.9090909090909,4,2,1,85,0,1
114362,-166.666666666667,4,2,1,75,0,0
116495,-100,4,2,1,90,0,0
120962,-100,4,2,1,5,0,0
121029,-100,4,2,1,90,0,0
125029,-100,4,2,1,80,0,0
133562,-133.333333333333,4,2,1,75,0,0
137962,-133.333333333333,4,2,1,5,0,0
138095,-133.333333333333,4,2,1,75,0,0
142095,-74.074074074074,4,2,1,90,0,1
148628,-74.074074074074,4,2,1,5,0,1
148762,-74.074074074074,4,2,1,90,0,1
150629,-86.9565217391304,4,2,1,85,0,1
153962,-86.9565217391304,4,2,1,5,0,1
154095,-86.9565217391304,4,2,1,85,0,1
155095,-86.9565217391304,4,2,1,5,0,1
155162,-86.9565217391304,4,2,1,85,0,1
155629,-86.9565217391304,4,2,1,5,0,1
155695,-86.9565217391304,4,2,1,85,0,1
156162,-86.9565217391304,4,2,1,5,0,1
156229,-86.9565217391304,4,2,1,85,0,1
159295,-86.9565217391304,4,2,1,5,0,1
159429,-86.9565217391304,4,2,1,85,0,1
161428,-86.9565217391304,4,2,1,5,0,1
161562,-86.9565217391304,4,2,1,85,0,1
161695,-86.9565217391304,4,2,1,5,0,1
161829,-86.9565217391304,4,2,1,85,0,1
161962,-86.9565217391304,4,2,1,5,0,1
162095,-86.9565217391304,4,2,1,85,0,1
162228,-86.9565217391304,4,2,1,5,0,1
162362,-86.9565217391304,4,2,1,85,0,1
163429,-133.333333333333,4,2,1,75,0,0
165562,-100,4,2,1,100,0,0

[Colours]
Combo1 : 251,206,30
Combo2 : 255,128,64
Combo3 : 129,166,254

[HitObjects]
421,336,229,6,0,L|422:280,1,50.9999984436036,2|2,0:0|0:0,0:0:0:0:
341,297,495,2,0,L|342:241,1,50.9999984436036,2|2,0:0|0:0,0:0:0:0:
428,120,762,2,0,P|343:151|366:3,1,293.2500055933,2|0,0:0|0:0,0:0:0:0:
233,182,1295,6,0,L|128:185,1,85,6|0,1:2|0:0,0:0:0:0:
44,335,1562,2,0,L|149:332,1,85,8|2,0:0|1:2,0:0:0:0:
163,332,1762,1,2,1:2:0:0:
163,332,1829,1,2,1:2:0:0:
249,161,1962,1,2,1:2:0:0:
65,235,2095,1,10,0:0:0:0:
293,357,2229,6,0,P|347:365|403:355,1,85,2|0,1:2|0:0,0:0:0:0:
372,126,2495,2,0,P|426:118|482:128,1,85,2|10,1:2|0:0,0:0:0:0:
399,274,2762,1,2,0:0:0:0:
399,274,2829,1,0,0:0:0:0:
399,274,2895,1,2,1:2:0:0:
293,53,3029,1,2,1:2:0:0:
376,240,3162,1,10,0:0:0:0:
270,19,3296,1,2,0:0:0:0:
144,284,3429,6,0,P|188:291|246:281,1,85,2|2,1:2|0:0,0:0:0:0:
148,124,3695,2,0,P|104:117|46:129,1,85,10|2,0:0|1:2,0:0:0:0:
35,140,3895,1,2,1:2:0:0:
35,140,3962,1,2,1:2:0:0:
84,365,4095,1,2,1:2:0:0:
236,163,4229,1,10,0:0:0:0:
387,355,4362,6,0,L|301:359,1,85,2|0,1:2|0:0,0:0:0:0:
461,181,4629,2,0,L|375:177,1,85,2|10,1:2|0:0,0:0:0:0:
236,163,4895,1,2,0:0:0:0:
380,261,5029,1,2,1:2:0:0:
178,293,5162,1,2,1:2:0:0:
405,231,5295,1,10,0:0:0:0:
152,140,5428,1,2,0:0:0:0:
242,26,5562,6,0,L|238:127,1,85,6|0,1:2|0:0,0:0:0:0:
44,231,5829,2,0,L|48:130,1,85,8|2,0:0|1:2,0:0:0:0:
50,112,6029,1,2,1:2:0:0:
50,112,6095,1,2,1:2:0:0:
236,163,6229,1,2,1:2:0:0:
113,26,6362,1,10,0:0:0:0:
342,8,6495,6,0,P|398:0|444:11,1,85,2|0,1:2|0:0,0:0:0:0:
303,198,6762,2,0,P|359:206|405:195,1,85,2|10,1:2|0:0,0:0:0:0:
463,100,7029,1,2,0:0:0:0:
463,100,7095,1,2,0:0:0:0:
463,100,7162,1,2,1:2:0:0:
319,309,7295,1,2,1:2:0:0:
444,130,7429,1,10,0:0:0:0:
300,339,7562,1,2,0:0:0:0:
234,67,7695,6,0,L|117:65,1,85,6|2,1:2|0:0,0:0:0:0:
172,234,7962,2,0,L|55:236,1,85,10|0,0:0|0:0,0:0:0:0:
53,239,8162,1,0,0:0:0:0:
53,239,8229,1,2,1:2:0:0:
263,157,8362,1,2,1:2:0:0:
57,102,8495,1,10,0:0:0:0:
157,335,8629,1,2,1:2:0:0:
263,157,8762,6,0,P|307:145|360:165,1,85,0|2,0:0|1:2,0:0:0:0:
430,316,9029,2,0,P|386:328|333:308,1,85,10|2,0:0|1:2,0:0:0:0:
440,78,9295,1,10,0:0:0:0:
320,295,9429,1,2,1:2:0:0:
281,38,9562,1,10,0:0:0:0:
387,242,9696,1,10,0:0:0:0:
162,52,9829,6,0,L|158:145,1,85,6|0,1:2|0:0,0:0:0:0:
25,267,10095,2,0,L|29:174,1,85,8|2,0:0|1:2,0:0:0:0:
31,148,10295,1,2,1:2:0:0:
31,148,10362,1,2,1:2:0:0:
222,249,10495,1,2,1:2:0:0:
116,111,10629,1,10,0:0:0:0:
89,351,10762,6,0,P|42:359|4:347,1,85,2|0,1:2|0:0,0:0:0:0:
260,179,11029,2,0,P|213:171|175:183,1,85,2|10,1:2|0:0,0:0:0:0:
287,348,11295,1,2,0:0:0:0:
287,348,11362,1,0,0:0:0:0:
287,348,11429,1,2,1:2:0:0:
375,147,11562,1,2,1:2:0:0:
303,318,11695,1,10,0:0:0:0:
391,117,11828,1,2,0:0:0:0:
503,355,11962,6,0,B|458:368|458:368|414:352,1,85,2|2,1:2|0:0,0:0:0:0:
228,216,12229,2,0,B|273:203|273:203|317:219,1,85,10|2,0:0|1:2,0:0:0:0:
339,230,12429,1,2,1:2:0:0:
339,230,12495,1,2,1:2:0:0:
168,359,12629,1,2,1:2:0:0:
204,107,12762,1,10,0:0:0:0:
303,318,12895,1,2,1:2:0:0:
52,169,13029,6,0,P|106:176|158:161,1,85,0|2,0:0|1:2,0:0:0:0:
2,18,13295,2,0,P|56:11|108:26,1,85,10|2,0:0|0:0,0:0:0:0:
204,107,13562,1,2,1:2:0:0:
105,315,13695,1,2,1:2:0:0:
194,76,13829,1,10,0:0:0:0:
280,331,13962,1,2,0:0:0:0:
359,96,14095,6,0,L|455:90,1,85,6|0,1:2|0:0,0:0:0:0:
326,203,14362,2,0,L|230:209,1,85,8|2,0:0|1:2,0:0:0:0:
207,213,14562,1,2,1:2:0:0:
207,213,14629,1,2,1:2:0:0:
391,305,14762,1,2,1:2:0:0:
273,127,14895,1,10,0:0:0:0:
157,350,15029,6,0,P|203:358|258:343,1,85,2|0,1:2|0:0,0:0:0:0:
64,140,15295,2,0,P|110:132|165:147,1,85,2|10,1:2|0:0,0:0:0:0:
34,284,15562,1,2,0:0:0:0:
34,284,15629,1,2,0:0:0:0:
34,284,15696,1,2,1:2:0:0:
109,45,15829,1,2,1:2:0:0:
206,274,15962,1,10,0:0:0:0:
302,29,16095,6,0,B|395:13|380:80|468:66,1,170,6|2,1:2|1:2,0:0:0:0:
496,59,16429,1,0,0:0:0:0:
496,59,16495,2,0,L|489:157,1,85,10|2,0:0|1:2,0:0:0:0:
436,267,16762,1,2,1:2:0:0:
324,105,16895,1,2,1:2:0:0:
324,105,16962,1,2,1:2:0:0:
324,105,17029,2,0,L|256:105,1,42.5,2|2,1:2|1:2,0:0:0:0:
184,198,17162,2,0,L|252:198,1,42.5,2|0,1:2|0:0,0:0:0:0:
67,30,17295,5,10,0:0:0:0:
64,72,17361,1,10,0:0:0:0:
61,114,17428,1,10,0:0:0:0:
58,157,17495,1,2,1:2:0:0:
55,199,17561,5,2,1:2:0:0:
54,220,17628,1,2,1:2:0:0:
52,242,17695,1,2,1:2:0:0:
51,263,17762,1,2,1:2:0:0:
49,284,17829,6,0,L|117:283,1,42.5,10|0,0:0|0:0,0:0:0:0:
209,74,17962,2,0,L|141:75,1,42.5,10|0,0:0|0:0,0:0:0:0:
357,348,18362,6,0,L|439:341,1,63.7500024318696,6|0,1:2|0:0,0:0:0:0:
452,248,18629,2,0,L|370:255,1,63.7500024318696,10|2,0:0|0:0,0:0:0:0:
247,233,18895,1,2,1:2:0:0:
209,240,19029,1,2,1:2:0:0:
120,337,19162,1,10,0:0:0:0:
82,330,19296,1,2,0:0:0:0:
28,225,19429,6,0,L|21:119,1,95.6250036478044,2|0,1:2|0:0,0:0:0:0:
20,98,19695,2,0,P|66:111|117:89,1,95.6250036478044,10|0,0:0|2:0,0:0:0:0:
132,73,19962,1,2,1:2:0:0:
315,17,20229,2,0,L|235:13,1,63.7500024318696,10|0,0:0|0:0,0:0:0:0:
282,122,20495,6,0,P|323:137|378:111,1,95.6250036478044,2|0,1:2|2:0,0:0:0:0:
394,98,20762,2,0,L|403:175,1,63.7500024318696,10|0,0:0|0:0,0:0:0:0:
332,311,21029,1,2,1:2:0:0:
327,273,21162,1,2,1:2:0:0:
218,244,21295,1,10,0:0:0:0:
213,206,21428,1,2,0:0:0:0:
169,69,21562,6,0,P|102:47|43:80,1,127.500004863739,2|10,1:2|0:0,0:0:0:0:
109,157,21962,1,2,1:2:0:0:
12,236,22095,2,0,L|20:299,2,63.7500024318696,2|2|10,1:2|1:2|0:0,0:0:0:0:
145,349,22495,6,0,P|194:373|268:337,1,127.500004863739,6|2,1:2|1:2,0:0:0:0:
339,226,22895,2,0,L|264:226,1,63.7500024318696,10|2,0:0|0:0,0:0:0:0:
398,147,23162,2,0,L|473:147,1,63.7500024318696,2|0,1:2|0:0,0:0:0:0:
331,59,23429,1,10,0:0:0:0:
292,58,23562,1,2,1:2:0:0:
183,145,23695,6,0,P|194:104|181:66,1,63.7500024318696,2|2,1:2|0:0,0:0:0:0:
103,201,23962,2,0,P|133:231|172:238,1,63.7500024318696,10|2,0:0|0:0,0:0:0:0:
92,102,24229,2,0,P|50:112|24:143,1,63.7500024318696,2|2,1:2|1:2,0:0:0:0:
18,267,24495,1,10,0:0:0:0:
16,305,24629,1,2,0:0:0:0:
153,365,24762,6,0,L|152:233,1,127.500004863739,2|10,1:2|0:0,0:0:0:0:
240,122,25162,1,2,0:0:0:0:
344,258,25295,2,0,L|264:248,1,63.7500024318696,2|2,1:2|1:2,0:0:0:0:
424,130,25562,2,0,L|344:140,1,63.7500024318696,10|0,0:0|0:0,0:0:0:0:
498,294,25829,6,0,P|510:247|494:197,1,85,14|0,1:2|2:0,0:0:0:0:
348,339,26095,2,0,P|336:292|352:242,1,85,14|0,1:2|0:0,0:0:0:0:
474,44,26362,1,14,1:2:0:0:
474,44,26629,6,0,L|409:35,1,42.5,2|0,0:0|0:0,0:0:0:0:
236,94,26895,6,0,L|231:12,1,63.7500024318696,6|2,1:2|0:0,0:0:0:0:
137,118,27162,2,0,L|132:200,1,63.7500024318696,10|2,0:0|0:0,0:0:0:0:
178,307,27429,1,2,1:2:0:0:
215,311,27562,1,2,1:2:0:0:
313,212,27695,1,10,0:0:0:0:
276,208,27828,1,2,0:0:0:0:
457,346,27962,6,0,L|466:270,1,63.7500024318696,2|2,1:2|0:0,0:0:0:0:
410,185,28229,2,0,L|401:109,1,63.7500024318696,10|0,0:0|0:0,0:0:0:0:
290,21,28495,1,2,1:2:0:0:
129,210,28762,2,0,P|163:218|202:204,1,63.7500024318696,10|2,0:0|0:0,0:0:0:0:
43,82,29029,6,0,P|122:73|166:116,1,127.500004863739,2|10,1:2|0:0,0:0:0:0:
129,210,29429,1,2,0:0:0:0:
208,349,29562,2,0,L|124:347,1,63.7500024318696,2|2,1:2|1:2,0:0:0:0:
303,242,29829,2,0,L|219:244,1,63.7500024318696,10|2,0:0|0:0,0:0:0:0:
370,108,30095,6,0,P|417:98|453:108,1,63.7500024318696,2|0,1:2|0:0,0:0:0:0:
504,170,30362,1,10,0:0:0:0:
277,86,30495,2,0,P|320:36|402:17,1,127.500004863739,2|2,1:2|1:2,0:0:0:0:
370,108,30895,1,10,0:0:0:0:
179,12,31029,6,0,L|51:4,1,127.500004863739,6|2,1:2|1:2,0:0:0:0:
1,110,31429,2,0,L|78:116,1,63.7500024318696,10|2,0:0|0:0,0:0:0:0:
215,166,31695,1,2,1:2:0:0:
203,202,31829,1,0,0:0:0:0:
87,275,31962,1,10,0:0:0:0:
99,311,32096,1,2,1:2:0:0:
254,364,32229,6,0,P|293:372|329:362,1,63.7500024318696,2|2,1:2|0:0,0:0:0:0:
405,203,32495,2,0,P|366:195|330:205,1,63.7500024318696,10|2,0:0|0:0,0:0:0:0:
448,337,32762,1,2,1:2:0:0:
468,59,33029,5,10,0:0:0:0:
512,234,33163,1,2,0:0:0:0:
457,31,33295,6,0,L|362:31,1,80.7499978437424,14|0,1:2|0:0,0:0:0:0:
225,128,33562,5,10,1:2:0:0:
181,303,33696,1,10,1:2:0:0:
236,100,33828,6,0,L|331:100,1,80.7499978437424,10|0,1:2|0:0,0:0:0:0:
406,176,34095,5,10,1:2:0:0:
472,371,34229,1,10,1:2:0:0:
285,221,34362,6,0,L|204:216,1,80.7499978437424,10|0,1:2|0:0,0:0:0:0:
257,290,34629,6,0,L|176:285,1,80.7499978437424,10|0,1:2|0:0,0:0:0:0:
225,358,34895,6,0,L|55:347,1,163.625004993439,10|0,1:2|0:0,0:0:0:0:
61,347,35429,6,0,L|55:236,1,101.999996887207,6|0,1:2|0:0,0:0:0:0:
221,57,35695,2,0,L|227:168,1,101.999996887207,10|2,0:0|0:0,0:0:0:0:
376,299,35962,1,2,1:2:0:0:
147,218,36095,1,2,1:2:0:0:
415,221,36229,1,10,0:0:0:0:
185,299,36362,1,2,0:0:0:0:
449,345,36495,5,2,1:2:0:0:
217,155,36629,1,2,0:0:0:0:
487,38,36762,2,0,L|493:154,1,101.999996887207,10|0,0:0|0:0,0:0:0:0:
415,221,36962,1,0,0:0:0:0:
415,221,37029,2,0,L|409:105,1,101.999996887207,2|0,1:2|0:0,0:0:0:0:
355,26,37295,1,10,0:0:0:0:
284,195,37429,1,2,0:0:0:0:
152,31,37562,6,0,B|123:17|123:17|33:22,1,101.999996887207,6|0,1:2|0:0,0:0:0:0:
0,184,37829,1,10,0:0:0:0:
53,20,37962,1,2,0:0:0:0:
140,255,38095,2,0,B|169:269|169:269|259:264,1,101.999996887207,2|0,1:2|0:0,0:0:0:0:
296,80,38362,1,10,0:0:0:0:
238,265,38495,1,2,0:0:0:0:
440,109,38629,6,0,L|454:224,1,101.999996887207,2|2,1:2|0:0,0:0:0:0:
347,353,38895,2,0,L|333:238,1,101.999996887207,10|0,0:0|0:0,0:0:0:0:
296,80,39162,1,2,1:2:0:0:
238,265,39295,1,0,0:0:0:0:
164,14,39429,1,10,0:0:0:0:
284,195,39562,1,2,0:0:0:0:
434,11,39695,6,0,P|377:-2|325:12,1,101.999996887207,6|0,1:2|0:0,0:0:0:0:
120,128,39962,2,0,P|177:141|229:127,1,101.999996887207,10|2,0:0|0:0,0:0:0:0:
34,33,40229,1,2,1:2:0:0:
136,281,40362,1,2,1:2:0:0:
164,14,40495,1,10,0:0:0:0:
32,236,40629,1,2,0:0:0:0:
238,63,40762,5,2,1:2:0:0:
305,304,40895,1,0,0:0:0:0:
479,119,41029,2,0,L|357:113,1,101.999996887207,10|2,0:0|0:0,0:0:0:0:
303,198,41229,1,0,0:0:0:0:
303,198,41295,2,0,L|425:204,1,101.999996887207,2|2,1:2|1:2,0:0:0:0:
238,63,41562,1,10,0:0:0:0:
445,205,41695,1,2,0:0:0:0:
212,338,41829,6,0,B|157:355|157:355|94:332,1,101.999996887207,6|0,1:2|0:0,0:0:0:0:
25,129,42095,1,2,1:2:0:0:
0,379,42229,5,10,1:2:0:0:
146,90,42495,1,10,1:2:0:0:
329,347,42762,6,0,B|395:364|441:335|441:335|420:288|441:229,1,203.999993774414,14|2,1:2|1:2,0:0:0:0:
484,117,43162,2,0,L|372:117,1,101.999996887207,10|0,0:0|0:0,0:0:0:0:
302,80,43362,1,10,0:0:0:0:
302,80,43429,2,0,L|242:81,1,50.9999984436036,2|0,1:2|0:0,0:0:0:0:
190,213,43562,2,0,L|250:212,1,50.9999984436036
72,117,43695,1,10,0:0:0:0:
43,158,43761,1,10,0:0:0:0:
30,208,43828,1,2,0:0:0:0:
35,258,43894,1,2,0:0:0:0:
58,304,43962,6,0,P|136:328|228:301,1,170,6|10,1:2|0:0,0:0:0:0:
279,214,44362,1,0,0:0:0:0:
114,373,44495,2,0,P|195:367|265:302,1,170,2|10,1:2|0:0,0:0:0:0:
288,209,44895,1,0,0:0:0:0:
232,379,45029,6,0,P|281:351|299:309,1,85,2|0,1:2|0:0,0:0:0:0:
472,266,45295,2,0,P|423:244|395:199,1,85,10|0,0:0|0:0,0:0:0:0:
208,244,45562,2,0,P|241:199|239:152,1,85,2|0,1:2|0:0,0:0:0:0:
449,84,45829,2,0,P|395:82|351:52,1,85,10|0,0:0|0:0,0:0:0:0:
183,17,46095,6,0,L|81:14,1,85,6|0,1:2|0:0,0:0:0:0:
23,126,46362,2,0,L|125:129,1,85,10|0,0:0|0:0,0:0:0:0:
279,298,46629,2,0,L|177:295,1,85,2|0,1:2|0:0,0:0:0:0:
266,137,46896,2,0,L|368:140,1,85,10|0,0:0|0:0,0:0:0:0:
477,231,47162,6,0,P|488:282|471:327,1,85,2|0,1:2|0:0,0:0:0:0:
350,139,47429,2,0,P|339:88|356:43,1,85,10|0,0:0|0:0,0:0:0:0:
401,275,47695,1,2,1:2:0:0:
276,223,47829,1,0,0:0:0:0:
183,368,47962,1,10,0:0:0:0:
308,316,48096,1,0,0:0:0:0:
87,161,48229,6,0,L|85:299,1,127.5,6|0,1:2|0:0,0:0:0:0:
53,317,48495,2,0,L|54:224,1,85,10|0,0:0|0:0,0:0:0:0:
146,48,48762,2,0,P|206:24|280:56,1,127.5,2|0,1:2|0:0,0:0:0:0:
288,64,49029,1,10,0:0:0:0:
208,123,49162,6,0,P|262:162|386:90,1,212.5,6|0,1:2|2:0,0:0:0:0:
389,71,49562,2,0,P|437:67|488:71,1,85,10|0,0:0|0:0,0:0:0:0:
511,175,49829,2,0,P|462:166|412:175,1,85,2|0,1:2|0:0,0:0:0:0:
377,276,50095,2,0,P|417:263|472:285,1,85,10|0,0:0|0:0,0:0:0:0:
312,351,50362,6,0,B|221:381|233:309|126:354,1,170,6|10,1:2|0:0,0:0:0:0:
40,384,50762,1,0,0:0:0:0:
91,208,50895,2,0,L|178:213,1,85,2|0,1:2|0:0,0:0:0:0:
286,226,51162,1,10,0:0:0:0:
0,152,51295,6,0,P|81:96|151:118,1,170,6|2,1:2|0:0,0:0:0:0:
280,13,51695,2,0,P|224:11|194:31,1,85,10|2,0:0|0:0,0:0:0:0:
212,168,51962,1,2,1:2:0:0:
363,1,52095,1,2,0:0:0:0:
491,164,52229,1,10,0:0:0:0:
491,206,52295,1,10,0:0:0:0:
492,248,52362,1,10,0:0:0:0:
493,291,52428,1,10,0:0:0:0:
493,333,52495,6,0,B|449:319|449:319|396:336,1,85,6|0,1:2|0:0,0:0:0:0:
286,226,52762,2,0,B|330:212|330:212|383:229,1,85,10|0,0:0|0:0,0:0:0:0:
209,330,53029,2,0,L|108:344,1,85,2|0,1:2|0:0,0:0:0:0:
18,137,53295,1,10,0:0:0:0:
99,269,53429,1,0,0:0:0:0:
164,22,53562,6,0,L|151:116,1,85,2|0,1:2|0:0,0:0:0:0:
240,174,53829,2,0,L|253:80,1,85,10|0,0:0|0:0,0:0:0:0:
462,11,54095,2,0,L|475:105,1,85,2|0,1:2|0:0,0:0:0:0:
386,163,54362,2,0,L|373:69,1,85,10|0,0:0|0:0,0:0:0:0:
493,260,54629,6,0,P|445:245|404:259,1,85,6|0,1:2|0:0,0:0:0:0:
251,338,54895,2,0,P|299:353|340:339,1,85,10|0,0:0|0:0,0:0:0:0:
279,139,55162,2,0,P|231:124|190:138,1,85,2|0,1:2|0:0,0:0:0:0:
69,372,55429,2,0,P|117:387|158:373,1,85,10|0,0:0|0:0,0:0:0:0:
52,50,55695,6,0,L|41:153,1,85,2|0,1:2|0:0,0:0:0:0:
269,223,55962,2,0,L|280:120,1,85,10|0,0:0|0:0,0:0:0:0:
176,22,56229,1,2,1:2:0:0:
85,261,56362,1,0,0:0:0:0:
261,65,56495,1,10,0:0:0:0:
352,300,56629,1,10,0:0:0:0:
453,104,56762,6,0,B|332:126|366:42|251:66,1,203.999993774414,6|2,1:2|0:0,0:0:0:0:
140,151,57562,1,0,0:0:0:0:
291,250,57829,2,0,P|309:199|296:155,1,101.999996887207,6|2,1:2|0:0,0:0:0:0:
133,249,58362,2,0,P|186:240|219:208,1,101.999996887207,2|2,0:0|0:0,0:0:0:0:
113,68,58762,1,0,0:0:0:0:
113,68,58895,5,6,1:2:0:0:
349,34,67429,6,0,L|454:37,1,85,6|0,1:2|0:0,0:0:0:0:
380,152,67695,2,0,L|275:149,1,85,8|2,0:0|1:2,0:0:0:0:
270,125,67895,1,2,1:2:0:0:
270,125,67962,1,2,1:2:0:0:
433,36,68095,1,2,1:2:0:0:
380,152,68229,1,10,0:0:0:0:
219,26,68362,6,0,P|156:14|115:15,1,85,2|0,1:2|0:0,0:0:0:0:
157,217,68629,2,0,P|94:229|53:228,1,85,2|10,1:2|0:0,0:0:0:0:
170,110,68895,1,2,0:0:0:0:
170,110,68962,1,0,0:0:0:0:
170,110,69029,1,2,1:2:0:0:
239,335,69162,1,2,1:2:0:0:
182,142,69295,1,10,0:0:0:0:
251,367,69428,1,2,0:0:0:0:
359,90,69562,6,0,L|339:194,1,85,2|2,1:2|0:0,0:0:0:0:
444,263,69829,2,0,L|464:159,1,85,10|2,0:0|1:2,0:0:0:0:
469,146,70029,1,2,1:2:0:0:
469,146,70095,1,2,1:2:0:0:
286,216,70229,1,2,1:2:0:0:
506,316,70362,1,10,0:0:0:0:
251,367,70495,6,0,P|258:312|250:278,1,85,2|0,1:2|0:0,0:0:0:0:
66,325,70762,2,0,P|58:270|67:236,1,85,2|10,1:2|0:0,0:0:0:0:
188,126,71029,1,2,0:0:0:0:
188,126,71095,1,0,0:0:0:0:
188,126,71162,1,2,1:2:0:0:
332,331,71295,1,2,1:2:0:0:
342,80,71429,1,10,0:0:0:0:
198,285,71562,1,2,0:0:0:0:
58,37,71695,6,0,L|160:26,1,85,6|0,1:2|0:0,0:0:0:0:
272,116,71962,2,0,L|170:127,1,85,8|2,0:0|1:2,0:0:0:0:
154,132,72162,1,2,1:2:0:0:
154,132,72229,1,2,1:2:0:0:
326,240,72362,1,2,1:2:0:0:
224,49,72495,1,10,0:0:0:0:
108,235,72629,6,0,L|97:340,1,85,2|0,1:2|0:0,0:0:0:0:
279,377,72895,2,0,L|268:272,1,85,2|10,1:2|0:0,0:0:0:0:
372,135,73162,1,2,0:0:0:0:
372,135,73229,1,0,0:0:0:0:
372,135,73295,1,2,1:2:0:0:
455,337,73429,1,2,1:2:0:0:
512,104,73562,1,10,0:0:0:0:
310,219,73695,6,0,B|224:189|233:266|134:237,1,170,6|2,1:2|1:2,0:0:0:0:
117,222,74029,1,0,0:0:0:0:
117,222,74095,2,0,L|113:115,1,85,10|2,0:0|1:2,0:0:0:0:
209,23,74362,1,2,1:2:0:0:
401,53,74495,1,2,1:2:0:0:
401,53,74562,1,2,1:2:0:0:
401,53,74629,2,0,L|400:95,1,42.5,2|2,1:2|1:2,0:0:0:0:
310,176,74762,2,0,L|310:218,1,42.5,2|2,1:2|1:2,0:0:0:0:
455,337,74895,5,10,0:0:0:0:
422,363,74961,1,10,0:0:0:0:
381,374,75028,1,10,0:0:0:0:
339,368,75095,1,2,1:2:0:0:
303,346,75162,1,2,1:2:0:0:
276,330,75228,1,2,1:2:0:0:
245,323,75295,1,2,1:2:0:0:
213,327,75362,1,2,1:2:0:0:
185,340,75429,6,0,L|122:344,1,42.5,10|0,0:0|0:0,0:0:0:0:
28,207,75562,2,0,L|91:203,1,42.5,10|0,0:0|0:0,0:0:0:0:
249,79,75962,6,0,L|245:15,1,63.7500024318696,6|0,1:2|0:0,0:0:0:0:
335,95,76229,2,0,L|331:31,1,63.7500024318696,10|2,0:0|0:0,0:0:0:0:
483,186,76495,2,0,L|487:250,1,63.7500024318696,2|2,1:2|1:2,0:0:0:0:
397,170,76762,2,0,L|401:234,1,63.7500024318696,10|2,0:0|0:0,0:0:0:0:
322,350,77029,5,2,1:2:0:0:
445,317,77162,1,0,0:0:0:0:
294,236,77295,2,0,L|138:230,1,127.500004863739,10|2,0:0|1:2,0:0:0:0:
84,323,77695,1,0,0:0:0:0:
84,323,77829,2,0,L|162:325,1,63.7500024318696,10|2,0:0|0:0,0:0:0:0:
0,152,78095,6,0,P|55:127|124:151,1,127.500004863739,2|10,1:2|0:0,0:0:0:0:
166,231,78495,1,0,0:0:0:0:
241,39,78629,2,0,L|166:38,1,63.7500024318696,2|2,1:2|1:2,0:0:0:0:
239,127,78895,2,0,L|314:128,1,63.7500024318696,10|2,0:0|0:0,0:0:0:0:
394,65,79162,5,2,1:2:0:0:
394,65,79295,1,0,0:0:0:0:
467,145,79429,2,0,P|484:209|460:285,1,127.500004863739,10|2,0:0|1:2,0:0:0:0:
374,347,79829,2,0,P|384:307|371:269,1,63.7500024318696,2|10,1:2|0:0,0:0:0:0:
278,196,80095,5,6,1:2:0:0:
278,196,80229,2,0,L|214:191,1,63.7500024318696,0|2,0:0|1:2,0:0:0:0:
238,273,80495,2,0,L|170:268,1,63.7500024318696,10|2,0:0|0:0,0:0:0:0:
37,150,80762,2,0,L|105:155,1,63.7500024318696,2|0,1:2|0:0,0:0:0:0:
77,73,81028,2,0,L|145:78,1,63.7500024318696,10|2,0:0|1:2,0:0:0:0:
262,84,81295,5,2,1:2:0:0:
169,0,81429,1,0,0:0:0:0:
360,8,81562,2,0,B|367:64|367:64|360:80|360:80|366:140,1,127.500004863739,10|2,0:0|1:2,0:0:0:0:
434,206,81962,1,2,1:2:0:0:
344,275,82095,2,0,P|311:286|271:275,1,63.7500024318696,10|2,0:0|0:0,0:0:0:0:
93,199,82362,6,0,L|172:197,1,63.7500024318696,2|0,1:2|0:0,0:0:0:0:
257,196,82629,1,10,0:0:0:0:
257,196,82762,1,2,0:0:0:0:
61,292,82895,2,0,L|140:290,1,63.7500024318696,2|2,1:2|1:2,0:0:0:0:
195,109,83162,2,0,L|116:111,1,63.7500024318696,10|0,0:0|0:0,0:0:0:0:
228,331,83429,5,14,1:2:0:0:
367,99,83695,1,14,1:2:0:0:
476,350,83962,1,14,1:2:0:0:
476,350,84229,6,0,L|476:301,1,42.5,2|0,0:0|0:0,0:0:0:0:
486,41,84495,6,0,P|451:30|417:42,1,63.7500024318696,6|2,1:2|0:0,0:0:0:0:
333,175,84762,2,0,P|368:186|402:174,1,63.7500024318696,10|2,0:0|0:0,0:0:0:0:
243,25,85029,1,2,1:2:0:0:
236,62,85162,1,2,1:2:0:0:
161,174,85295,1,10,0:0:0:0:
154,137,85428,1,2,0:0:0:0:
110,45,85562,6,0,L|17:32,1,63.7500024318696,2|2,1:2|0:0,0:0:0:0:
161,174,85829,2,0,L|97:182,1,63.7500024318696,10|0,0:0|0:0,0:0:0:0:
15,274,86095,1,2,1:2:0:0:
245,171,86362,2,0,L|252:248,1,63.7500024318696,10|2,0:0|0:0,0:0:0:0:
323,350,86629,6,0,L|330:273,1,63.7500024318696,2|0,1:2|0:0,0:0:0:0:
342,189,86895,1,10,0:0:0:0:
342,189,87029,1,2,0:0:0:0:
471,286,87162,2,0,L|464:209,1,63.7500024318696,2|2,1:2|1:2,0:0:0:0:
336,125,87429,2,0,L|343:202,1,63.7500024318696,10|2,0:0|0:0,0:0:0:0:
408,37,87695,6,0,P|322:14|279:30,1,127.500004863739,2|10,1:2|0:0,0:0:0:0:
222,115,88095,1,2,1:2:0:0:
126,3,88229,2,0,L|122:78,1,63.7500024318696,2|2,1:2|1:2,0:0:0:0:
222,115,88495,1,10,0:0:0:0:
54,200,88629,6,0,P|114:174|182:202,1,127.500004863739,6|2,1:2|1:2,0:0:0:0:
240,308,89029,2,0,L|169:314,1,63.7500024318696,10|2,0:0|0:0,0:0:0:0:
298,195,89295,1,2,1:2:0:0:
334,207,89429,1,0,0:0:0:0:
417,153,89562,1,10,0:0:0:0:
453,141,89696,1,2,1:2:0:0:
487,22,89829,6,0,L|414:5,1,63.7500024318696,2|2,1:2|0:0,0:0:0:0:
298,81,90095,2,0,L|371:98,1,63.7500024318696,10|2,0:0|0:0,0:0:0:0:
221,20,90362,1,2,1:2:0:0:
76,251,90629,5,10,0:0:0:0:
36,48,90762,1,2,0:0:0:0:
81,280,90895,6,0,B|181:280,1,85,14|0,1:2|0:0,0:0:0:0:
260,146,91162,5,10,1:2:0:0:
300,349,91295,1,10,1:2:0:0:
257,117,91428,6,0,B|357:117,1,85,10|0,1:2|0:0,0:0:0:0:
468,204,91695,5,10,1:2:0:0:
508,1,91828,1,10,1:2:0:0:
463,233,91961,6,0,B|363:233,1,85,10|0,1:2|0:0,0:0:0:0:
443,305,92229,6,0,B|343:305,1,85,10|0,1:2|0:0,0:0:0:0:
417,376,92495,6,0,B|251:376,1,163.625004993439,10|0,1:2|0:0,0:0:0:0:
253,376,93029,6,0,P|267:315|253:261,1,106.25,6|0,1:2|0:0,0:0:0:0:
125,156,93295,2,0,P|111:217|125:271,1,106.25,10|2,0:0|0:0,0:0:0:0:
305,160,93562,1,2,1:2:0:0:
81,44,93695,1,2,1:2:0:0:
333,46,93829,1,10,0:0:0:0:
125,156,93962,1,2,0:0:0:0:
377,240,94095,5,2,1:2:0:0:
218,38,94229,1,2,0:0:0:0:
119,258,94362,2,0,L|232:255,1,106.25,10|0,0:0|0:0,0:0:0:0:
365,125,94629,2,0,L|252:128,1,106.25,2|0,1:2|0:0,0:0:0:0:
108,131,94895,1,10,0:0:0:0:
300,249,95029,1,2,0:0:0:0:
44,337,95162,6,0,L|38:225,1,106.25,6|0,1:2|0:0,0:0:0:0:
218,38,95429,1,10,0:0:0:0:
0,160,95562,1,2,0:0:0:0:
203,132,95695,2,0,L|197:244,1,106.25,2|2,1:2|0:0,0:0:0:0:
397,283,95962,1,10,0:0:0:0:
193,343,96095,1,2,0:0:0:0:
341,109,96229,6,0,P|397:98|452:109,1,106.25,2|2,1:2|0:0,0:0:0:0:
293,280,96495,2,0,P|349:291|404:280,1,106.25,10|0,0:0|0:0,0:0:0:0:
220,31,96762,1,2,1:2:0:0:
124,259,96895,1,0,0:0:0:0:
110,2,97029,1,10,0:0:0:0:
219,229,97162,1,2,0:0:0:0:
339,17,97295,6,0,B|394:0|394:0|447:18,1,106.25,6|0,1:2|0:0,0:0:0:0:
370,164,97562,2,0,B|315:181|315:181|262:163,1,106.25,10|2,0:0|0:0,0:0:0:0:
474,104,97829,1,2,1:2:0:0:
333,331,97962,1,2,1:2:0:0:
258,71,98095,1,10,0:0:0:0:
421,291,98229,1,2,0:0:0:0:
123,299,98362,5,2,1:2:0:0:
370,164,98495,1,0,0:0:0:0:
167,65,98629,2,0,L|161:181,1,106.25,10|2,0:0|0:0,0:0:0:0:
33,268,98895,2,0,L|39:152,1,106.25,2|2,1:2|1:2,0:0:0:0:
46,26,99162,1,10,0:0:0:0:
161,198,99295,1,2,0:0:0:0:
375,19,99429,6,0,P|318:3|256:23,1,106.25,6|0,1:2|2:0,0:0:0:0:
167,65,99695,1,2,1:2:0:0:
433,107,99829,5,10,1:2:0:0:
70,197,100095,1,10,1:2:0:0:
503,325,100362,6,0,P|440:356|363:248,1,212.5,14|2,1:2|1:2,0:0:0:0:
343,348,100762,2,0,P|282:373|239:348,1,106.25,10|10,0:0|0:0,0:0:0:0:
164,306,100962,1,10,0:0:0:0:
164,306,101029,2,0,L|155:380,1,53.125,2|0,1:2|0:0,0:0:0:0:
52,293,101162,2,0,L|43:219,1,53.125,2|0,1:2|0:0,0:0:0:0:
153,89,101295,1,10,0:0:0:0:
192,54,101361,1,10,0:0:0:0:
243,40,101428,1,2,0:0:0:0:
295,50,101495,1,2,0:0:0:0:
337,82,101562,6,0,P|357:138|304:254,1,187.000005706787,6|10,1:2|0:0,0:0:0:0:
197,241,101962,1,0,0:0:0:0:
388,179,102095,2,0,P|373:236|266:304,1,187.000005706787,2|10,1:2|0:0,0:0:0:0:
183,235,102495,1,0,0:0:0:0:
341,332,102629,6,0,P|285:352|246:350,1,93.5000028533936,2|0,1:2|0:0,0:0:0:0:
264,151,102895,2,0,P|221:133|174:131,1,93.5000028533936,10|0,0:0|0:0,0:0:0:0:
7,282,103162,2,0,P|63:302|102:300,1,93.5000028533936,2|0,1:2|0:0,0:0:0:0:
110,72,103429,2,0,P|152:54|199:52,1,93.5000028533936,10|0,0:0|0:0,0:0:0:0:
494,311,103695,6,0,L|395:311,1,93.5000028533936,6|0,1:2|0:0,0:0:0:0:
356,210,103962,2,0,L|455:210,1,93.5000028533936,10|0,0:0|0:0,0:0:0:0:
266,343,104229,2,0,L|167:343,1,93.5000028533936,2|0,1:2|0:0,0:0:0:0:
71,151,104495,2,0,L|170:151,1,93.5000028533936,10|0,0:0|0:0,0:0:0:0:
33,344,104762,6,0,P|20:283|33:247,1,93.5000028533936,2|0,1:2|2:0,0:0:0:0:
160,61,105029,2,0,P|173:122|160:158,1,93.5000028533936,10|0,0:0|2:0,0:0:0:0:
61,51,105295,1,2,1:2:0:0:
222,1,105429,1,0,0:0:0:0:
297,142,105562,1,10,0:0:0:0:
160,61,105696,1,0,0:0:0:0:
409,3,105829,6,0,P|433:66|416:148,1,140.25000428009,6|0,1:2|2:0,0:0:0:0:
399,153,106095,2,0,P|411:95|404:51,1,93.5000028533936,10|0,0:0|0:0,0:0:0:0:
174,298,106362,2,0,P|150:235|167:153,1,140.25000428009,2|0,1:2|2:0,0:0:0:0:
176,140,106629,1,10,0:0:0:0:
308,281,106762,6,0,P|255:266|343:201,1,233.750007133484,6|0,1:2|2:0,0:0:0:0:
352,213,107162,2,0,L|451:213,1,93.5000028533936,10|0,0:0|0:0,0:0:0:0:
501,105,107429,2,0,L|402:105,1,93.5000028533936,2|0,1:2|0:0,0:0:0:0:
337,4,107695,2,0,L|436:4,1,93.5000028533936,10|0,0:0|0:0,0:0:0:0:
276,82,107962,6,0,P|229:117|99:77,1,187.000005706787,6|10,1:2|0:0,0:0:0:0:
188,12,108362,1,0,0:0:0:0:
287,187,108495,2,0,L|287:299,1,93.5000028533936,2|0,1:2|0:0,0:0:0:0:
207,373,108762,1,10,0:0:0:0:
16,248,108895,6,0,B|132:216|82:298|209:266,1,187.000005706787,6|2,1:2|0:0,0:0:0:0:
166,89,109295,2,0,P|150:149|161:180,1,93.5000028533936,10|2,0:0|0:0,0:0:0:0:
361,45,109562,1,2,1:2:0:0:
121,2,109695,1,2,0:0:0:0:
261,150,109829,1,10,0:0:0:0:
300,175,109895,1,0,0:0:0:0:
345,187,109962,1,10,0:0:0:0:
391,185,110029,1,0,0:0:0:0:
435,169,110095,6,0,P|389:154|338:171,1,93.5000028533936,6|0,1:2|2:0,0:0:0:0:
273,325,110362,2,0,P|319:340|370:323,1,93.5000028533936,10|0,0:0|0:0,0:0:0:0:
194,173,110629,2,0,L|174:287,1,93.5000028533936,2|0,1:2|2:0,0:0:0:0:
20,73,110895,1,10,0:0:0:0:
66,217,111029,1,0,0:0:0:0:
176,19,111162,6,0,L|285:22,1,93.5000028533936,2|0,1:2|0:0,0:0:0:0:
347,115,111429,2,0,L|238:112,1,93.5000028533936,10|0,0:0|0:0,0:0:0:0:
220,311,111695,2,0,L|329:308,1,93.5000028533936,2|0,1:2|0:0,0:0:0:0:
391,215,111962,2,0,L|282:218,1,93.5000028533936,10|0,0:0|0:0,0:0:0:0:
487,361,112229,6,0,P|493:310|489:265,1,93.5000028533936,6|0,1:2|0:0,0:0:0:0:
393,122,112495,2,0,P|387:173|391:218,1,93.5000028533936,10|0,0:0|0:0,0:0:0:0:
291,376,112762,2,0,P|297:325|293:280,1,93.5000028533936,2|0,1:2|0:0,0:0:0:0:
179,64,113029,2,0,P|173:115|177:160,1,93.5000028533936,10|0,0:0|0:0,0:0:0:0:
20,365,113295,6,0,L|139:364,1,93.5000028533936,2|0,1:2|0:0,0:0:0:0:
269,156,113562,2,0,L|150:157,1,93.5000028533936,10|0,0:0|0:0,0:0:0:0:
391,297,113829,1,2,1:2:0:0:
260,60,113962,1,0,0:0:0:0:
225,319,114095,1,10,0:0:0:0:
372,84,114229,1,10,0:0:0:0:
475,330,114362,6,0,P|386:384|308:331,1,203.999993774414,6|2,1:2|0:0,0:0:0:0:
283,216,115162,1,0,0:0:0:0:
477,39,115429,2,0,L|490:160,1,101.999996887207,6|2,1:2|0:0,0:0:0:0:
379,90,115962,2,0,L|392:211,1,101.999996887207,2|2,0:0|0:0,0:0:0:0:
268,38,116362,1,0,0:0:0:0:
268,38,116429,1,2,0:0:0:0:
268,38,116495,6,0,P|213:29|161:31,1,85,6|0,1:2|0:0,0:0:0:0:
212,190,116762,2,0,P|157:199|105:197,1,85,10|2,0:0|0:0,0:0:0:0:
74,80,117029,1,2,1:2:0:0:
16,328,117162,1,2,1:2:0:0:
167,98,117295,1,10,0:0:0:0:
205,288,117429,1,2,0:0:0:0:
302,129,117562,6,0,L|396:127,1,85,2|0,1:2|0:0,0:0:0:0:
481,270,117829,2,0,L|387:272,1,85,10|0,0:0|0:0,0:0:0:0:
277,213,118095,1,2,1:2:0:0:
481,134,118229,1,2,1:2:0:0:
268,35,118362,1,10,0:0:0:0:
396,271,118495,1,2,0:0:0:0:
204,82,118629,6,0,P|155:72|108:92,1,85,6|2,1:2|0:0,0:0:0:0:
95,102,118829,1,2,0:0:0:0:
95,102,118895,2,0,L|92:161,1,42.5,10|2,0:0|0:0,0:0:0:0:
274,255,119029,2,0,L|277:196,1,42.5,2|2,0:0|0:0,0:0:0:0:
47,319,119162,1,2,1:2:0:0:
78,290,119228,1,2,0:0:0:0:
118,279,119295,1,2,0:0:0:0:
160,286,119362,1,2,0:0:0:0:
194,310,119429,1,10,0:0:0:0:
224,339,119495,1,2,0:0:0:0:
264,353,119562,1,2,0:0:0:0:
306,349,119629,1,2,0:0:0:0:
342,328,119695,6,0,P|387:318|442:340,1,85,2|2,1:2|0:0,0:0:0:0:
507,197,119962,2,0,P|462:186|407:208,1,85,10|2,0:0|1:2,0:0:0:0:
398,217,120162,1,2,1:2:0:0:
398,217,120229,2,0,L|388:116,1,85,2|2,1:2|1:2,0:0:0:0:
267,36,120495,2,0,L|277:137,1,85,10|2,0:0|0:0,0:0:0:0:
136,227,120762,6,0,P|83:213|67:134,1,127.5,6|0,1:2|2:0,0:0:0:0:
74,116,121029,2,0,L|175:110,1,85,10|2,0:0|0:0,0:0:0:0:
289,193,121295,1,2,1:2:0:0:
116,324,121429,2,0,L|217:318,1,85,2|10,1:2|0:0,0:0:0:0:
425,240,121695,6,0,P|330:205|278:254,1,170,2|0,0:0|0:0,0:0:0:0:
486,310,122095,2,0,P|512:262|508:212,1,85,10|2,0:0|0:0,0:0:0:0:
448,75,122362,1,2,1:2:0:0:
350,192,122495,1,2,1:2:0:0:
249,25,122629,2,0,L|358:25,1,85,10|2,0:0|0:0,0:0:0:0:
224,115,122895,5,6,1:2:0:0:
190,131,122983,1,2,0:0:0:0:
153,133,123072,1,2,0:0:0:0:
118,120,123162,2,0,L|114:49,2,56.6666666666667,10|2|2,1:2|0:0|0:0,0:0:0:0:
91,157,123429,5,2,1:2:0:0:
94,213,123517,1,2,0:0:0:0:
97,270,123606,1,2,0:0:0:0:
104,326,123695,2,0,L|42:337,2,56.6666666666667,10|2|2,0:0|0:0|0:0,0:0:0:0:
152,294,123962,5,2,1:2:0:0:
184,275,124050,1,2,0:0:0:0:
221,273,124139,1,2,0:0:0:0:
256,288,124229,2,0,L|262:364,2,56.6666666666667,10|2|2,0:0|0:0|0:0,0:0:0:0:
305,182,124495,2,0,P|353:166|404:188,1,85,2|2,1:2|1:2,0:0:0:0:
472,294,124762,2,0,P|424:310|373:288,1,85,10|0,0:0|0:0,0:0:0:0:
238,58,125029,6,0,P|182:32|76:77,1,170,6|10,1:2|0:0,0:0:0:0:
23,160,125429,1,0,0:0:0:0:
176,224,125562,2,0,L|165:125,1,85,2|2,1:2|1:2,0:0:0:0:
261,236,125829,2,0,L|250:137,1,85,10|0,0:0|0:0,0:0:0:0:
58,327,126095,6,0,P|108:364|206:306,1,170,2|10,1:2|0:0,0:0:0:0:
261,236,126495,1,0,0:0:0:0:
401,346,126629,2,0,L|297:340,1,85,2|2,1:2|1:2,0:0:0:0:
499,219,126895,2,0,L|395:225,1,85,10|0,0:0|0:0,0:0:0:0:
218,28,127162,6,0,P|272:19|323:36,1,85,6|0,1:2|0:0,0:0:0:0:
179,182,127429,2,0,P|125:191|74:174,1,85,10|0,0:0|0:0,0:0:0:0:
263,118,127695,2,0,P|317:109|368:126,1,85,2|2,1:2|1:2,0:0:0:0:
126,266,127962,2,0,P|72:275|21:258,1,85,10|2,0:0|1:2,0:0:0:0:
305,209,128229,6,0,P|305:287|218:271,1,170,2|10,1:2|0:0,0:0:0:0:
345,115,128629,1,0,0:0:0:0:
345,115,128695,1,0,0:0:0:0:
345,115,128762,1,2,1:2:0:0:
460,327,128895,1,2,1:2:0:0:
495,71,129029,1,10,0:0:0:0:
412,253,129162,1,2,1:2:0:0:
269,50,129295,6,0,L|155:47,1,85,6|0,1:2|0:0,0:0:0:0:
29,220,129562,2,0,L|143:223,1,85,10|0,0:0|0:0,0:0:0:0:
235,230,129829,1,2,1:2:0:0:
64,312,129962,2,0,L|178:315,1,85,2|10,1:2|0:0,0:0:0:0:
318,321,130229,6,0,B|278:270|278:270|288:142,1,170,2|2,1:2|1:2,0:0:0:0:
392,242,130629,2,0,L|400:139,1,85,10|2,0:0|0:0,0:0:0:0:
222,26,130895,2,0,L|213:128,1,85,2|2,1:2|0:0,0:0:0:0:
112,19,131162,2,0,L|103:121,1,85,10|2,0:0|0:0,0:0:0:0:
79,324,131429,5,6,1:2:0:0:
214,130,131562,1,0,0:0:0:0:
227,365,131695,1,10,0:0:0:0:
73,180,131829,1,2,0:0:0:0:
312,235,131962,1,2,1:2:0:0:
79,324,132095,1,2,0:0:0:0:
381,354,132229,1,10,0:0:0:0:
190,248,132362,1,6,1:2:0:0:
256,192,132429,12,0,133429,0:0:0:0:
467,49,133562,6,0,L|474:125,1,63.7500024318696,6|0,1:2|0:0,0:0:0:0:
490,120,133829,2,0,L|483:44,1,63.7500024318696,2|0,1:2|0:0,0:0:0:0:
381,99,134095,2,0,L|388:175,3,63.7500024318696,2|2|2|2,1:2|0:0|1:2|0:0,0:0:0:0:
211,136,134629,2,0,L|218:60,1,63.7500024318696,2|2,1:2|0:0,0:0:0:0:
236,64,134895,2,0,L|229:140,1,63.7500024318696,2|2,1:2|0:0,0:0:0:0:
125,86,135162,2,0,L|132:10,3,63.7500024318696,2|0|2|2,1:2|0:0|1:2|0:0,0:0:0:0:
120,260,135695,6,0,L|36:252,1,63.7500024318696,2|0,1:2|0:0,0:0:0:0:
43,236,135962,2,0,L|127:244,1,63.7500024318696,2|2,1:2|0:0,0:0:0:0:
149,354,136229,2,0,L|65:346,3,63.7500024318696,2|2|2|2,1:2|0:0|1:2|0:0,0:0:0:0:
295,183,136762,2,0,L|379:175,1,63.7500024318696,2|0,1:2|0:0,0:0:0:0:
363,162,137029,2,0,L|300:169,1,63.7500024318696,2|0,1:2|0:0,0:0:0:0:
266,277,137296,2,0,L|350:269,3,63.7500024318696,2|0|2|8,1:2|0:0|1:2|0:0,0:0:0:0:
148,75,137829,6,0,P|135:115|144:150,1,63.7500024318696,6|0,1:2|2:0,0:0:0:0:
263,77,138095,2,0,P|276:117|267:152,1,63.7500024318696,2|0,1:2|0:0,0:0:0:0:
171,237,138362,2,0,L|96:233,1,63.7500024318696,2|2,1:2|0:0,0:0:0:0:
221,321,138629,2,0,L|296:317,1,63.7500024318696,2|2,1:2|0:0,0:0:0:0:
449,214,138895,6,0,L|374:218,1,63.7500024318696,2|0,1:2|0:0,0:0:0:0:
274,229,139162,1,2,1:2:0:0:
274,229,139295,1,2,0:0:0:0:
485,122,139429,2,0,L|410:126,1,63.7500024318696,2|0,1:2|0:0,0:0:0:0:
298,130,139695,1,2,1:2:0:0:
437,300,139829,1,2,0:0:0:0:
362,27,139962,5,2,1:2:0:0:
183,47,141029,6,0,L|56:47,1,127.500004863739,10|2,0:0|1:2,0:0:0:0:
149,127,141429,2,0,L|22:127,1,127.500004863739,2|2,1:2|1:2,0:0:0:0:
21,127,141829,1,10,0:0:0:0:
21,127,141962,1,2,1:2:0:0:
118,325,142095,6,0,P|175:343|239:317,1,114.750000437737,6|0,1:2|0:0,0:0:0:0:
344,175,142362,2,0,P|287:157|223:183,1,114.750000437737,10|2,0:0|0:0,0:0:0:0:
118,325,142629,1,2,1:2:0:0:
404,239,142762,1,2,1:2:0:0:
108,171,142895,1,10,0:0:0:0:
347,325,143029,1,2,0:0:0:0:
254,38,143162,5,2,1:2:0:0:
167,252,143295,1,2,0:0:0:0:
20,11,143429,2,0,L|148:7,1,114.750000437737,10|0,0:0|0:0,0:0:0:0:
222,167,143695,2,0,L|94:171,1,114.750000437737,2|2,1:2|1:2,0:0:0:0:
254,38,143962,1,10,0:0:0:0:
319,227,144095,1,2,0:0:0:0:
463,35,144229,6,0,P|475:97|473:156,1,114.750000437737,6|0,1:2|0:0,0:0:0:0:
243,250,144495,1,10,0:0:0:0:
363,31,144629,1,2,0:0:0:0:
363,31,144695,1,0,0:0:0:0:
363,31,144762,2,0,P|375:93|373:152,1,114.750000437737,2|2,1:2|0:0,0:0:0:0:
191,317,145029,1,10,0:0:0:0:
408,252,145162,1,2,0:0:0:0:
253,110,145295,6,0,L|132:121,1,114.750000437737,2|2,1:2|0:0,0:0:0:0:
76,327,145562,2,0,L|197:316,1,114.750000437737,10|0,0:0|0:0,0:0:0:0:
319,227,145829,1,2,1:2:0:0:
158,39,145962,1,2,1:2:0:0:
219,296,146095,1,10,0:0:0:0:
306,55,146229,1,2,0:0:0:0:
447,308,146362,6,0,P|383:319|331:305,1,114.750000437737,6|0,1:2|0:0,0:0:0:0:
384,111,146629,2,0,P|447:99|500:114,1,114.750000437737,10|2,0:0|0:0,0:0:0:0:
335,307,146895,1,2,1:2:0:0:
219,91,147029,1,2,1:2:0:0:
204,369,147162,1,10,0:0:0:0:
318,169,147295,1,2,0:0:0:0:
63,259,147429,5,2,1:2:0:0:
335,307,147562,1,0,0:0:0:0:
110,94,147695,2,0,B|168:73|168:73|232:95,1,114.750000437737,10|2,0:0|0:0,0:0:0:0:
155,200,147895,1,0,0:0:0:0:
155,200,147962,2,0,B|97:221|97:221|33:199,1,114.750000437737,2|2,1:2|1:2,0:0:0:0:
196,31,148229,1,10,0:0:0:0:
267,246,148362,1,2,0:0:0:0:
370,20,148495,6,0,L|491:13,1,114.750000437737,6|0,1:2|2:0,0:0:0:0:
321,116,148762,1,2,1:2:0:0:
492,307,148895,5,10,1:2:0:0:
273,6,149162,1,10,1:2:0:0:
78,329,149429,6,0,B|209:358|184:258|306:281,1,229.500000875473,14|2,1:2|1:2,0:0:0:0:
125,234,149829,2,0,P|107:172|122:117,1,114.750000437737,10|0,0:0|0:0,0:0:0:0:
174,57,150029,1,0,0:0:0:0:
174,57,150095,2,0,L|249:57,1,57.3750002188683,2|0,1:2|0:0,0:0:0:0:
279,179,150229,2,0,L|204:179,1,57.3750002188683
465,77,150362,1,10,0:0:0:0:
467,134,150428,1,10,0:0:0:0:
470,191,150495,1,2,0:0:0:0:
473,248,150561,1,2,0:0:0:0:
476,306,150629,6,0,P|393:332|277:299,1,195.500003728867,6|10,1:2|0:0,0:0:0:0:
204,219,151029,1,0,0:0:0:0:
425,378,151162,2,0,P|338:372|241:300,1,195.500003728867,2|10,1:2|0:0,0:0:0:0:
201,197,151562,1,0,0:0:0:0:
297,381,151695,6,0,P|236:354|219:312,1,97.7500018644333,2|0,1:2|0:0,0:0:0:0:
415,199,151962,2,0,P|386:160|340:147,1,97.7500018644333,10|0,0:0|0:0,0:0:0:0:
127,335,152229,2,0,P|121:268|149:233,1,97.7500018644333,2|0,1:2|0:0,0:0:0:0:
373,65,152495,2,0,P|325:56|282:77,1,97.7500018644333,10|0,0:0|0:0,0:0:0:0:
374,289,152762,6,0,L|491:288,1,97.7500018644333,6|0,1:2|0:0,0:0:0:0:
511,157,153029,2,0,L|394:158,1,97.7500018644333,10|0,0:0|0:0,0:0:0:0:
226,362,153295,2,0,L|343:361,1,97.7500018644333,2|0,1:2|0:0,0:0:0:0:
305,110,153562,2,0,L|188:111,1,97.7500018644333,10|0,0:0|0:0,0:0:0:0:
30,199,153829,6,0,P|21:265|40:307,1,97.7500018644333,2|0,1:2|2:0,0:0:0:0:
207,110,154095,2,0,P|216:44|197:2,1,97.7500018644333,10|0,0:0|0:0,0:0:0:0:
6,99,154362,1,2,1:2:0:0:
190,22,154495,1,0,0:0:0:0:
128,224,154629,1,10,0:0:0:0:
69,45,154762,1,0,0:0:0:0:
227,242,154895,6,0,L|387:242,1,146.62500279665,6|0,1:2|2:0,0:0:0:0:
407,205,155162,2,0,L|301:205,1,97.7500018644333,10|0,0:0|0:0,0:0:0:0:
300,346,155429,2,0,L|460:346,1,146.62500279665,2|0,1:2|2:0,0:0:0:0:
484,323,155695,1,10,0:0:0:0:
459,112,155829,6,0,B|324:76|367:184|214:150,1,244.375004661083,6|0,1:2|2:0,0:0:0:0:
190,129,156229,2,0,L|80:120,1,97.7500018644333,10|0,0:0|0:0,0:0:0:0:
10,244,156495,2,0,L|120:235,1,97.7500018644333,2|0,1:2|0:0,0:0:0:0:
193,350,156762,2,0,L|83:341,1,97.7500018644333,10|0,0:0|0:0,0:0:0:0:
225,244,157029,6,0,P|306:202|398:257,1,195.500003728867,6|10,1:2|0:0,0:0:0:0:
431,352,157429,1,0,0:0:0:0:
225,244,157562,2,0,L|233:130,1,97.7500018644333,2|0,1:2|0:0,0:0:0:0:
245,34,157829,1,10,0:0:0:0:
504,101,157962,6,0,B|418:152|418:152|321:103,1,195.500003728867,6|2,1:2|0:0,0:0:0:0:
153,38,158362,2,0,B|201:18|201:18|254:36,1,97.7500018644333,10|2,0:0|0:0,0:0:0:0:
52,181,158629,1,2,1:2:0:0:
16,19,158762,1,2,0:0:0:0:
201,124,158895,1,10,0:0:0:0:
174,164,158961,1,0,0:0:0:0:
162,212,159028,1,10,0:0:0:0:
167,260,159094,1,0,0:0:0:0:
188,304,159162,6,0,L|299:304,1,97.7500018644333,6|0,1:2|2:0,0:0:0:0:
383,183,159429,2,0,L|272:183,1,97.7500018644333,10|0,0:0|0:0,0:0:0:0:
80,369,159695,2,0,P|67:303|88:255,1,97.7500018644333,2|0,1:2|0:0,0:0:0:0:
76,99,159962,1,10,0:0:0:0:
167,260,160095,1,0,0:0:0:0:
251,40,160229,6,0,B|280:17|280:17|371:19,1,97.7500018644333,2|0,1:2|0:0,0:0:0:0:
447,120,160495,2,0,B|418:143|418:143|327:141,1,97.7500018644333,10|0,0:0|0:0,0:0:0:0:
115,144,160762,2,0,B|144:121|144:121|235:123,1,97.7500018644333,2|0,1:2|0:0,0:0:0:0:
322,283,161028,2,0,B|293:306|293:306|202:304,1,97.7500018644333,10|0,0:0|0:0,0:0:0:0:
21,203,161295,6,0,L|13:79,1,97.7500018644333,6|0,1:2|2:0,0:0:0:0:
111,243,161562,2,0,L|119:367,1,97.7500018644333,10|0,0:0|2:0,0:0:0:0:
184,130,161829,2,0,L|176:6,1,97.7500018644333,2|0,1:2|2:0,0:0:0:0:
290,247,162095,2,0,L|298:371,1,97.7500018644333,10|0,0:0|2:0,0:0:0:0:
437,63,162362,6,0,P|373:49|326:69,1,97.7500018644333,2|0,1:2|0:0,0:0:0:0:
290,247,162629,2,0,P|354:261|401:241,1,97.7500018644333,10|0,0:0|0:0,0:0:0:0:
160,55,162895,1,2,1:2:0:0:
59,311,163029,1,0,0:0:0:0:
32,26,163162,1,10,0:0:0:0:
141,239,163295,1,10,0:0:0:0:
251,43,163429,6,0,B|331:48|371:8|371:8|412:48|494:47,1,255.000009727478,6|2,1:2|0:0,0:0:0:0:
319,149,164229,1,2,0:0:0:0:
480,327,164495,2,0,L|470:194,1,127.500004863739,6|2,1:2|0:0,0:0:0:0:
296,360,165029,2,0,L|306:227,1,127.500004863739,2|2,0:0|0:0,0:0:0:0:
210,32,165562,6,0,L|108:32,1,85,6|2,1:2|0:0,0:0:0:0:
63,137,165829,2,0,L|165:137,1,85,2|2,1:2|0:0,0:0:0:0:
196,250,166095,2,0,L|94:250,1,85,2|2,1:2|0:0,0:0:0:0:
308,88,166362,2,0,L|315:197,1,85,2|2,1:2|0:0,0:0:0:0:
321,283,166629,5,14,1:2:0:0:
