osu file format v14

[General]
AudioFilename: audio.mp3
AudioLeadIn: 0
PreviewTime:34780
Countdown: 0
SampleSet: Soft
StackLeniency: 0.7
Mode: 0
LetterboxInBreaks: 0
WidescreenStoryboard: 1

[Editor]
Bookmarks: 67379
DistanceSpacing: 0.6
BeatDivisor: 3
GridSize: 32
TimelineZoom: 1.9

[Metadata]
Title:Ego Rock long
TitleUnicode:エゴロック long
Artist:Three
ArtistUnicode:すりぃ
Creator:Nevo
Version:-White's Insane
Source:
Tags:Len Kagamine 鏡音レン vocaloid full version wanpachi cycopton Jonarwhal kyrian -white elcheer addy2607 gokugohan12468 KittyAdventure jrock j-rock japanese rock collage
BeatmapID:2693312
BeatmapSetID:1205168

[Difficulty]
HPDrainRate:5
CircleSize:4
OverallDifficulty:6
ApproachRate:9
SliderMultiplier:1.7
SliderTickRate:1

[Events]
//Background and Video events
0,0,"76261478_p0.jpg",0,0
//Break Periods
2,59095,66829
//Storyboard Layer 0 (Background)
//Storyboard Layer 1 (Fail)
//Storyboard Layer 2 (Pass)
//Storyboard Layer 3 (Foreground)
//Storyboard Layer 4 (Overlay)
//Storyboard Sound Samples

[TimingPoints]
-2971,266.666666666667,4,2,1,50,1,0
229,-166.666666666667,4,2,1,50,0,0
762,-90.909090909091,4,2,1,60,0,0
1228,-90.909090909091,4,2,1,5,0,0
1295,-100,4,2,1,70,0,0
18362,-133.333333333333,4,2,1,60,0,0
18495,-133.333333333333,4,2,1,5,0,0
18629,-133.333333333333,4,2,1,60,0,0
19562,-133.333333333333,4,2,1,5,0,0
19695,-133.333333333333,4,2,1,60,0,0
20628,-133.333333333333,4,2,1,5,0,0
20762,-133.333333333333,4,2,1,60,0,0
20895,-133.333333333333,4,2,1,5,0,0
21029,-133.333333333333,4,2,1,60,0,0
21695,-133.333333333333,4,2,1,5,0,0
21829,-133.333333333333,4,2,1,60,0,0
25829,-100,4,2,1,60,0,0
26895,-133.333333333333,4,2,1,65,0,0
28628,-133.333333333333,4,2,1,5,0,0
28762,-133.333333333333,4,2,1,65,0,0
30295,-133.333333333333,4,2,1,5,0,0
30362,-133.333333333333,4,2,1,65,0,0
32695,-133.333333333333,4,2,1,5,0,0
32762,-133.333333333333,4,2,1,65,0,0
32895,-133.333333333333,4,2,1,5,0,0
33029,-133.333333333333,4,2,1,65,0,0
33295,-105.263157894737,4,2,1,60,0,0
33829,-105.263157894737,4,2,1,70,0,0
34362,-105.263157894737,4,2,1,80,0,0
34629,-105.263157894737,4,2,1,90,0,0
34895,-181.818181818182,4,2,1,100,0,0
35429,-83.3333333333333,4,2,1,90,0,1
36961,-83.3333333333333,4,2,1,5,0,1
37029,-83.3333333333333,4,2,1,90,0,1
43962,-100,4,2,1,85,0,1
56762,-133.333333333333,4,2,1,75,0,0
58895,-133.333333333333,4,2,1,70,0,0
73695,-100,4,2,1,70,0,0
73828,-100,4,2,1,5,0,0
73962,-100,4,2,1,70,0,0
75962,-133.333333333333,4,2,1,60,0,0
76095,-133.333333333333,4,2,1,5,0,0
76229,-133.333333333333,4,2,1,60,0,0
77695,-133.333333333333,4,2,1,5,0,0
77829,-133.333333333333,4,2,1,60,0,0
78228,-133.333333333333,4,2,1,5,0,0
78362,-133.333333333333,4,2,1,60,0,0
78495,-133.333333333333,4,2,1,5,0,0
78629,-133.333333333333,4,2,1,60,0,0
80228,-133.333333333333,4,2,1,5,0,0
80362,-133.333333333333,4,2,1,60,0,0
81428,-133.333333333333,4,2,1,5,0,0
81562,-133.333333333333,4,2,1,60,0,0
83429,-100,4,2,1,60,0,0
83562,-100,4,2,1,5,0,0
83695,-100,4,2,1,60,0,0
84495,-133.333333333333,4,2,1,65,0,0
90895,-100,4,2,1,60,0,0
91429,-100,4,2,1,70,0,0
91962,-100,4,2,1,80,0,0
92229,-100,4,2,1,90,0,0
92495,-166.666666666667,4,2,1,100,0,0
93029,-79.9999999999999,4,2,1,90,0,1
94295,-79.9999999999999,4,2,1,5,0,1
94362,-79.9999999999999,4,2,1,90,0,1
94762,-79.9999999999999,4,2,1,5,0,1
94895,-79.9999999999999,4,2,1,90,0,1
99562,-79.9999999999999,4,2,1,5,0,1
99695,-79.9999999999999,4,2,1,90,0,1
101562,-90.9090909090909,4,2,1,85,0,1
105695,-90.9090909090909,4,2,1,5,0,1
105829,-90.9090909090909,4,2,1,85,0,1
106295,-90.9090909090909,4,2,1,5,0,1
106362,-90.9090909090909,4,2,1,85,0,1
106562,-90.9090909090909,4,2,1,5,0,1
106629,-90.9090909090909,4,2,1,85,0,1
108095,-90.9090909090909,4,2,1,5,0,1
108229,-90.9090909090909,4,2,1,85,0,1
110228,-90.9090909090909,4,2,1,5,0,1
110362,-90.9090909090909,4,2,1,85,0,1
110762,-90.9090909090909,4,2,1,5,0,1
110896,-90.9090909090909,4,2,1,85,0,1
114362,-133.333333333333,4,2,1,75,0,0
116495,-100,4,2,1,90,0,0
116695,-100,4,2,1,5,0,0
116762,-100,4,2,1,90,0,0
120562,-100,4,2,1,5,0,0
120629,-100,4,2,1,90,0,0
124895,-100,4,2,1,5,0,0
125029,-100,4,2,1,80,0,0
125229,-100,4,2,1,5,0,0
125295,-100,4,2,1,80,0,0
133562,-133.333333333333,4,2,1,75,0,0
133695,-133.333333333333,4,2,1,5,0,0
133829,-133.333333333333,4,2,1,75,0,0
135028,-133.333333333333,4,2,1,5,0,0
135162,-133.333333333333,4,2,1,75,0,0
135828,-133.333333333333,4,2,1,5,0,0
135962,-133.333333333333,4,2,1,75,0,0
136895,-133.333333333333,4,2,1,5,0,0
137029,-133.333333333333,4,2,1,75,0,0
137962,-133.333333333333,4,2,1,5,0,0
138095,-133.333333333333,4,2,1,75,0,0
142095,-80,4,2,1,90,0,1
150629,-86.9565217391304,4,2,1,85,0,1
153962,-86.9565217391304,4,2,1,5,0,1
154095,-86.9565217391304,4,2,1,85,0,1
161428,-86.9565217391304,4,2,1,5,0,1
161562,-86.9565217391304,4,2,1,85,0,1
161695,-86.9565217391304,4,2,1,5,0,1
161829,-86.9565217391304,4,2,1,85,0,1
161962,-86.9565217391304,4,2,1,5,0,1
162095,-86.9565217391304,4,2,1,85,0,1
162228,-86.9565217391304,4,2,1,5,0,1
162362,-86.9565217391304,4,2,1,85,0,1
162562,-86.9565217391304,4,2,1,5,0,1
162629,-86.9565217391304,4,2,1,85,0,1
163429,-133.333333333333,4,2,1,75,0,0
165562,-117.647058823529,4,2,1,100,0,0
165762,-117.647058823529,4,2,1,5,0,0
165829,-117.647058823529,4,2,1,100,0,0
166029,-117.647058823529,4,2,1,5,0,0
166095,-117.647058823529,4,2,1,100,0,0
166295,-117.647058823529,4,2,1,5,0,0
166362,-117.647058823529,4,2,1,100,0,0
166629,-95.2380952380951,4,2,1,100,0,0
166895,-95.2380952380951,4,2,1,5,0,0

[Colours]
Combo1 : 251,206,30
Combo2 : 255,128,64
Combo3 : 129,166,254

[HitObjects]
105,352,229,6,0,L|151:331,1,50.9999984436036,2|2,0:0|0:0,0:0:0:0:
102,265,495,2,0,L|148:244,1,50.9999984436036,2|2,0:0|0:0,0:0:0:0:
92,157,762,6,0,B|127:172|159:156|159:156|223:92|159:53|95:92|159:156|159:156|191:172|236:156,1,327.250009986878,2|0,0:0|2:0,0:0:0:0:
270,161,1295,6,0,P|240:196|224:260,1,85,6|0,1:2|0:0,0:0:0:0:
292,312,1562,1,8,0:0:0:0:
352,256,1695,2,0,P|325:237|297:228,2,42.5,2|2|2,1:2|1:2|1:2,0:0:0:0:
416,314,1962,2,0,P|432:275|435:232,1,85,2|10,1:2|0:0,0:0:0:0:
422,120,2229,5,2,1:2:0:0:
422,120,2495,1,2,1:2:0:0:
291,33,2762,5,2,0:0:0:0:
291,33,2829,1,0,0:0:0:0:
291,33,2895,1,2,1:2:0:0:
328,130,3029,1,2,1:2:0:0:
380,46,3162,1,10,0:0:0:0:
246,110,3295,1,2,0:0:0:0:
154,8,3429,6,0,P|170:46|173:89,1,85,2|2,1:2|0:0,0:0:0:0:
163,183,3695,1,10,0:0:0:0:
90,239,3829,2,0,L|107:277,2,42.5,2|2|2,1:2|1:2|1:2,0:0:0:0:
37,155,4095,2,0,L|70:48,1,85,2|10,1:2|0:0,0:0:0:0:
5,265,4362,5,2,1:2:0:0:
5,265,4629,1,2,1:2:0:0:
99,358,4896,5,2,0:0:0:0:
99,358,4963,1,0,0:0:0:0:
99,358,5029,1,2,1:2:0:0:
159,277,5163,1,2,1:2:0:0:
218,357,5296,1,10,0:0:0:0:
259,252,5429,1,2,0:0:0:0:
380,355,5562,6,0,P|364:317|361:274,1,85,6|0,1:2|0:0,0:0:0:0:
464,288,5829,1,8,0:0:0:0:
473,187,5962,2,0,L|477:139,2,42.5,2|2|2,1:2|1:2|1:2,0:0:0:0:
378,165,6229,2,0,L|385:80,1,85,2|10,1:2|0:0,0:0:0:0:
270,36,6495,5,2,1:2:0:0:
270,36,6762,1,2,1:2:0:0:
90,62,7029,5,2,0:0:0:0:
90,62,7096,1,2,0:0:0:0:
90,62,7162,1,2,1:2:0:0:
128,134,7295,1,2,1:2:0:0:
176,64,7429,1,10,0:0:0:0:
83,206,7562,1,2,0:0:0:0:
191,248,7695,6,0,B|224:225|224:225|268:227,1,85,6|2,1:2|0:0,0:0:0:0:
270,344,7962,2,0,B|237:367|237:367|193:365,1,85,10|0,0:0|0:0,0:0:0:0:
174,363,8162,1,0,0:0:0:0:
174,363,8229,1,2,1:2:0:0:
116,291,8362,1,2,1:2:0:0:
81,383,8495,1,10,0:0:0:0:
62,212,8629,1,2,1:2:0:0:
62,212,8762,6,0,P|72:170|94:135,1,85,0|2,0:0|1:2,0:0:0:0:
116,291,9029,2,0,P|75:302|33:301,1,85,10|2,0:0|1:2,0:0:0:0:
154,206,9295,5,10,0:0:0:0:
154,206,9429,1,2,1:2:0:0:
206,291,9562,2,0,P|197:332|174:367,2,85,10|10|6,0:0|0:0|1:2,0:0:0:0:
271,185,9962,6,0,L|309:165,1,42.5
334,156,10095,2,0,P|337:200|313:254,1,85,8|2,0:0|1:2,0:0:0:0:
294,271,10295,1,2,1:2:0:0:
294,271,10362,1,2,1:2:0:0:
412,274,10495,1,2,1:2:0:0:
412,274,10762,6,0,L|445:196,1,85,2|0,1:2|0:0,0:0:0:0:
334,156,11029,2,0,L|300:78,1,85,2|10,1:2|0:0,0:0:0:0:
410,48,11295,6,0,L|424:8,6,42.5,2|0|2|0|2|0|10,0:0|0:0|1:2|0:0|1:2|0:0|0:0,0:0:0:0:
325,0,11829,1,2,0:0:0:0:
221,22,11962,2,0,L|187:100,1,85,2|2,1:2|0:0,0:0:0:0:
79,103,12229,1,10,0:0:0:0:
79,103,12362,2,0,L|25:84,2,42.5,2|2|2,1:2|1:2|1:2,0:0:0:0:
32,200,12629,1,2,1:2:0:0:
205,376,12895,6,0,L|173:285,1,85,2|0,1:2|0:0,0:0:0:0:
277,189,13162,2,0,L|249:269,1,85,2|10,1:2|0:0,0:0:0:0:
330,356,13429,1,2,0:0:0:0:
330,356,13495,1,0,0:0:0:0:
330,356,13562,1,2,1:2:0:0:
434,291,13695,1,2,1:2:0:0:
421,383,13829,1,10,0:0:0:0:
351,266,13962,1,2,0:0:0:0:
468,201,14095,6,0,P|480:148|465:84,1,85,6|0,1:2|0:0,0:0:0:0:
391,149,14362,1,8,0:0:0:0:
404,61,14495,2,0,L|372:18,2,42.5,2|2|2,1:2|1:2|1:2,0:0:0:0:
489,31,14762,1,2,1:2:0:0:
280,29,15029,6,0,P|242:46|199:64,1,85,2|0,1:2|0:0,0:0:0:0:
258,199,15295,2,0,P|224:174|187:146,1,85,2|10,1:2|0:0,0:0:0:0:
137,292,15562,1,2,0:0:0:0:
137,292,15629,1,2,0:0:0:0:
137,292,15695,2,0,L|126:206,2,85,2|2|10,1:2|1:2|0:0,0:0:0:0:
223,339,16095,6,0,P|116:384|41:314,1,212.5,6|0,1:2|0:0,0:0:0:0:
23,333,16495,2,0,P|36:283|23:221,1,85,10|2,0:0|1:2,0:0:0:0:
35,153,16762,6,0,L|17:114,3,42.5,2|0|2|2,1:2|0:0|1:2|1:2,0:0:0:0:
127,148,17029,2,0,L|109:109,3,42.5,2|2|2|0,1:2|1:2|1:2|0:0,0:0:0:0:
211,180,17296,6,0,L|187:215,1,42.5,10|10,0:0|0:0,0:0:0:0:
282,144,17429,1,10,0:0:0:0:
282,144,17495,1,2,1:2:0:0:
282,144,17563,2,0,L|300:183,1,42.5,2|2,1:2|1:2,0:0:0:0:
359,79,17695,1,2,1:2:0:0:
359,79,17762,1,2,1:2:0:0:
359,79,17829,6,0,L|296:73,1,42.5,10|0,0:0|0:0,0:0:0:0:
243,38,17962,2,0,L|180:32,1,42.5,10|0,0:0|0:0,0:0:0:0:
307,321,18362,6,0,P|343:307|395:304,1,63.7500024318696,6|0,1:2|2:0,0:0:0:0:
454,322,18629,1,10,0:0:0:0:
454,322,18762,1,2,0:0:0:0:
510,242,18895,2,0,P|474:228|422:225,2,63.7500024318696,2|2|10,1:2|1:2|0:0,0:0:0:0:
401,80,19295,1,2,0:0:0:0:
401,80,19429,6,0,P|386:112|384:154,1,63.7500024318696,2|0,1:2|2:0,0:0:0:0:
297,176,19695,2,0,P|316:203|341:222,1,63.7500024318696,10|0,0:0|0:0,0:0:0:0:
266,319,19962,2,0,P|248:258|199:220,1,127.500004863739,2|10,1:2|0:0,0:0:0:0:
111,213,20362,1,0,0:0:0:0:
64,100,20495,6,0,P|97:94|148:101,1,63.7500024318696,2|0,1:2|2:0,0:0:0:0:
214,25,20762,2,0,P|211:64|226:105,1,63.7500024318696,10|0,0:0|2:0,0:0:0:0:
306,54,21029,1,2,1:2:0:0:
306,54,21162,1,2,1:2:0:0:
417,96,21295,2,0,P|381:112|353:146,1,63.7500024318696,10|2,0:0|0:0,0:0:0:0:
442,268,21562,2,0,P|432:237|413:212,1,63.7500024318696,2|0,1:2|2:0,0:0:0:0:
317,345,21829,6,0,L|317:297,1,31.8750012159348,10|0,0:0|0:0,0:0:0:0:
285,329,21962,2,0,L|285:281,1,31.8750012159348,2|0,1:2|0:0,0:0:0:0:
253,313,22095,1,2,1:2:0:0:
201,199,22229,6,0,L|201:247,1,31.8750012159348,2|0,1:2|0:0,0:0:0:0:
169,215,22362,2,0,L|169:263,1,31.8750012159348,10|0,0:0|0:0,0:0:0:0:
137,231,22495,6,0,L|137:151,1,63.7500024318696,6|0,1:2|0:0,0:0:0:0:
142,50,22762,1,2,1:2:0:0:
142,50,22895,2,0,P|178:68|225:67,1,63.7500024318696,10|2,0:0|0:0,0:0:0:0:
282,14,23162,1,2,1:2:0:0:
483,24,23429,5,10,0:0:0:0:
483,24,23562,1,2,1:2:0:0:
391,61,23695,2,0,L|382:135,1,63.7500024318696,2|2,1:2|0:0,0:0:0:0:
428,221,23962,2,0,P|458:191|469:150,1,63.7500024318696,10|2,0:0|0:0,0:0:0:0:
334,202,24229,1,2,1:2:0:0:
160,171,24495,5,10,0:0:0:0:
160,171,24629,1,2,0:0:0:0:
59,122,24762,2,0,P|48:165|69:233,1,95.6250036478044,2|0,1:2|0:0,0:0:0:0:
126,257,25029,1,10,0:0:0:0:
88,336,25162,1,2,0:0:0:0:
208,324,25295,6,0,P|205:355|192:384,1,63.7500024318696,2|2,1:2|1:2,0:0:0:0:
252,242,25562,2,0,P|278:260|296:285,1,63.7500024318696,10|0,0:0|0:0,0:0:0:0:
218,152,25829,2,0,B|273:140|318:168|318:168|294:138|300:102,1,170,14|14,1:2|1:2,0:0:0:0:
393,117,26229,1,0,0:0:0:0:
325,9,26362,1,14,1:2:0:0:
422,363,26629,6,0,P|460:337|418:353,1,127.5,2|0,0:0|0:0,0:0:0:0:
378,309,26895,6,0,P|397:268|400:230,1,63.7500024318696,6|2,1:2|0:0,0:0:0:0:
313,241,27162,2,0,P|297:212|291:181,1,63.7500024318696,10|2,0:0|0:0,0:0:0:0:
393,117,27429,2,0,P|386:148|371:176,1,63.7500024318696,2|2,1:2|1:2,0:0:0:0:
338,40,27695,1,10,0:0:0:0:
338,40,27829,1,2,0:0:0:0:
184,34,27962,5,2,1:2:0:0:
198,120,28095,1,2,0:0:0:0:
103,88,28229,2,0,L|89:12,1,63.7500024318696,10|0,0:0|0:0,0:0:0:0:
15,198,28495,2,0,L|29:122,1,63.7500024318696,2|0,1:2|2:0,0:0:0:0:
119,257,28762,5,10,0:0:0:0:
119,257,28895,1,2,0:0:0:0:
34,305,29029,2,0,P|75:343|148:351,1,127.500004863739,2|10,1:2|0:0,0:0:0:0:
252,274,29429,5,2,0:0:0:0:
252,274,29562,2,0,P|289:274|326:257,1,63.7500024318696,2|2,1:2|1:2,0:0:0:0:
351,339,29829,2,0,P|378:323|399:300,1,63.7500024318696,10|2,0:0|0:0,0:0:0:0:
486,270,30095,2,0,P|485:307|444:384,1,95.6250036478044,2|0,1:2|2:0,0:0:0:0:
454,241,30362,5,10,0:0:0:0:
379,169,30495,2,0,L|373:105,1,63.7500024318696,2|2,1:2|1:2,0:0:0:0:
451,51,30762,1,2,1:2:0:0:
451,51,30895,1,10,0:0:0:0:
322,13,31029,6,0,P|296:30|274:58,1,63.7500024318696,6|0,1:2|0:0,0:0:0:0:
269,165,31295,1,2,1:2:0:0:
269,165,31429,1,10,0:0:0:0:
179,108,31562,1,2,0:0:0:0:
177,212,31695,2,0,L|109:238,2,63.7500024318696,2|0|10,1:2|0:0|0:0,0:0:0:0:
52,139,32095,1,2,1:2:0:0:
9,25,32229,6,0,L|68:47,1,63.7500024318696,2|2,1:2|0:0,0:0:0:0:
165,14,32495,2,0,L|180:110,1,95.6250036478044,10|0,0:0|2:0,0:0:0:0:
190,139,32762,2,0,L|215:78,1,63.7500024318696,2|0,1:2|2:0,0:0:0:0:
368,82,33029,5,10,0:0:0:0:
368,82,33162,1,2,0:0:0:0:
464,114,33295,2,0,L|430:190,1,80.7499978437424,14|0,1:2|0:0,0:0:0:0:
262,270,33562,5,10,1:2:0:0:
314,177,33695,1,10,1:2:0:0:
335,333,33829,2,0,L|367:259,1,80.7499978437424,10|0,1:2|0:0,0:0:0:0:
190,199,34095,5,10,1:2:0:0:
123,301,34229,1,10,1:2:0:0:
43,130,34362,6,0,L|77:206,1,80.7499978437424,10|0,1:2|0:0,0:0:0:0:
136,126,34629,6,0,L|104:53,1,80.7499978437424,10|0,1:2|0:0,0:0:0:0:
193,0,34895,6,0,P|194:45|295:48,1,163.625004993439,10|0,1:2|0:0,0:0:0:0:
309,37,35429,6,0,P|355:71|437:75,1,101.999996887207,6|0,1:2|0:0,0:0:0:0:
508,158,35695,2,0,P|458:170|418:201,1,101.999996887207,10|2,0:0|0:0,0:0:0:0:
311,141,35962,1,2,1:2:0:0:
288,255,36095,1,2,1:2:0:0:
228,159,36229,2,0,P|191:193|170:240,1,101.999996887207,10|2,0:0|0:0,0:0:0:0:
193,56,36495,5,2,1:2:0:0:
33,48,36629,1,2,0:0:0:0:
142,125,36762,2,0,B|101:104|61:123|61:123|101:104|114:60,1,152.999995330811,10|0,0:0|2:0,0:0:0:0:
99,189,37029,2,0,P|85:228|79:290,1,101.999996887207,2|0,1:2|0:0,0:0:0:0:
260,326,37295,5,10,0:0:0:0:
260,326,37429,1,2,0:0:0:0:
260,326,37562,2,0,L|287:207,1,101.999996887207,6|0,1:2|0:0,0:0:0:0:
283,49,37829,2,0,L|310:168,1,101.999996887207,10|2,0:0|0:0,0:0:0:0:
363,244,38029,1,0,0:0:0:0:
363,244,38095,2,0,L|390:125,1,101.999996887207,2|0,1:2|0:0,0:0:0:0:
413,51,38362,1,10,0:0:0:0:
413,51,38495,1,2,0:0:0:0:
510,128,38629,6,0,L|487:227,1,101.999996887207,2|2,1:2|0:0,0:0:0:0:
462,352,38895,2,0,L|360:355,1,101.999996887207,10|0,0:0|0:0,0:0:0:0:
281,356,39095,1,0,0:0:0:0:
281,356,39162,2,0,L|303:256,1,101.999996887207,2|0,1:2|0:0,0:0:0:0:
237,183,39429,1,10,0:0:0:0:
237,183,39562,1,2,0:0:0:0:
138,241,39695,6,0,P|89:222|34:227,1,101.999996887207,6|0,1:2|0:0,0:0:0:0:
19,98,39962,2,0,P|68:117|123:112,1,101.999996887207,10|2,0:0|0:0,0:0:0:0:
186,79,40162,1,0,0:0:0:0:
186,79,40229,1,2,1:2:0:0:
151,3,40362,1,2,1:2:0:0:
270,81,40495,1,10,0:0:0:0:
315,0,40629,1,2,0:0:0:0:
369,115,40762,6,0,L|344:213,1,101.999996887207,2|0,1:2|0:0,0:0:0:0:
478,43,41029,2,0,L|453:141,1,101.999996887207,10|2,0:0|0:0,0:0:0:0:
487,314,41229,1,0,0:0:0:0:
487,314,41295,2,0,L|512:216,1,101.999996887207,2|2,1:2|1:2,0:0:0:0:
347,290,41562,5,10,0:0:0:0:
287,211,41695,1,2,0:0:0:0:
241,297,41829,2,0,P|204:331|156:347,1,101.999996887207,6|0,1:2|0:0,0:0:0:0:
30,345,42095,5,2,1:2:0:0:
30,345,42229,2,0,P|11:298|14:247,1,101.999996887207,10|0,1:2|0:0,0:0:0:0:
174,210,42495,2,0,P|142:249|97:272,1,101.999996887207,10|0,1:2|0:0,0:0:0:0:
81,173,42762,2,0,B|110:116|186:111|186:111|157:84|114:91,1,203.999993774414,14|2,1:2|1:2,0:0:0:0:
263,32,43162,5,10,0:0:0:0:
277,126,43295,2,0,L|330:111,2,50.9999984436036,0|10|2,0:0|0:0|1:2,0:0:0:0:
291,211,43562,2,0,L|241:224,2,50.9999984436036,0|0|10,0:0|0:0|0:0,0:0:0:0:
381,193,43829,1,2,0:0:0:0:
381,193,43895,1,2,0:0:0:0:
381,193,43962,6,0,P|448:136|358:21,1,255,6|0,1:2|0:0,0:0:0:0:
393,277,44495,2,0,P|454:177|367:100,1,255,2|0,1:2|0:0,0:0:0:0:
215,336,45029,2,0,L|298:318,1,85,2|0,1:2|0:0,0:0:0:0:
203,189,45295,2,0,L|286:206,1,85,10|0,0:0|0:0,0:0:0:0:
36,265,45562,2,0,L|119:247,1,85,2|0,1:2|0:0,0:0:0:0:
25,108,45828,2,0,L|108:125,1,85,10|0,0:0|0:0,0:0:0:0:
282,82,46095,6,0,P|246:99|200:103,1,85,6|0,1:2|0:0,0:0:0:0:
108,125,46362,2,0,P|111:82|129:44,1,85,10|0,0:0|0:0,0:0:0:0:
171,197,46629,2,0,P|133:215|91:219,1,85,2|0,1:2|0:0,0:0:0:0:
245,235,46895,2,0,P|283:252|325:256,1,85,10|0,0:0|0:0,0:0:0:0:
422,171,47162,6,0,P|447:252|422:332,2,170,2|10|2,1:2|0:0|1:2,0:0:0:0:
325,255,47829,1,0,0:0:0:0:
422,332,47962,2,0,P|464:328|502:311,1,85,10|0,0:0|0:0,0:0:0:0:
302,349,48229,6,0,B|174:284|178:407|54:333,1,255,6|0,1:2|0:0,0:0:0:0:
126,249,48762,2,0,B|171:217|226:220|226:220|171:202|149:159,1,170,2|10,1:2|0:0,0:0:0:0:
325,255,49162,2,0,P|318:173|253:123,1,170,6|0,1:2|0:0,0:0:0:0:
115,135,49562,6,0,L|140:28,1,85,10|0,0:0|0:0,0:0:0:0:
0,197,49829,2,0,L|25:90,1,85,2|0,1:2|0:0,0:0:0:0:
64,337,50095,2,0,L|84:255,1,85,10|0,0:0|0:0,0:0:0:0:
199,193,50362,2,0,L|179:275,1,85,6|0,1:2|0:0,0:0:0:0:
303,187,50629,6,0,L|315:228,3,42.5,10|0|0|0,0:0|0:0|0:0|0:0,0:0:0:0:
243,127,50895,2,0,L|225:62,3,42.5,2|0|0|0,1:2|0:0|0:0|0:0,0:0:0:0:
325,101,51162,2,0,L|343:36,3,42.5,10|0|6|0,0:0|0:0|1:2|0:0,0:0:0:0:
418,49,51429,1,2,0:0:0:0:
418,49,51562,1,2,0:0:0:0:
495,37,51695,1,10,0:0:0:0:
407,124,51829,1,2,0:0:0:0:
428,229,51962,6,0,L|510:210,1,85,2|2,1:2|0:0,0:0:0:0:
363,298,52229,2,0,L|281:279,1,85,10|10,0:0|0:0,0:0:0:0:
190,260,52429,1,10,0:0:0:0:
190,260,52495,6,0,L|209:178,1,85,6|0,1:2|0:0,0:0:0:0:
151,111,52762,1,10,0:0:0:0:
151,111,52895,1,0,0:0:0:0:
73,172,53029,6,0,L|54:90,1,85,2|0,1:2|0:0,0:0:0:0:
147,16,53296,1,10,0:0:0:0:
147,16,53429,1,0,0:0:0:0:
234,89,53562,6,0,P|275:100|316:90,1,85,2|0,1:2|0:0,0:0:0:0:
359,9,53829,2,0,P|319:-2|278:6,1,85,10|0,0:0|0:0,0:0:0:0:
366,165,54095,2,0,P|394:134|404:93,1,85,2|0,1:2|0:0,0:0:0:0:
275,193,54362,2,0,P|295:229|330:252,1,85,10|0,0:0|0:0,0:0:0:0:
432,334,54629,6,0,B|423:290|423:290|442:240,1,85,6|0,1:2|0:0,0:0:0:0:
512,194,54895,2,0,B|521:150|521:150|506:112,1,85,10|0,0:0|0:0,0:0:0:0:
404,26,55162,2,0,L|319:36,1,85,2|0,1:2|0:0,0:0:0:0:
229,131,55429,2,0,L|314:141,1,85,10|0,0:0|0:0,0:0:0:0:
219,24,55695,2,0,L|134:34,1,85,2|0,1:2|0:0,0:0:0:0:
25,101,55962,6,0,P|103:126|131:204,2,170,10|2|10,0:0|1:2|0:0,0:0:0:0:
80,276,56762,6,0,B|207:331|200:186|324:233,1,255.000009727478,6|2,1:2|0:0,0:0:0:0:
407,160,57562,1,0,0:0:0:0:
498,352,57829,2,0,P|515:292|490:235,1,127.500004863739,6|2,1:2|0:0,0:0:0:0:
258,372,58362,2,0,L|273:311,1,63.7500024318696,2|0,0:0|0:0,0:0:0:0:
356,249,58629,2,0,L|372:310,1,63.7500024318696,2|0,0:0|0:0,0:0:0:0:
321,138,58895,1,6,1:2:0:0:
163,195,67429,6,0,L|249:179,1,63.7500024318696,6|0,1:2|0:0,0:0:0:0:
323,254,67695,2,0,L|260:265,1,63.7500024318696,8|2,0:0|1:2,0:0:0:0:
176,284,67895,1,2,1:2:0:0:
176,284,67962,2,0,L|154:344,2,63.7500024318696,2|2|10,1:2|1:2|0:0,0:0:0:0:
72,237,68362,5,2,1:2:0:0:
72,237,68629,1,2,1:2:0:0:
91,80,68895,6,0,L|113:103,5,31.8750012159348,2|0|2|0|2|0,0:0|0:0|1:2|0:0|1:2|0:0,0:0:0:0:
130,120,69295,1,10,0:0:0:0:
206,176,69429,2,0,P|265:147|339:153,1,127.500004863739,2|2,0:0|0:0,0:0:0:0:
382,269,69829,6,0,L|396:190,1,63.7500024318696,10|2,0:0|1:2,0:0:0:0:
462,157,70029,1,2,1:2:0:0:
462,157,70095,2,0,L|473:219,2,63.7500024318696,2|2|10,1:2|1:2|0:0,0:0:0:0:
430,48,70495,5,2,1:2:0:0:
430,48,70762,1,2,1:2:0:0:
264,77,71029,5,2,0:0:0:0:
264,77,71095,1,0,0:0:0:0:
264,77,71162,1,2,1:2:0:0:
351,133,71295,1,2,1:2:0:0:
340,48,71429,1,10,0:0:0:0:
267,157,71562,1,2,0:0:0:0:
353,277,71695,6,0,P|362:231|357:199,1,63.7500024318696,6|0,1:2|0:0,0:0:0:0:
267,157,71962,2,0,P|235:156|204:164,1,63.7500024318696,8|2,0:0|1:2,0:0:0:0:
181,77,72162,1,2,1:2:0:0:
181,77,72229,2,0,L|163:16,2,63.7500024318696,2|2|10,1:2|1:2|0:0,0:0:0:0:
96,144,72629,5,2,1:2:0:0:
96,144,72895,1,2,1:2:0:0:
100,331,73162,5,2,0:0:0:0:
96,238,73295,1,2,1:2:0:0:
194,329,73429,1,2,1:2:0:0:
192,237,73562,1,10,0:0:0:0:
288,256,73695,6,0,P|340:235|393:240,1,85,6|0,1:2|2:0,0:0:0:0:
444,299,73962,5,2,1:2:0:0:
444,299,74029,1,0,0:0:0:0:
444,299,74095,2,0,L|426:350,3,42.5,10|0|2|0,0:0|0:0|1:2|0:0,0:0:0:0:
483,226,74362,2,0,L|518:267,3,42.5,2|2|2|2,1:2|1:2|1:2|1:2,0:0:0:0:
461,152,74628,2,0,L|514:142,3,42.5,2|2|2|2,1:2|1:2|1:2|1:2,0:0:0:0:
426,84,74895,6,0,L|444:33,1,42.5,10|10,0:0|0:0,0:0:0:0:
369,135,75029,1,10,0:0:0:0:
369,135,75096,1,2,1:2:0:0:
369,135,75162,2,0,L|333:93,1,42.5,2|2,1:2|1:2,0:0:0:0:
390,222,75295,1,2,1:2:0:0:
390,222,75362,1,2,1:2:0:0:
390,222,75428,6,0,L|336:231,1,42.5,10|0,0:0|0:0,0:0:0:0:
282,168,75562,2,0,L|241:161,1,42.5,10|0,0:0|0:0,0:0:0:0:
44,4,75962,6,0,P|74:14|98:35,1,63.7500024318696,6|0,1:2|2:0,0:0:0:0:
26,93,76229,1,10,0:0:0:0:
26,93,76362,1,2,0:0:0:0:
118,120,76495,2,0,P|142:141|173:151,2,63.7500024318696,2|2|10,1:2|1:2|0:0,0:0:0:0:
241,30,76895,1,2,0:0:0:0:
241,30,77029,6,0,P|211:40|187:61,1,63.7500024318696,2|0,1:2|0:0,0:0:0:0:
262,176,77295,2,0,P|268:144|262:114,1,63.7500024318696,10|0,0:0|0:0,0:0:0:0:
193,238,77562,2,0,L|177:307,1,63.7500024318696,2|0,1:2|2:0,0:0:0:0:
288,272,77829,1,10,0:0:0:0:
288,272,77962,1,2,0:0:0:0:
401,347,78095,6,0,B|383:313|383:313|384:288,1,63.7500024318696,2|0,1:2|2:0,0:0:0:0:
448,224,78362,2,0,B|466:190|466:190|466:165,1,63.7500024318696,10|0,0:0|2:0,0:0:0:0:
432,91,78629,1,2,1:2:0:0:
432,91,78762,1,2,1:2:0:0:
342,132,78895,2,0,L|279:140,1,63.7500024318696,10|2,0:0|0:0,0:0:0:0:
297,39,79162,2,0,L|360:31,1,63.7500024318696,2|0,1:2|0:0,0:0:0:0:
208,72,79429,6,0,B|160:76|160:76|129:94|129:94|81:99,1,127.500004863739,10|2,0:0|1:2,0:0:0:0:
87,185,79829,1,2,1:2:0:0:
0,142,79962,1,10,0:0:0:0:
12,254,80095,6,0,L|24:336,1,63.7500024318696,6|0,1:2|2:0,0:0:0:0:
114,355,80362,1,2,1:2:0:0:
114,355,80495,2,0,L|104:291,1,63.7500024318696,10|2,0:0|0:0,0:0:0:0:
195,222,80762,1,2,1:2:0:0:
191,310,80895,1,0,0:0:0:0:
282,272,81029,1,10,0:0:0:0:
282,272,81162,1,2,1:2:0:0:
262,157,81295,6,0,L|293:92,1,63.7500024318696,2|0,1:2|2:0,0:0:0:0:
390,16,81562,2,0,L|327:22,1,63.7500024318696,10|2,0:0|0:0,0:0:0:0:
447,116,81829,2,0,L|375:110,1,63.7500024318696,2|2,1:2|1:2,0:0:0:0:
470,205,82095,1,10,0:0:0:0:
470,205,82229,1,2,0:0:0:0:
392,330,82362,6,0,L|405:244,1,63.7500024318696,2|0,1:2|0:0,0:0:0:0:
337,200,82629,1,10,0:0:0:0:
337,200,82762,1,2,0:0:0:0:
248,266,82895,2,0,L|235:180,1,63.7500024318696,2|2,1:2|1:2,0:0:0:0:
146,125,83162,2,0,L|155:188,1,63.7500024318696,10|0,0:0|0:0,0:0:0:0:
272,84,83429,6,0,L|259:0,1,85,14|0,1:2|2:0,0:0:0:0:
388,120,83695,2,0,L|376:36,1,85,14|0,1:2|0:0,0:0:0:0:
489,150,83962,1,14,1:2:0:0:
313,261,84229,6,0,P|298:301|319:263,1,127.5,2|0,0:0|0:0,0:0:0:0:
222,206,84495,6,0,P|204:236|193:280,1,63.7500024318696,6|2,1:2|0:0,0:0:0:0:
134,332,84762,2,0,P|116:302|105:258,1,63.7500024318696,10|2,0:0|0:0,0:0:0:0:
116,173,85029,2,0,L|53:158,1,63.7500024318696,2|2,1:2|1:2,0:0:0:0:
3,86,85295,2,0,L|65:71,1,63.7500024318696,10|2,0:0|0:0,0:0:0:0:
178,46,85562,1,2,1:2:0:0:
178,46,85695,1,2,0:0:0:0:
262,84,85829,2,0,P|272:44|268:6,1,63.7500024318696,10|0,0:0|0:0,0:0:0:0:
193,134,86095,2,0,P|213:158|246:173,1,63.7500024318696,2|2,1:2|1:2,0:0:0:0:
277,307,86362,5,10,0:0:0:0:
277,307,86495,1,2,0:0:0:0:
327,373,86629,2,0,P|350:343|362:301,1,63.7500024318696,2|0,1:2|0:0,0:0:0:0:
339,217,86895,5,10,0:0:0:0:
339,217,87028,1,2,0:0:0:0:
394,144,87162,2,0,P|417:174|429:216,1,63.7500024318696,2|2,1:2|1:2,0:0:0:0:
332,77,87429,2,0,P|313:102|302:132,1,63.7500024318696,10|2,0:0|0:0,0:0:0:0:
489,116,87695,6,0,L|479:54,2,63.7500024318696,2|0|10,1:2|0:0|0:0,0:0:0:0:
394,144,88095,2,0,L|383:206,2,63.7500024318696,2|2|2,1:2|1:2|1:2,0:0:0:0:
302,132,88495,1,10,0:0:0:0:
232,213,88629,6,0,P|201:217|173:232,1,63.7500024318696,6|0,1:2|0:0,0:0:0:0:
154,342,88895,2,0,P|185:337|214:323,1,63.7500024318696,2|10,1:2|0:0,0:0:0:0:
79,278,89162,1,2,0:0:0:0:
79,278,89295,1,2,1:2:0:0:
17,209,89429,1,0,0:0:0:0:
17,209,89562,1,10,0:0:0:0:
99,171,89695,1,2,1:2:0:0:
99,171,89829,6,0,L|122:87,1,63.7500024318696,2|2,1:2|0:0,0:0:0:0:
200,20,90095,2,0,L|216:81,1,63.7500024318696,10|2,0:0|0:0,0:0:0:0:
334,41,90362,2,0,L|317:102,1,63.7500024318696,2|0,1:2|0:0,0:0:0:0:
380,274,90629,5,10,0:0:0:0:
340,186,90762,1,2,0:0:0:0:
431,115,90895,2,0,P|444:159|437:199,1,85,14|0,1:2|0:0,0:0:0:0:
208,206,91162,5,10,1:2:0:0:
280,116,91295,1,10,1:2:0:0:
278,261,91428,2,0,P|243:284|201:294,1,85,10|0,1:2|0:0,0:0:0:0:
35,113,91695,5,10,1:2:0:0:
166,116,91828,1,10,1:2:0:0:
82,201,91962,6,0,L|24:262,1,85,10|0,1:2|0:0,0:0:0:0:
166,116,92229,2,0,L|223:177,1,85,10|0,1:2|0:0,0:0:0:0:
108,0,92495,6,0,L|297:0,1,178.499994552612,10|0,1:2|0:0,0:0:0:0:
325,8,93029,6,0,B|325:65|325:65|373:104,1,106.25,6|0,1:2|0:0,0:0:0:0:
459,165,93295,2,0,B|459:222|459:222|411:261,1,106.25,10|2,0:0|0:0,0:0:0:0:
291,248,93562,1,2,1:2:0:0:
291,248,93695,1,2,1:2:0:0:
373,176,93829,1,10,0:0:0:0:
277,132,93962,1,2,0:0:0:0:
184,193,94095,6,0,B|209:244|191:287|191:287|155:276|107:285,1,159.375,2|0,1:2|2:0,0:0:0:0:
0,182,94362,2,0,P|62:207|114:200,1,106.25,10|0,0:0|0:0,0:0:0:0:
210,97,94562,1,0,0:0:0:0:
210,97,94629,2,0,P|157:98|109:120,1,106.25,2|0,1:2|2:0,0:0:0:0:
319,108,94895,5,10,0:0:0:0:
293,25,95029,1,2,0:0:0:0:
407,76,95162,2,0,P|408:135|359:197,1,106.25,6|0,1:2|0:0,0:0:0:0:
264,274,95429,5,10,0:0:0:0:
290,191,95563,1,2,0:0:0:0:
173,241,95696,2,0,P|171:293|194:340,1,106.25,2|2,1:2|0:0,0:0:0:0:
284,383,95962,1,10,0:0:0:0:
284,383,96095,1,2,0:0:0:0:
369,281,96229,6,0,L|236:271,1,106.25,2|2,1:2|0:0,0:0:0:0:
401,185,96495,2,0,L|534:175,1,106.25,10|0,0:0|0:0,0:0:0:0:
369,89,96695,1,0,0:0:0:0:
369,89,96762,2,0,L|130:71,1,212.5,2|10,1:2|0:0,0:0:0:0:
128,254,97162,5,2,0:0:0:0:
92,174,97295,2,0,P|148:170|210:198,1,106.25,6|0,1:2|0:0,0:0:0:0:
67,321,97562,2,0,P|116:338|169:333,1,106.25,10|2,0:0|0:0,0:0:0:0:
230,269,97762,1,0,0:0:0:0:
230,269,97829,1,2,1:2:0:0:
251,352,97962,1,2,1:2:0:0:
335,215,98095,1,10,0:0:0:0:
331,323,98229,1,2,0:0:0:0:
416,384,98362,6,0,P|433:334|432:282,1,106.25,2|0,1:2|0:0,0:0:0:0:
394,188,98629,2,0,P|446:187|496:204,1,106.25,10|2,0:0|0:0,0:0:0:0:
318,120,98895,2,0,P|265:121|215:104,1,106.25,2|2,1:2|1:2,0:0:0:0:
136,45,99162,5,10,0:0:0:0:
137,147,99295,1,2,0:0:0:0:
36,247,99429,2,0,L|35:140,1,106.25,6|0,1:2|2:0,0:0:0:0:
108,310,99695,1,2,1:2:0:0:
178,244,99829,5,10,1:2:0:0:
370,245,100095,1,10,1:2:0:0:
204,149,100362,2,0,B|258:167|276:222|276:222|294:167|348:150,1,212.5,14|2,1:2|1:2,0:0:0:0:
370,245,100762,5,10,0:0:0:0:
451,170,100895,2,0,L|494:130,2,53.125,10|10|2,0:0|0:0|1:2,0:0:0:0:
417,76,101162,2,0,L|460:36,2,53.125,2|0|10,1:2|0:0|0:0,0:0:0:0:
321,71,101429,1,2,0:0:0:0:
321,71,101495,1,2,0:0:0:0:
321,71,101562,6,0,B|225:34|230:122|140:93,1,187.000005706787,6|10,1:2|0:0,0:0:0:0:
172,14,101962,1,0,0:0:0:0:
282,157,102095,2,0,P|365:157|416:68,1,187.000005706787,2|10,1:2|0:0,0:0:0:0:
374,0,102495,1,0,0:0:0:0:
498,56,102629,6,0,L|516:173,1,93.5000028533936,2|0,1:2|0:0,0:0:0:0:
445,218,102895,2,0,L|463:335,1,93.5000028533936,10|0,0:0|0:0,0:0:0:0:
304,380,103162,2,0,L|318:287,1,93.5000028533936,2|0,1:2|0:0,0:0:0:0:
227,225,103429,2,0,L|241:132,1,93.5000028533936,10|0,0:0|0:0,0:0:0:0:
212,322,103695,6,0,L|119:336,1,93.5000028533936,6|0,1:2|0:0,0:0:0:0:
41,204,103962,2,0,L|133:189,1,93.5000028533936,10|0,0:0|0:0,0:0:0:0:
319,239,104229,6,0,L|226:224,1,93.5000028533936,2|0,1:2|0:0,0:0:0:0:
307,136,104496,2,0,L|399:150,1,93.5000028533936,10|0,0:0|0:0,0:0:0:0:
396,350,104762,2,0,L|211:321,2,187.000005706787,2|10|2,1:2|0:0|1:2,0:0:0:0:
430,254,105429,1,0,0:0:0:0:
512,223,105562,6,0,P|512:262|493:316,1,93.5000028533936,10|0,0:0|2:0,0:0:0:0:
512,116,105829,2,0,B|500:62|478:30|478:30|462:81|420:100|420:100|372:46|279:77,1,327.250009986878,6|0,1:2|2:0,0:0:0:0:
215,4,106362,2,0,P|189:74|224:161,1,140.25000428009,2|0,1:2|2:0,0:0:0:0:
214,151,106629,1,10,0:0:0:0:
104,122,106762,2,0,P|35:166|94:224,1,187.000005706787,6|0,1:2|0:0,0:0:0:0:
209,347,107162,6,0,L|192:256,1,93.5000028533936,10|0,0:0|0:0,0:0:0:0:
288,256,107429,2,0,L|288:160,1,93.5000028533936,2|0,1:2|0:0,0:0:0:0:
359,346,107695,2,0,L|383:256,1,93.5000028533936,10|0,0:0|0:0,0:0:0:0:
498,154,107962,2,0,L|474:244,1,93.5000028533936,6|0,1:2|2:0,0:0:0:0:
457,56,108229,6,0,L|502:44,3,46.7500014266968,10|0|0|0,0:0|0:0|0:0|0:0,0:0:0:0:
401,125,108495,2,0,L|388:170,3,46.7500014266968,2|0|0|0,1:2|0:0|0:0|0:0,0:0:0:0:
368,42,108762,2,0,L|335:8,3,46.7500014266968,10|0|6|0,0:0|0:0|1:2|0:0,0:0:0:0:
259,47,109029,1,0,0:0:0:0:
245,166,109162,1,2,0:0:0:0:
310,113,109295,1,10,0:0:0:0:
192,99,109429,1,2,0:0:0:0:
192,99,109495,1,0,0:0:0:0:
192,99,109562,6,0,L|87:76,1,93.5000028533936,2|2,1:2|0:0,0:0:0:0:
7,200,109829,2,0,L|112:177,1,93.5000028533936,10|10,0:0|0:0,0:0:0:0:
195,330,110095,6,0,P|203:281|193:237,1,93.5000028533936,6|0,1:2|2:0,0:0:0:0:
245,166,110362,1,10,0:0:0:0:
245,166,110495,1,0,0:0:0:0:
343,242,110629,6,0,P|335:193|344:149,1,93.5000028533936,2|0,1:2|2:0,0:0:0:0:
380,50,110896,1,10,0:0:0:0:
380,50,111029,1,0,0:0:0:0:
464,116,111162,6,0,P|472:161|464:207,1,93.5000028533936,2|0,1:2|0:0,0:0:0:0:
343,333,111429,2,0,P|334:287|342:241,1,93.5000028533936,10|0,0:0|0:0,0:0:0:0:
512,285,111695,2,0,P|466:293|420:285,1,93.5000028533936,2|0,1:2|0:0,0:0:0:0:
295,162,111962,2,0,P|340:153|386:162,1,93.5000028533936,10|0,0:0|0:0,0:0:0:0:
264,289,112229,6,0,P|219:298|173:289,1,93.5000028533936,6|0,1:2|0:0,0:0:0:0:
0,345,112495,2,0,P|45:354|91:345,1,93.5000028533936,10|0,0:0|0:0,0:0:0:0:
57,169,112762,6,0,L|86:259,1,93.5000028533936,2|0,1:2|0:0,0:0:0:0:
105,24,113029,1,10,0:0:0:0:
115,113,113162,1,0,0:0:0:0:
222,47,113295,2,0,L|193:136,1,93.5000028533936,2|0,1:2|0:0,0:0:0:0:
363,270,113562,6,0,P|298:204|329:94,2,187.000005706787,10|2|10,0:0|1:2|0:0,0:0:0:0:
360,40,114362,6,0,B|233:-15|240:130|116:83,1,255.000009727478,6|2,1:2|0:0,0:0:0:0:
41,188,115162,1,0,0:0:0:0:
115,299,115429,2,0,P|156:252|169:186,1,127.500004863739,6|2,1:2|0:0,0:0:0:0:
283,119,115962,2,0,L|306:191,1,63.7500024318696,2|0,0:0|0:0,0:0:0:0:
385,241,116229,2,0,L|404:180,1,63.7500024318696,2|0,0:0|0:0,0:0:0:0:
296,270,116429,5,2,0:0:0:0:
296,270,116495,2,0,P|344:329|424:329,1,127.5,6|0,1:2|2:0,0:0:0:0:
241,356,116762,2,0,P|190:350|132:355,1,85,10|2,0:0|0:0,0:0:0:0:
47,365,117029,1,2,1:2:0:0:
98,284,117162,1,2,1:2:0:0:
0,285,117295,1,10,0:0:0:0:
67,198,117429,2,0,P|102:192|149:203,1,85,2|2,0:0|1:2,0:0:0:0:
221,259,117695,1,0,0:0:0:0:
313,169,117829,6,0,P|277:174|230:163,1,85,10|0,0:0|0:0,0:0:0:0:
208,134,118029,1,0,0:0:0:0:
208,134,118095,2,0,L|172:53,1,85,2|2,1:2|1:2,0:0:0:0:
60,30,118362,1,10,0:0:0:0:
38,121,118495,1,2,0:0:0:0:
280,88,118762,5,2,0:0:0:0:
280,88,118829,1,2,0:0:0:0:
280,88,118895,6,0,L|263:50,3,42.5,10|2|2|2,0:0|0:0|0:0|0:0,0:0:0:0:
359,68,119162,6,0,L|362:25,3,42.5,2|2|2|2,1:2|0:0|0:0|0:0,0:0:0:0:
432,111,119429,5,10,0:0:0:0:
432,111,119495,1,2,0:0:0:0:
432,111,119562,2,0,L|472:81,1,42.5,2|2,0:0|0:0,0:0:0:0:
345,170,119695,6,0,P|345:212|335:253,1,85,2|2,1:2|0:0,0:0:0:0:
256,377,119962,2,0,P|246:340|248:283,1,85,10|2,0:0|1:2,0:0:0:0:
257,204,120162,1,2,1:2:0:0:
257,204,120229,2,0,B|192:207|169:254|169:254|146:300|82:304,1,212.5,2|0,1:2|2:0,0:0:0:0:
3,283,120629,1,2,0:0:0:0:
3,283,120695,1,0,0:0:0:0:
3,283,120762,2,0,L|0:380,1,85,6|0,1:2|0:0,0:0:0:0:
88,209,121029,6,0,L|91:112,1,85,10|2,0:0|0:0,0:0:0:0:
137,51,121229,1,0,0:0:0:0:
137,51,121295,2,0,P|96:41|55:47,2,85,2|2|10,1:2|1:2|0:0,0:0:0:0:
197,163,121695,6,0,P|238:168|279:158,1,85,2|2,0:0|1:2,0:0:0:0:
354,95,121962,1,0,0:0:0:0:
390,177,122095,1,10,0:0:0:0:
434,262,122229,6,0,L|457:308,1,42.5,2|0,0:0|0:0,0:0:0:0:
469,327,122362,1,2,1:2:0:0:
503,211,122495,6,0,L|483:172,1,42.5,2|0,1:2|0:0,0:0:0:0:
507,167,122629,2,0,L|468:90,1,85,10|2,0:0|0:0,0:0:0:0:
391,52,122895,5,6,1:2:0:0:
391,52,122984,1,2,0:0:0:0:
391,52,123073,2,0,L|353:94,1,56.6666666666667,2|10,0:0|1:2,0:0:0:0:
270,78,123251,1,2,0:0:0:0:
270,78,123340,1,2,0:0:0:0:
270,78,123429,6,0,L|229:124,2,56.6666666666667,2|2|2,1:2|0:0|0:0,0:0:0:0:
301,164,123695,6,0,L|260:210,2,56.6666666666667,10|2|2,0:0|0:0|0:0,0:0:0:0:
138,160,123962,6,0,L|179:206,2,56.6666666666667,2|2|2,1:2|0:0|0:0,0:0:0:0:
107,246,124229,6,0,L|148:292,1,56.6666666666667,10|2,0:0|0:0,0:0:0:0:
55,178,124406,1,2,0:0:0:0:
55,178,124495,6,0,P|64:118|99:84,1,85,2|2,1:2|1:2,0:0:0:0:
225,273,124762,2,0,P|216:333|181:367,1,85,10|0,0:0|2:0,0:0:0:0:
347,256,125029,6,0,B|369:236|396:237|396:237|432:277|493:268,1,127.5,6|0,1:2|2:0,0:0:0:0:
467,178,125295,2,0,L|454:79,1,85,10|0,0:0|0:0,0:0:0:0:
316,29,125562,2,0,P|268:19|216:34,1,85,2|2,1:2|1:2,0:0:0:0:
181,146,125829,2,0,P|229:156|281:141,1,85,10|0,0:0|0:0,0:0:0:0:
79,81,126095,2,0,P|64:148|108:246,2,170,2|10|2,1:2|0:0|1:2,0:0:0:0:
181,146,126762,1,2,1:2:0:0:
101,239,126895,6,0,P|57:243|11:237,1,85,10|0,0:0|0:0,0:0:0:0:
184,306,127162,2,0,P|146:327|97:335,1,85,6|0,1:2|0:0,0:0:0:0:
187,217,127429,2,0,P|229:225|266:246,1,85,10|0,0:0|0:0,0:0:0:0:
353,345,127695,6,0,L|362:245,1,85,2|2,1:2|1:2,0:0:0:0:
410,145,127962,2,0,L|465:211,1,85,10|2,0:0|1:2,0:0:0:0:
280,146,128229,2,0,P|338:93|299:25,1,170,2|10,1:2|0:0,0:0:0:0:
192,32,128629,5,0,0:0:0:0:
192,32,128695,1,0,0:0:0:0:
192,32,128762,1,2,1:2:0:0:
143,102,128895,1,2,1:2:0:0:
56,102,129029,1,10,0:0:0:0:
99,26,129162,1,2,1:2:0:0:
99,177,129295,1,6,1:2:0:0:
99,177,129562,6,0,L|102:293,1,85,10|0,0:0|0:0,0:0:0:0:
265,332,129829,1,2,1:2:0:0:
197,275,129962,2,0,P|182:323|194:391,1,85,2|10,1:2|0:0,0:0:0:0:
374,268,130229,6,0,L|390:160,1,85,2|0,1:2|0:0,0:0:0:0:
435,88,130495,1,2,1:2:0:0:
435,88,130629,2,0,P|391:95|340:84,1,85,10|2,0:0|0:0,0:0:0:0:
235,28,130895,2,0,L|251:136,1,85,2|2,1:2|0:0,0:0:0:0:
127,64,131162,2,0,L|111:172,1,85,10|2,0:0|0:0,0:0:0:0:
98,284,131429,6,0,P|142:277|193:288,1,85,6|0,1:2|0:0,0:0:0:0:
291,324,131695,1,10,0:0:0:0:
256,243,131829,1,2,0:0:0:0:
400,171,131962,5,2,1:2:0:0:
339,250,132095,1,2,0:0:0:0:
304,64,132229,1,10,0:0:0:0:
303,152,132362,1,6,1:2:0:0:
256,192,132429,12,0,133429,0:0:0:0:
64,201,133562,6,0,P|99:210|132:205,1,63.7500024318696,6|0,1:2|2:0,0:0:0:0:
230,186,133829,2,0,L|213:249,1,63.7500024318696,2|0,1:2|0:0,0:0:0:0:
317,214,134095,1,2,1:2:0:0:
317,214,134229,1,2,0:0:0:0:
287,304,134362,2,0,P|322:308|353:302,1,63.7500024318696,2|2,1:2|0:0,0:0:0:0:
422,226,134629,5,2,1:2:0:0:
422,226,134762,1,2,0:0:0:0:
477,136,134895,2,0,L|500:195,1,63.7500024318696,2|0,1:2|2:0,0:0:0:0:
400,67,135162,1,2,1:2:0:0:
235,108,135429,6,0,P|245:78|247:46,1,63.7500024318696,2|2,1:2|0:0,0:0:0:0:
158,145,135695,1,2,1:2:0:0:
216,265,135962,5,2,1:2:0:0:
216,265,136095,1,2,0:0:0:0:
291,331,136229,2,0,P|301:301|303:269,1,63.7500024318696,2|2,1:2|0:0,0:0:0:0:
129,270,136495,2,0,P|130:301|141:331,1,63.7500024318696,2|2,1:2|0:0,0:0:0:0:
66,204,136762,6,0,L|66:124,1,63.7500024318696,2|0,1:2|2:0,0:0:0:0:
158,82,137029,2,0,L|158:146,1,63.7500024318696,2|0,1:2|0:0,0:0:0:0:
99,14,137295,2,0,P|158:-5|219:14,1,127.500004863739,2|2,1:2|1:2,0:0:0:0:
306,213,137829,6,0,P|342:217|380:207,1,63.7500024318696,6|0,1:2|2:0,0:0:0:0:
349,75,138095,2,0,L|332:141,1,63.7500024318696,2|0,1:2|0:0,0:0:0:0:
435,132,138362,1,2,1:2:0:0:
435,132,138495,1,2,0:0:0:0:
456,225,138629,2,0,P|441:258|413:286,1,63.7500024318696,2|2,1:2|0:0,0:0:0:0:
268,330,138895,6,0,P|304:334|342:324,1,63.7500024318696,2|0,1:2|0:0,0:0:0:0:
257,244,139162,1,2,1:2:0:0:
175,244,139295,1,2,0:0:0:0:
117,333,139429,2,0,P|153:337|191:327,1,63.7500024318696,2|0,1:2|0:0,0:0:0:0:
61,185,139695,6,0,L|70:247,1,63.7500024318696,2|2,1:2|0:0,0:0:0:0:
113,64,139962,1,2,1:2:0:0:
322,94,141029,5,10,0:0:0:0:
326,98,141162,1,2,1:2:0:0:
372,168,141295,1,2,1:2:0:0:
279,168,141428,1,2,1:2:0:0:
322,259,141562,5,2,1:2:0:0:
326,263,141695,1,2,1:2:0:0:
252,321,141829,1,10,0:0:0:0:
252,321,141962,1,2,1:2:0:0:
195,228,142095,6,0,P|154:274|146:338,1,106.25,6|0,1:2|0:0,0:0:0:0:
59,202,142362,2,0,P|20:160|8:105,1,106.25,10|2,0:0|0:0,0:0:0:0:
90,22,142629,1,2,1:2:0:0:
149,103,142762,1,2,1:2:0:0:
215,12,142895,2,0,P|254:52|265:108,1,106.25,10|2,0:0|0:0,0:0:0:0:
404,193,143162,6,0,L|289:209,1,106.25,2|2,1:2|0:0,0:0:0:0:
380,75,143429,2,0,L|493:59,1,106.25,10|0,0:0|0:0,0:0:0:0:
509,164,143629,1,0,0:0:0:0:
509,164,143695,2,0,L|493:277,1,106.25,2|2,1:2|1:2,0:0:0:0:
376,343,143962,5,10,0:0:0:0:
376,343,144095,1,2,0:0:0:0:
376,343,144229,2,0,P|313:313|263:313,1,106.25,6|0,1:2|0:0,0:0:0:0:
122,277,144495,2,0,P|178:272|220:233,1,106.25,10|2,0:0|0:0,0:0:0:0:
63,199,144695,1,0,0:0:0:0:
67,203,144762,2,0,P|34:243|30:296,1,106.25,2|2,1:2|0:0,0:0:0:0:
137,100,145029,1,10,0:0:0:0:
137,100,145162,1,2,0:0:0:0:
280,25,145295,6,0,P|257:72|260:124,1,106.25,2|2,1:2|0:0,0:0:0:0:
437,73,145562,2,0,P|385:96|330:90,1,106.25,10|0,0:0|0:0,0:0:0:0:
490,4,145762,1,0,0:0:0:0:
494,8,145829,2,0,P|518:61|501:135,1,106.25,2|2,1:2|1:2,0:0:0:0:
498,238,146095,1,10,0:0:0:0:
426,170,146229,1,2,0:0:0:0:
335,323,146362,6,0,P|345:272|329:222,1,106.25,6|0,1:2|0:0,0:0:0:0:
256,74,146629,2,0,P|240:140|264:199,1,106.25,10|2,0:0|0:0,0:0:0:0:
343,126,146895,1,2,1:2:0:0:
347,130,147029,1,2,1:2:0:0:
426,90,147162,1,10,0:0:0:0:
353,41,147295,1,2,0:0:0:0:
504,35,147429,6,0,B|518:90|518:90|504:147,1,106.25,2|0,1:2|0:0,0:0:0:0:
452,295,147695,2,0,B|451:236|451:236|423:187,1,106.25,10|2,0:0|0:0,0:0:0:0:
315,136,147962,2,0,P|255:126|196:86,1,106.25,2|2,1:2|1:2,0:0:0:0:
54,51,148229,5,10,0:0:0:0:
58,55,148362,1,2,0:0:0:0:
22,175,148495,5,6,1:2:0:0:
189,74,148762,1,2,1:2:0:0:
130,154,148895,5,10,1:2:0:0:
130,154,149162,5,10,1:2:0:0:
130,154,149429,6,0,B|238:211|235:101|335:133,1,212.5,14|2,1:2|1:2,0:0:0:0:
302,224,149829,1,10,0:0:0:0:
393,223,149962,2,0,L|473:225,2,53.125,0|0|2,0:0|0:0|1:2,0:0:0:0:
391,312,150229,2,0,L|333:310,2,53.125,0|0|10,0:0|0:0|0:0,0:0:0:0:
507,309,150495,1,2,0:0:0:0:
507,309,150562,1,2,0:0:0:0:
507,309,150629,6,0,P|534:223|472:124,1,195.500003728867,6|10,1:2|0:0,0:0:0:0:
470,124,151029,1,0,0:0:0:0:
386,201,151162,2,0,P|359:115|421:16,1,195.500003728867,2|10,1:2|0:0,0:0:0:0:
254,99,151562,1,0,0:0:0:0:
292,208,151695,6,0,L|194:207,1,97.7500018644333,2|0,1:2|0:0,0:0:0:0:
94,302,151962,2,0,L|191:301,1,97.7500018644333,10|0,0:0|0:0,0:0:0:0:
106,113,152229,2,0,L|106:210,1,97.7500018644333,2|0,1:2|0:0,0:0:0:0:
11,39,152495,2,0,L|11:136,1,97.7500018644333,10|0,0:0|0:0,0:0:0:0:
196,61,152762,6,0,P|156:27|107:15,1,97.7500018644333,6|0,1:2|0:0,0:0:0:0:
253,144,153029,2,0,P|287:104|299:55,1,97.7500018644333,10|0,0:0|0:0,0:0:0:0:
106,113,153295,2,0,P|119:160|151:196,1,97.7500018644333,2|0,1:2|0:0,0:0:0:0:
237,256,153562,2,0,P|201:288|156:304,1,97.7500018644333,10|0,0:0|0:0,0:0:0:0:
341,210,153829,2,0,P|376:177|421:161,1,97.7500018644333,2|0,1:2|2:0,0:0:0:0:
425,257,154095,6,0,P|446:268|462:286,3,48.8750009322167,10|0|0|0,0:0|0:0|0:0|0:0,0:0:0:0:
397,340,154362,2,0,P|410:360|415:384,3,48.8750009322167,2|0|0|0,1:2|0:0|0:0|0:0,0:0:0:0:
313,380,154629,2,0,P|308:331|323:285,1,97.7500018644333,10|0,0:0|0:0,0:0:0:0:
214,295,154895,6,0,B|160:300|143:356|143:356|126:296|54:289,1,195.500003728867,6|10,1:2|0:0,0:0:0:0:
61,374,155295,1,0,0:0:0:0:
8,247,155429,2,0,B|61:184|134:228|134:228|114:191|131:160,1,195.500003728867,2|10,1:2|0:0,0:0:0:0:
229,107,155829,2,0,P|157:45|65:66,1,195.500003728867,6|0,1:2|0:0,0:0:0:0:
223,192,156229,6,0,L|355:202,1,97.7500018644333,10|0,0:0|0:0,0:0:0:0:
419,295,156495,2,0,L|321:287,1,97.7500018644333,2|0,1:2|0:0,0:0:0:0:
382,130,156762,2,0,L|479:137,1,97.7500018644333,10|0,0:0|0:0,0:0:0:0:
349,39,157029,2,0,P|295:28|251:31,1,97.7500018644333,6|0,1:2|0:0,0:0:0:0:
187,123,157295,6,0,L|235:126,3,48.8750009322167,10|0|0|0,0:0|0:0|0:0|0:0,0:0:0:0:
119,65,157562,6,0,L|97:20,3,48.8750009322167,2|0|0|0,1:2|0:0|0:0|0:0,0:0:0:0:
105,149,157829,6,0,L|77:189,3,48.8750009322167,10|0|6|0,0:0|0:0|1:2|0:0,0:0:0:0:
138,251,158095,5,0,0:0:0:0:
260,232,158229,1,2,0:0:0:0:
190,181,158362,1,10,0:0:0:0:
217,322,158495,1,2,0:0:0:0:
217,322,158562,1,0,0:0:0:0:
217,322,158629,6,0,B|314:311|321:303|315:311|326:301|345:301,1,97.7500018644333,2|2,1:2|0:0,0:0:0:0:
111,350,158829,1,0,0:0:0:0:
111,350,158895,2,0,B|14:339|6:331|13:339|1:329|-17:329,1,97.7500018644333,10|10,0:0|0:0,0:0:0:0:
60,229,159095,1,0,0:0:0:0:
60,229,159162,6,0,B|21:126|112:130|76:26,1,195.500003728867,6|10,1:2|0:0,0:0:0:0:
0,72,159562,1,0,0:0:0:0:
134,178,159695,2,0,P|228:197|317:160,1,195.500003728867,2|10,1:2|0:0,0:0:0:0:
386,67,160095,1,0,0:0:0:0:
465,198,160229,6,0,P|471:148|491:104,1,97.7500018644333,2|0,1:2|0:0,0:0:0:0:
397,319,160495,2,0,P|391:269|371:225,1,97.7500018644333,10|0,0:0|0:0,0:0:0:0:
222,237,160762,2,0,P|227:188|247:144,1,97.7500018644333,2|0,1:2|0:0,0:0:0:0:
333,19,161028,2,0,P|352:63|358:111,1,97.7500018644333,10|0,0:0|0:0,0:0:0:0:
145,42,161295,6,0,B|181:63|181:63|238:61,1,97.7500018644333,6|0,1:2|2:0,0:0:0:0:
115,135,161562,2,0,B|79:114|79:114|22:116,1,97.7500018644333,10|0,0:0|2:0,0:0:0:0:
36,291,161829,6,0,B|49:283|49:283|57:188,1,97.7500018644333,2|0,1:2|2:0,0:0:0:0:
186,186,162095,2,0,L|197:313,1,97.7500018644333,10|0,0:0|2:0,0:0:0:0:
326,337,162362,2,0,B|314:327|314:327|328:190,1,146.62500279665,2|0,1:2|2:0,0:0:0:0:
340,121,162629,6,0,P|419:157|442:258,2,195.500003728867,10|2|10,0:0|1:2|0:0,0:0:0:0:
215,32,163429,5,6,1:2:0:0:
215,32,163962,2,0,B|244:45|258:83|258:83|275:42|312:30,1,127.500004863739,2|2,0:0|0:0,0:0:0:0:
170,179,164495,6,0,L|177:109,1,63.7500024318696,6|0,1:2|0:0,0:0:0:0:
92,226,164762,2,0,L|98:289,1,63.7500024318696,2|0,0:0|0:0,0:0:0:0:
267,210,165029,2,0,L|273:146,1,63.7500024318696,2|0,0:0|0:0,0:0:0:0:
350,9,165295,2,0,L|356:72,1,63.7500024318696,2|0,0:0|0:0,0:0:0:0:
499,164,165562,6,0,P|445:156|385:194,1,108.375002067089,6|0,1:2|2:0,0:0:0:0:
354,188,165829,2,0,P|344:240|365:289,1,108.375002067089,2|0,1:2|2:0,0:0:0:0:
370,334,166095,2,0,P|321:357|269:348,1,108.375002067089,2|0,1:2|2:0,0:0:0:0:
192,293,166362,5,2,1:2:0:0:
192,293,166629,2,0,P|216:251|185:293,1,178.499994552612,14|0,1:2|2:0,0:0:0:0:
