osu file format v14

[General]
AudioFilename: audio.mp3
AudioLeadIn: 0
PreviewTime: 41690
Countdown: 0
SampleSet: Soft
StackLeniency: 0.7
Mode: 0
LetterboxInBreaks: 0
WidescreenStoryboard: 1

[Editor]
Bookmarks: 787,5470,16007,19519,25373,34739,41763,59178
DistanceSpacing: 1.5
BeatDivisor: 4
GridSize: 8
TimelineZoom: 1.6

[Metadata]
Title:Dropout Jinseigaku
TitleUnicode:ドロップアウト人生学
Artist:Three
ArtistUnicode:すりぃ
Creator:Nevo
Version:Eternal's Insane
Source:
Tags:xandit -Eternal- kagamine 鏡音レン len pandemic japanese rock vocaloid パンデミック Surii
BeatmapID:2549055
BeatmapSetID:1214153

[Difficulty]
HPDrainRate:5
CircleSize:4.5
OverallDifficulty:8
ApproachRate:9
SliderMultiplier:1.52
SliderTickRate:1

[Events]
//Background and Video events
0,0,"81299132_p0.jpg",0,0
//Break Periods
//Storyboard Layer 0 (Background)
//Storyboard Layer 1 (Fail)
//Storyboard Layer 2 (Pass)
//Storyboard Layer 3 (Foreground)
//Storyboard Layer 4 (Overlay)
//Storyboard Sound Samples

[TimingPoints]
778,292.682926829268,4,2,1,50,1,0
778,-100,4,2,1,50,0,0
4290,-125,4,2,1,50,0,0
4363,-125,4,2,1,5,0,0
4582,-125,4,2,1,50,0,0
4656,-125,4,2,1,5,0,0
4875,-125,4,2,1,50,0,0
4948,-125,4,2,1,5,0,0
5168,-125,4,2,1,50,0,0
5387,-125,4,2,1,5,0,0
5460,-100,4,2,1,60,0,0
10143,-100,4,2,1,50,0,0
14973,-166.666666666667,4,2,1,30,0,0
15997,-125,4,2,1,40,0,0
19509,-370.37037037037,4,2,1,40,0,0
20095,-125,4,2,1,40,0,0
25363,-111.111111111111,4,2,1,50,0,0
28875,-338.983050847458,4,2,1,50,0,0
29460,-111.111111111111,4,2,1,50,0,0
34729,-105.263157894737,4,2,1,55,0,0
40436,-105.263157894737,4,2,1,55,0,0
40509,-105.263157894737,4,2,1,5,0,0
40729,-105.263157894737,4,2,1,55,0,0
40802,-105.263157894737,4,2,1,5,0,0
41021,-105.263157894737,4,2,1,55,0,0
41095,-105.263157894737,4,2,1,5,0,0
41168,-105.263157894737,4,2,1,55,0,0
41753,-90.9090909090909,4,2,1,70,0,1
46656,-90.9090909090909,4,2,1,70,0,1
46729,-90.9090909090909,4,2,1,70,0,1
48997,-90.9090909090909,4,2,1,70,0,1
49070,-90.9090909090909,4,2,1,70,0,1
56021,-90.9090909090909,4,2,1,70,0,1
56095,-90.9090909090909,4,2,1,70,0,1
56607,-90.9090909090909,4,2,1,70,0,1
56680,-90.9090909090909,4,2,1,70,0,1
57192,-90.9090909090909,4,2,1,70,0,1
57265,-90.9090909090909,4,2,1,70,0,1
57777,-90.9090909090909,4,2,1,70,0,1
57851,-90.9090909090909,4,2,1,70,0,1
59168,-100,4,2,1,40,0,0

[Colours]
Combo1 : 255,128,0
Combo2 : 128,128,128
Combo3 : 0,128,192

[HitObjects]
512,228,485,6,0,P|448:231|408:180,1,114,2|0,0:0|0:0,0:0:0:0:
418,181,778,5,6,1:2:0:0:
363,295,924,2,0,L|374:379,1,76,2|0,0:0|3:2,0:0:0:0:
273,250,1217,2,0,B|209:262|196:215|124:226,1,152,2|2,0:0|0:0,0:0:0:0:
0,110,1656,2,0,P|-1:69|22:36,1,76,2|0,3:2|1:2,0:0:0:0:
144,93,1948,5,2,3:2:0:0:
43,183,2095,2,0,L|33:258,1,76,2|0,0:0|3:2,0:0:0:0:
201,152,2387,2,0,B|248:162|294:172|294:172|320:153|323:117,1,152,2|2,0:0|0:0,0:0:0:0:
488,280,2826,2,0,P|450:283|419:305,1,76,2|0,3:2|1:2,0:0:0:0:
255,251,3119,5,2,1:2:0:0:
331,361,3265,2,0,L|338:281,1,76,2|0,0:0|3:2,0:0:0:0:
159,331,3558,2,0,B|94:341|81:294|9:305,1,152,2|2,0:0|0:0,0:0:0:0:
122,173,3997,2,0,L|202:180,1,76,2|0,3:2|0:0,0:0:0:0:
512,156,4290,6,0,L|490:178,1,30.4,6|0,1:2|0:0,0:0:0:0:
460,272,4582,6,0,L|429:265,1,30.4,6|0,1:2|0:0,0:0:0:0:
371,336,4875,6,0,L|356:245,1,91.2,6|0,1:2|0:0,0:0:0:0:
315,231,5168,6,0,P|304:264|331:245,1,91.2,2|0,1:2|0:0,0:0:0:0:
320,223,5460,6,0,B|256:213|243:259|173:248,1,152,6|10,1:2|0:0,0:0:0:0:
181,95,5899,1,0,0:0:0:0:
49,162,6046,2,0,L|129:150,1,76,2|2,1:2|1:2,0:0:0:0:
256,52,6338,1,8,0:0:0:0:
184,0,6485,6,0,P|165:32|168:78,1,76,6|0,1:2|0:0,0:0:0:0:
325,96,6777,2,0,B|372:86|418:76|418:76|444:95|447:131,1,152,2|2,1:2|0:0,0:0:0:0:
387,254,7217,1,2,1:2:0:0:
391,263,7363,1,2,1:2:0:0:
268,203,7509,1,10,0:0:0:0:
264,194,7655,1,2,0:0:0:0:
205,256,7802,6,0,L|50:241,1,152,6|10,1:2|0:0,0:0:0:0:
172,168,8241,1,0,0:0:0:0:
263,310,8387,2,0,P|255:346|249:390,1,76,2|2,1:2|1:2,0:0:0:0:
421,159,8680,1,8,0:0:0:0:
442,245,8826,6,0,B|378:255|365:209|295:220,1,152,6|2,0:0|1:2,0:0:0:0:
421,159,9265,2,0,L|499:148,1,76,10|2,0:0|1:2,0:0:0:0:
361,76,9558,2,0,L|368:26,2,50.6666666666667,10|2|2,0:0|0:0|0:0,0:0:0:0:
260,142,9851,1,10,0:0:0:0:
263,132,9924,1,8,0:0:0:0:
266,122,9997,2,0,L|210:115,1,38,8|0,0:0|0:0,0:0:0:0:
29,87,10143,6,0,P|98:95|149:33,1,152,6|10,1:2|0:0,0:0:0:0:
66,6,10582,1,0,0:0:0:0:
209,109,10729,2,0,L|286:98,1,76,2|2,1:2|1:2,0:0:0:0:
432,179,11021,1,8,0:0:0:0:
364,227,11168,6,0,P|347:193|351:155,1,76,2|0,1:2|0:0,0:0:0:0:
511,109,11460,2,0,L|503:265,1,152,2|2,1:2|0:0,0:0:0:0:
338,323,11899,1,2,1:2:0:0:
347,327,12046,1,2,1:2:0:0:
241,193,12192,1,10,0:0:0:0:
232,197,12339,1,2,0:0:0:0:
209,273,12485,6,0,B|273:283|286:237|356:248,1,152,2|10,1:2|0:0,0:0:0:0:
338,323,12924,1,0,0:0:0:0:
236,193,13070,2,0,P|240:152|247:114,1,76,2|2,1:2|1:2,0:0:0:0:
72,24,13363,1,8,0:0:0:0:
51,112,13509,6,0,B|97:108|143:90|143:90|159:62|146:28,1,152,6|2,1:2|1:2,0:0:0:0:
331,125,13948,2,0,P|287:133|260:157,1,76,10|2,0:0|1:2,0:0:0:0:
92,262,14241,5,10,0:0:0:0:
92,298,14338,5,2,0:0:0:0:
122,280,14436,5,2,0:0:0:0:
101,277,14534,6,0,B|165:287|178:241|248:252,1,152,2|2,1:2|0:0,0:0:0:0:
317,168,15558,6,0,L|321:194,2,22.7999993041992,2|2|2,0:0|0:0|0:0,0:0:0:0:
317,168,15997,5,4,1:2:0:0:
258,110,16143,1,2,0:0:0:0:
258,110,16290,2,0,L|268:43,1,60.8,10|0,0:0|0:0,0:0:0:0:
200,0,16582,1,2,0:0:0:0:
200,0,16729,2,0,P|166:12|135:11,1,60.8,2|8,1:2|0:0,0:0:0:0:
25,69,17021,6,0,P|55:69|84:80,1,60.8,2|0,0:0|1:2,0:0:0:0:
144,149,17314,1,2,1:2:0:0:
144,149,17460,2,0,L|134:209,1,60.8,10|2,0:0|1:2,0:0:0:0:
223,280,17753,2,0,L|232:219,1,60.8,2|2,0:0|1:2,0:0:0:0:
327,161,18046,2,0,P|355:172|386:173,1,60.8,10|0,0:0|0:0,0:0:0:0:
503,252,18338,6,0,P|457:251|397:318,1,121.6,2|8,1:2|0:0,0:0:0:0:
314,322,18777,1,2,0:0:0:0:
314,322,18924,2,0,L|325:386,1,60.8,2|2,0:0|1:2,0:0:0:0:
179,282,19217,2,0,P|205:296|236:297,1,60.8,10|2,0:0|0:0,0:0:0:0:
404,353,19509,6,0,P|431:338|462:338,1,61.5600015029297,2|0,1:2|1:2,0:0:0:0:
324,286,20095,6,0,L|313:225,1,60.8,0|0,0:0|1:2,0:0:0:0:
382,113,20387,2,0,L|392:173,1,60.8,8|0,0:0|0:0,0:0:0:0:
228,193,20607,1,0,0:0:0:0:
247,223,20680,6,0,P|220:237|189:238,1,60.8,6|0,1:2|0:0,0:0:0:0:
190,238,20973,6,0,P|220:236|247:222,1,60.8,10|0,0:0|0:0,0:0:0:0:
247,223,21265,6,0,P|220:237|189:238,1,61.6,2|0,0:0|1:2,0:0:0:0:
189,238,21558,6,0,P|219:236|246:222,1,60.8,10|0,0:0|0:0,0:0:0:0:
247,223,21851,6,0,P|220:237|189:238,1,60.8,2|0,1:2|1:2,0:0:0:0:
189,238,22143,6,0,P|219:236|246:222,1,60.8,10|0,0:0|1:2,0:0:0:0:
247,223,22436,6,0,P|220:237|189:238,1,60.8,2|0,0:0|1:2,0:0:0:0:
189,238,22729,6,0,P|219:236|246:222,1,60.8,10|0,0:0|0:0,0:0:0:0:
380,140,23021,2,0,L|240:128,1,121.6,2|10,1:2|0:0,0:0:0:0:
178,21,23460,1,0,0:0:0:0:
178,21,23607,2,0,P|183:62|184:93,1,60.8,2|0,0:0|1:2,0:0:0:0:
113,147,23899,2,0,P|86:162|56:162,1,60.8,10|0,0:0|0:0,0:0:0:0:
212,199,24192,5,2,1:2:0:0:
209,208,24338,1,2,1:2:0:0:
144,307,24485,1,10,0:0:0:0:
147,298,24631,1,2,1:2:0:0:
277,263,24777,2,0,B|333:274|340:236|394:248,1,121.6,2|8,0:0|0:0,0:0:0:0:
465,300,25217,1,0,0:0:0:0:
512,190,25363,5,4,1:2:0:0:
399,85,25509,1,2,0:0:0:0:
487,56,25656,2,0,L|472:139,1,68.3999979125977,10|0,0:0|0:0,0:0:0:0:
314,223,25948,1,2,1:2:0:0:
300,143,26095,2,0,P|336:143|368:160,1,68.3999979125977,2|8,1:2|0:0,0:0:0:0:
330,302,26387,6,0,P|293:301|261:284,1,68.3999979125977,2|0,1:2|0:0,0:0:0:0:
161,219,26680,1,2,1:2:0:0:
76,242,26826,2,0,P|81:213|88:173,1,68.3999979125977,10|2,0:0|0:0,0:0:0:0:
245,107,27119,2,0,P|240:136|232:175,1,68.3999979125977,2|0,1:2|1:2,0:0:0:0:
102,68,27412,2,0,P|108:33|114:0,1,68.3999979125977,10|0,0:0|0:0,0:0:0:0:
299,44,27704,6,0,B|356:56|373:11|438:25,1,136.799995825195,2|8,1:2|0:0,0:0:0:0:
370,161,28143,1,2,0:0:0:0:
445,109,28290,2,0,P|459:140|461:174,1,68.3999979125977,2|2,1:2|1:2,0:0:0:0:
299,214,28582,2,0,P|284:182|282:148,1,68.3999979125977,10|2,0:0|1:2,0:0:0:0:
398,263,28875,6,0,L|413:338,1,67.2599976394959,2|2,0:0|0:0,0:0:0:0:
318,346,29460,6,0,P|283:347|252:362,1,68.3999979125977,2|2,1:2|1:2,0:0:0:0:
171,308,29753,2,0,L|156:237,1,68.3999979125977,10|0,0:0|0:0,0:0:0:0:
263,124,29973,1,0,0:0:0:0:
295,152,30046,6,0,L|308:219,1,68.3999979125977,6|0,1:2|0:0,0:0:0:0:
309,220,30338,6,0,L|295:152,1,68.3999979125977,10|0,0:0|0:0,0:0:0:0:
295,152,30631,6,0,L|308:219,1,68.3999979125977,2|0,1:2|1:2,0:0:0:0:
309,220,30924,6,0,L|295:152,1,68.3999979125977,10|0,0:0|1:2,0:0:0:0:
295,152,31217,6,0,L|308:219,1,68.3999979125977,2|0,0:0|1:2,0:0:0:0:
309,220,31509,6,0,L|295:152,1,68.3999979125977,10|0,0:0|0:0,0:0:0:0:
295,152,31802,6,0,L|308:219,1,68.3999979125977,2|0,1:2|1:2,0:0:0:0:
309,220,32095,6,0,L|295:152,1,68.3999979125977,10|0,0:0|0:0,0:0:0:0:
462,96,32387,6,0,B|394:107|395:66|323:77,1,136.799995825195,2|10,1:2|0:0,0:0:0:0:
144,55,32826,1,0,0:0:0:0:
217,138,32973,2,0,P|222:69|229:0,1,136.799995825195,2|10,1:2|0:0,0:0:0:0:
144,55,33412,1,4,1:2:0:0:
306,112,33558,6,0,P|337:125|372:127,1,68.3999979125977,2|2,0:0|1:2,0:0:0:0:
193,221,33851,2,0,P|159:224|128:237,1,68.3999979125977,10|2,0:0|1:2,0:0:0:0:
282,373,34143,2,0,L|286:305,1,68.3999979125977,10|0,0:0|1:2,0:0:0:0:
184,319,34436,1,8,0:0:0:0:
383,360,34582,1,8,0:0:0:0:
263,219,34729,6,0,B|216:228|170:238|170:238|145:219|142:184,1,144.399996144104,6|0,1:2|1:2,0:0:0:0:
0,353,35168,2,0,B|68:364|67:322|140:333,1,144.399996144104,2|0,0:0|1:2,0:0:0:0:
322,384,35607,2,0,P|268:368|274:283,1,144.399996144104,2|0,0:0|1:2,0:0:0:0:
377,143,36046,2,0,L|362:308,1,144.399996144104,2|0,0:0|1:2,0:0:0:0:
284,189,36485,1,2,0:0:0:0:
298,187,36631,1,2,0:0:0:0:
457,251,36777,1,2,0:0:0:0:
443,245,36923,1,2,0:0:0:0:
313,340,37070,6,0,B|244:351|245:309|172:320,1,144.399996144104,6|0,1:2|1:2,0:0:0:0:
27,377,37509,2,0,L|44:232,1,144.399996144104,2|0,0:0|1:2,0:0:0:0:
184,126,37948,2,0,B|156:110|116:129|116:129|85:94|30:113,1,144.399996144104,2|0,0:0|1:2,0:0:0:0:
218,234,38387,2,0,B|264:224|310:214|310:214|335:233|338:268,1,144.399996144104,2|2,0:0|1:2,0:0:0:0:
282,138,38826,1,2,0:0:0:0:
265,143,38973,1,2,0:0:0:0:
240,305,39119,1,2,0:0:0:0:
257,300,39266,1,2,0:0:0:0:
427,351,39412,5,6,1:2:0:0:
319,204,39704,2,0,L|278:213,3,36.099999036026,8|8|0|0,0:0|0:2|1:2|1:0,0:0:0:0:
203,138,39997,1,8,0:0:0:0:
195,131,40070,2,0,L|154:122,2,36.099999036026,8|0|0,0:0|1:2|1:2,0:0:0:0:
59,220,40290,1,8,0:0:0:0:
64,227,40363,1,8,0:0:0:0:
69,234,40436,6,0,L|117:220,1,36.099999036026,2|0,1:2|0:0,0:0:0:0:
208,280,40729,6,0,L|256:294,1,36.099999036026,2|0,1:2|0:0,0:0:0:0:
324,350,41021,6,0,L|372:336,1,36.099999036026,2|0,1:2|0:0,0:0:0:0:
104,184,41314,5,0,1:2:0:0:
154,378,41460,1,12,0:0:0:0:
355,46,41753,6,0,P|333:81|333:122,1,83.6000025512696,6|0,1:2|0:0,0:0:0:0:
429,254,42046,2,0,L|512:261,1,83.6000025512696,10|0,0:0|0:0,0:0:0:0:
422,158,42338,1,2,1:2:0:0:
249,98,42485,1,2,1:2:0:0:
432,155,42631,1,10,0:0:0:0:
285,262,42777,6,0,B|204:274|205:225|119:238,1,167.200005102539,6|0,1:2|1:2,0:0:0:0:
8,98,43217,2,0,P|45:80|86:86,1,83.6000025512696,10|0,0:0|0:0,0:0:0:0:
111,234,43509,2,0,P|73:251|32:245,1,83.6000025512696,2|0,1:2|1:2,0:0:0:0:
160,148,43802,2,0,L|251:131,1,83.6000025512696,10|0,0:0|0:0,0:0:0:0:
396,276,44095,6,0,B|342:264|289:252|289:252|260:274|257:315,1,167.200005102539,2|10,1:2|0:0,0:0:0:0:
380,132,44534,2,0,L|404:52,1,83.6000025512696,2|0,0:0|1:2,0:0:0:0:
512,218,44826,2,0,P|471:223|433:206,1,83.6000025512696,2|8,1:2|0:0,0:0:0:0:
272,161,45119,6,0,B|191:173|192:124|106:137,1,167.200005102539,6|0,1:2|1:2,0:0:0:0:
0,273,45558,1,8,0:0:0:0:
60,320,45704,1,0,1:2:0:0:
107,259,45851,1,8,0:0:0:0:
47,212,45997,1,0,1:2:0:0:
135,320,46143,1,10,0:0:0:0:
145,318,46217,1,10,0:0:0:0:
155,316,46290,1,10,0:0:0:0:
165,314,46363,1,10,0:0:0:0:
175,312,46436,6,0,B|236:321|235:284|301:294,1,125.400003826904,6|0,1:2|0:0,0:0:0:0:
329,359,46729,2,0,P|282:365|248:348,1,83.6000025512696,2|0,1:2|0:0,0:0:0:0:
416,314,47021,1,2,1:2:0:0:
424,152,47168,1,2,0:0:0:0:
418,322,47314,1,2,1:2:0:0:
296,196,47460,6,0,B|242:207|189:219|189:219|160:197|157:156,1,167.200005102539,2|0,0:0|0:0,0:0:0:0:
229,37,47899,2,0,P|245:90|232:124,1,83.6000025512696,2|0,1:2|0:0,0:0:0:0:
92,234,48192,2,0,L|-3:221,1,83.6000025512696,2|0,1:2|0:0,0:0:0:0:
79,74,48485,2,0,L|174:87,1,83.6000025512696,2|0,1:2|0:0,0:0:0:0:
434,133,48777,6,0,P|373:131|336:82,1,125.400003826904,2|0,1:2|0:0,0:0:0:0:
343,68,49070,1,2,1:2:0:0:
263,219,49217,2,0,L|274:136,1,83.6000025512696,2|0,0:0|1:2,0:0:0:0:
363,276,49509,2,0,P|367:336|343:370,1,83.6000025512696,2|0,0:0|1:2,0:0:0:0:
165,276,49802,6,0,B|84:288|85:239|0:252,1,167.200005102539,2|0,0:0|0:0,0:0:0:0:
113,103,50241,2,0,P|133:145|127:189,1,83.6000025512696,0|0,1:2|0:0,0:0:0:0:
230,326,50534,2,0,L|315:311,1,83.6000025512696,0|0,1:2|0:0,0:0:0:0:
434,188,50826,1,2,1:2:0:0:
437,178,50899,1,8,0:0:0:0:
440,168,50973,2,0,L|396:172,1,41.8000012756348,8|8,0:0|0:0,0:0:0:0:
374,362,51119,6,0,P|390:325|384:281,1,83.6000025512696,6|0,1:2|0:0,0:0:0:0:
218,164,51412,2,0,P|200:199|207:243,1,83.6000025512696,10|0,0:0|0:0,0:0:0:0:
302,325,51704,1,2,1:2:0:0:
123,370,51851,1,2,1:2:0:0:
311,334,51997,1,10,0:0:0:0:
136,279,52143,6,0,B|82:290|29:302|29:302|0:280|-2:239,1,167.200005102539,6|0,1:2|1:2,0:0:0:0:
151,167,52582,2,0,P|188:184|229:178,1,83.6000025512696,10|0,0:0|0:0,0:0:0:0:
254,31,52874,2,0,P|216:13|175:19,1,83.6000025512696,2|0,1:2|1:2,0:0:0:0:
303,117,53167,2,0,L|394:134,1,83.6000025512696,10|0,0:0|0:0,0:0:0:0:
200,237,53460,6,0,B|119:249|120:200|34:213,1,167.200005102539,2|10,1:2|0:0,0:0:0:0:
70,300,53899,1,0,0:0:0:0:
174,159,54046,2,0,P|180:119|191:68,1,83.6000025512696,2|0,1:2|1:2,0:0:0:0:
276,265,54338,2,0,P|281:305|264:343,1,83.6000025512696,10|0,0:0|1:2,0:0:0:0:
497,240,54631,6,0,P|455:233|414:225,1,83.6000025512696,6|0,0:0|1:2,0:0:0:0:
229,163,54924,1,8,0:0:0:0:
336,177,55070,1,0,1:2:0:0:
289,116,55217,1,8,0:0:0:0:
276,224,55363,1,0,1:2:0:0:
221,88,55509,1,2,1:2:0:0:
211,86,55583,1,8,0:0:0:0:
201,84,55656,1,8,0:0:0:0:
191,82,55729,1,8,0:0:0:0:
181,80,55802,6,0,B|119:89|120:52|54:62,1,125.400003826904,6|0,1:2|0:0,0:0:0:0:
0,110,56095,2,0,L|14:194,1,83.6000025512696,2|0,1:2|0:0,0:0:0:0:
99,282,56387,2,0,P|159:270|214:319,1,125.400003826904,2|0,1:2|0:0,0:0:0:0:
269,252,56680,2,0,P|320:268|364:250,1,83.6000025512696,2|0,1:2|0:0,0:0:0:0:
206,74,56973,6,0,L|199:211,1,125.400003826904,2|0,1:2|0:0,0:0:0:0:
145,258,57265,2,0,P|126:221|129:180,1,83.6000025512696,2|0,1:2|0:0,0:0:0:0:
317,160,57558,2,0,B|378:169|377:132|443:142,1,125.400003826904,2|0,1:2|0:0,0:0:0:0:
475,207,57851,2,0,P|428:213|394:196,1,83.6000025512696,2|0,1:2|0:0,0:0:0:0:
350,1,58143,6,0,L|336:83,1,83.6000025512696,6|0,1:2|0:0,0:0:0:0:
218,139,58436,2,0,L|174:132,3,41.8000012756348,10|8|8|8,0:0|0:0|0:0|0:0,0:0:0:0:
84,63,58729,2,0,L|125:69,1,41.8000012756348,10|8,0:0|0:0,0:0:0:0:
91,172,58875,1,10,0:0:0:0:
84,179,58948,1,8,0:0:0:0:
77,186,59021,2,0,L|33:179,1,41.8000012756348,8|8,0:0|0:0,0:0:0:0:
141,249,59168,5,2,1:2:0:0:
