osu file format v14

[General]
AudioFilename: audio.mp3
AudioLeadIn: 0
PreviewTime: 124467
Countdown: 0
SampleSet: Normal
StackLeniency: 0.4
Mode: 0
LetterboxInBreaks: 0
WidescreenStoryboard: 0

[Editor]
Bookmarks: 235035
DistanceSpacing: 1.2
BeatDivisor: 4
GridSize: 4
TimelineZoom: 3.499999

[Metadata]
Title:Kissing the Tears
TitleUnicode:Kissing the Tears
Artist:Thousand Leaves
ArtistUnicode:Thousand Leaves
Creator:TheKingHenry
Version:Acquiescence
Source:東方地霊殿 ~ Subterranean Animism.
Tags:東方 Touhou Project Bach ハートフェルトファンシー Heartfelt Fancy Blind Night Sorrow ZUN metal instrumental guitar solo comiket 77
BeatmapID:1204683
BeatmapSetID:568363

[Difficulty]
HPDrainRate:5.5
CircleSize:4.2
OverallDifficulty:9
ApproachRate:9.5
SliderMultiplier:1.4
SliderTickRate:1

[Events]
//Background and Video events
0,0,"kissingthetears.jpg",0,0
//Break Periods
//Storyboard Layer 0 (Background)
//Storyboard Layer 1 (Fail)
//Storyboard Layer 2 (Pass)
//Storyboard Layer 3 (Foreground)
//Storyboard Sound Samples

[TimingPoints]
369,333.333333333333,4,1,1,50,1,0
5368,-200,4,1,1,50,0,0
5618,-200,4,1,1,5,0,0
5702,-100,4,1,1,50,0,0
16035,-200,4,1,1,50,0,0
16285,-200,4,1,1,5,0,0
16368,-100,4,1,1,50,0,0
21868,-100,4,2,1,40,0,0
26368,-100,4,1,1,40,0,0
27035,-100,4,1,1,60,0,0
27202,-100,4,2,1,40,0,0
29702,-100,4,1,1,60,0,0
29868,-100,4,1,1,40,0,0
30202,-100,4,1,1,60,0,0
30368,-100,4,1,1,40,0,0
30702,-100,4,1,1,60,0,0
30868,-100,4,1,1,40,0,0
31702,-100,4,1,1,50,0,0
52368,-100,4,1,1,70,0,0
52535,-100,4,1,1,50,0,0
53702,-100,4,1,1,70,0,1
53868,-100,4,1,1,60,0,1
75035,-100,4,1,1,50,0,0
95035,-100,4,1,1,70,0,0
95202,-100,4,1,1,60,0,0
95368,-66.6666666666667,4,1,1,70,0,0
95535,-100,4,1,1,60,0,0
95702,-100,4,1,1,50,0,0
96368,-200,4,1,1,50,0,0
104368,-100,4,1,1,50,0,0
105035,-100,4,1,1,70,0,0
105202,-100,4,1,1,60,0,0
105785,-100,4,1,1,50,0,0
106368,-100,4,1,1,40,0,0
106452,-100,4,1,1,42,0,0
106535,-100,4,1,1,44,0,0
106618,-100,4,1,1,46,0,0
106702,-100,4,1,1,48,0,0
106785,-100,4,1,1,51,0,0
106868,-100,4,1,1,54,0,0
106952,-100,4,1,1,57,0,0
107036,-200,4,1,1,60,0,0
107202,-200,4,1,1,45,0,0
112035,-100,4,1,1,45,0,0
112368,-200,4,1,1,45,0,0
117285,-133.333333333333,4,1,1,45,0,0
117535,-100,4,1,1,45,0,0
117702,-100,4,1,1,60,0,0
117785,-100,4,1,1,40,0,0
124368,-100,4,1,1,42,0,0
124702,-100,4,1,1,44,0,0
125035,-100,4,1,1,46,0,0
125368,-100,4,1,1,48,0,0
125702,-100,4,1,1,50,0,0
126368,-66.6666666666667,4,1,1,50,0,0
127035,-100,4,1,1,60,0,0
127202,-100,4,1,1,50,0,0
127368,-66.6666666666667,4,1,1,50,0,0
127535,-100,4,1,1,50,0,0
128035,-100,4,1,1,45,0,0
128368,-100,4,1,1,70,0,1
128535,-100,4,1,1,60,0,1
148535,-100,4,2,1,50,0,0
149702,-100,4,1,1,50,0,0
169702,-100,4,1,1,70,0,0
169868,-100,4,1,1,60,0,0
170035,-66.6666666666667,4,1,1,70,0,0
170202,-100,4,1,1,60,0,0
170368,-100,4,1,1,50,0,0
171035,-200,4,1,1,50,0,0
179035,-100,4,1,1,50,0,0
179702,-100,4,1,1,70,0,0
179868,-100,4,1,1,60,0,0
180452,-100,4,1,1,50,0,0
181035,-100,4,1,1,40,0,0
181118,-100,4,1,1,42,0,0
181202,-100,4,1,1,44,0,0
181285,-100,4,1,1,46,0,0
181368,-100,4,1,1,48,0,0
181452,-100,4,1,1,51,0,0
181535,-100,4,1,1,54,0,0
181618,-100,4,1,1,57,0,0
181702,-200,4,1,1,60,0,0
181868,-200,4,1,1,45,0,0
186702,-100,4,1,1,45,0,0
187035,-200,4,1,1,45,0,0
191952,-133.333333333333,4,1,1,45,0,0
192202,-100,4,1,1,45,0,0
192368,-100,4,1,1,60,0,0
192452,-100,4,1,1,40,0,0
199035,-100,4,1,1,42,0,0
199368,-100,4,1,1,44,0,0
199702,-100,4,1,1,46,0,0
200035,-100,4,1,1,48,0,0
200368,-100,4,1,1,50,0,0
201035,-66.6666666666667,4,1,1,50,0,0
201702,-83.3333333333333,4,1,1,50,0,0
201868,-100,4,1,1,50,0,0
203035,-100,4,1,1,60,0,0
203202,-100,4,2,1,40,0,0
205035,-100,4,1,1,40,0,0
205702,-100,4,1,1,60,0,0
205868,-100,4,2,1,40,0,0
207618,-100,4,1,1,50,0,0
208368,-100,4,1,1,60,0,0
208535,-100,4,2,1,40,0,0
209535,-100,4,1,1,60,0,0
209702,-100,4,1,1,50,0,0
209868,-100,4,2,1,40,0,0
211035,-100,4,1,1,60,0,0
211202,-100,4,1,1,40,0,0
211535,-100,4,1,1,60,0,0
211702,-100,4,1,1,40,0,0
212035,-100,4,1,1,60,0,0
212202,-100,4,1,1,40,0,0
213035,-100,4,1,1,50,0,0
213702,-133.333333333333,4,1,1,50,0,0
224035,-100,4,1,1,50,0,0
235035,-50,4,1,1,50,0,0
235868,-66.6666666666667,4,1,1,50,0,0
236035,-100,4,1,1,50,0,0
241035,-66.6666666666667,4,1,1,50,0,0
241702,-100,4,1,1,50,0,0
242452,-100,4,1,1,30,0,0
242535,-100,4,1,1,50,0,0
242618,-100,4,1,1,30,0,0
242702,-100,4,1,1,50,0,0
243868,-50,4,1,1,50,0,0
244035,-100,4,1,1,50,0,0
244535,-50,4,1,1,50,0,0
245035,-57.1428571428571,4,1,1,50,0,0
245618,-55.5555555555556,4,2,0,5,0,0
245702,-200,4,1,1,50,0,0
245868,-100,4,1,1,50,0,0
246202,-66.6666666666667,4,1,1,50,0,0
246368,-100,4,1,1,50,0,0
248702,-50,4,1,1,50,0,0
248868,-100,4,1,1,50,0,0
249868,-66.6666666666667,4,1,1,50,0,0
250035,-100,4,1,1,50,0,0
250368,-200,4,1,1,50,0,0
251035,-133.333333333333,4,1,1,50,0,0
255035,-100,4,1,1,50,0,0
256035,-100,4,1,1,70,0,0
256368,-100,4,1,1,70,0,1
256452,-100,4,1,1,40,0,1
276368,-100,4,1,1,60,0,1
276452,-100,4,1,1,40,0,0
277035,-100,4,1,1,50,0,0
277702,-66.6666666666667,4,1,1,60,0,0
277785,-66.6666666666667,4,1,1,50,0,0
282368,-100,4,1,1,50,0,0
282452,-100,4,1,1,30,0,0
282535,-200,4,1,1,50,0,0
282952,-200,4,2,0,5,0,0
283035,-66.6666666666667,4,1,1,50,0,0
283202,-66.6666666666667,4,2,0,5,0,0
283285,-66.6666666666667,4,1,1,50,0,0
283452,-66.6666666666667,4,2,0,5,0,0
283535,-66.6666666666667,4,1,1,50,0,0
283618,-66.6666666666667,4,2,0,5,0,0
283702,-133.333333333333,4,1,1,50,0,0
284285,-133.333333333333,4,2,0,5,0,0
284368,-66.6666666666667,4,1,1,50,0,0
284535,-66.6666666666667,4,2,0,5,0,0
284618,-66.6666666666667,4,1,1,50,0,0
284785,-66.6666666666667,4,2,0,5,0,0
284868,-66.6666666666667,4,1,1,50,0,0
284952,-66.6666666666667,4,2,0,5,0,0
285035,-66.6666666666667,4,1,1,50,0,0
285368,-100,4,1,1,50,0,0
286702,-133.333333333333,4,1,1,50,0,0
286952,-133.333333333333,4,2,0,5,0,0
287035,-100,4,1,1,50,0,0
288368,-133.333333333333,4,1,1,50,0,0
289035,-100,4,1,1,50,0,0
290702,-133.333333333333,4,1,1,50,0,0
290952,-133.333333333333,4,2,0,5,0,0
291035,-100,4,1,1,50,0,0
292035,-133.333333333333,4,1,1,50,0,0
292285,-133.333333333333,4,2,0,5,0,0
292368,-100,4,1,1,40,0,0
293368,-200,4,1,1,50,0,0
293618,-200,4,2,0,5,0,0
293702,-133.333333333333,4,1,1,50,0,0
294368,-100,4,1,1,50,0,0
297702,-66.6666666666667,4,1,1,50,0,0
298368,-100,4,1,1,40,0,0
298452,-100,4,1,1,42,0,0
298535,-100,4,1,1,44,0,0
298618,-100,4,1,1,46,0,0
298702,-100,4,1,1,48,0,0
298785,-100,4,1,1,51,0,0
298868,-100,4,1,1,54,0,0
298952,-100,4,1,1,57,0,0
299035,-200,4,1,1,60,0,0
299202,-200,4,1,1,45,0,0
304035,-100,4,1,1,45,0,0
304368,-200,4,1,1,45,0,0
309285,-133.333333333333,4,1,1,45,0,0
309535,-100,4,1,1,45,0,0
309702,-100,4,1,1,60,0,0
309785,-100,4,1,1,40,0,0
316368,-100,4,1,1,42,0,0
316702,-100,4,1,1,44,0,0
317035,-100,4,1,1,46,0,0
317368,-100,4,1,1,48,0,0
317702,-100,4,1,1,50,0,0
318368,-66.6666666666667,4,1,1,50,0,0
319035,-100,4,1,1,60,0,0
319202,-100,4,1,1,50,0,0
319368,-66.6666666666667,4,1,1,50,0,0
319535,-100,4,1,1,50,0,0
320035,-100,4,1,1,45,0,0
320368,-100,4,1,1,70,0,1
320535,-100,4,1,1,60,0,1
332035,-66.6666666666667,4,1,1,60,0,1
332368,-100,4,1,1,60,0,1
333368,-66.6666666666667,4,1,1,60,0,1
333702,-100,4,1,1,60,0,1
334702,-66.6666666666667,4,1,1,60,0,1
335035,-100,4,1,1,60,0,1
336035,-66.6666666666667,4,1,1,60,0,1
336368,-100,4,1,1,60,0,1
337368,-66.6666666666667,4,1,1,60,0,1
337702,-100,4,1,1,60,0,1
338702,-66.6666666666667,4,1,1,60,0,1
339035,-66.6666666666667,4,1,1,70,0,1
339202,-66.6666666666667,4,1,1,50,0,1
339535,-66.6666666666667,4,1,1,70,0,1
339702,-66.6666666666667,4,1,1,50,0,1
340035,-66.6666666666667,4,1,1,70,0,1
340202,-66.6666666666667,4,1,1,50,0,1
341702,-66.6666666666667,4,1,1,70,0,1
341785,-100,4,2,1,20,0,0

[Colours]
Combo1 : 255,0,0
Combo2 : 64,0,128
Combo3 : 153,51,255
Combo4 : 93,93,93
Combo5 : 218,218,218
Combo6 : 196,0,92
Combo7 : 255,128,0

[HitObjects]
238,289,36,85,8,0:0:0:0:
246,273,119,1,8,0:0:0:0:
253,257,202,1,8,0:0:0:0:
258,240,285,1,8,0:0:0:0:
262,223,369,22,0,P|262:170|248:123,1,70,6|0,0:0|0:0,0:0:0:0:
213,39,702,1,8,0:0:0:0:
325,271,868,2,0,P|338:219|337:170,1,70,2|0,0:0|0:0,0:0:0:0:
321,84,1201,1,2,0:0:0:0:
373,333,1368,2,0,P|399:287|410:239,1,70,8|0,0:0|0:0,0:0:0:0:
359,27,1702,6,0,P|328:64|321:108,1,70,2|0,0:0|0:0,0:0:0:0:
404,270,2035,1,8,0:0:0:0:
257,47,2202,2,0,P|249:95|265:136,1,70,2|0,0:0|0:0,0:0:0:0:
417,234,2535,1,2,0:0:0:0:
178,115,2702,2,0,P|195:160|230:188,1,70,8|0,0:0|0:0,0:0:0:0:
410,197,3035,6,0,P|413:155|393:103,1,70,2|0,0:0|0:0,0:0:0:0:
304,336,3368,1,8,0:0:0:0:
343,167,3535,2,0,P|327:127|287:88,1,70,2|0,0:0|0:0,0:0:0:0:
304,336,3868,1,2,0:0:0:0:
268,167,4035,2,0,P|237:137|185:119,1,70,8|0,0:0|0:0,0:0:0:0:
235,335,4368,6,0,P|269:341|303:335,1,70,2|0,0:0|0:0,0:0:0:0:
410,197,4702,1,8,0:0:0:0:
198,198,4868,1,2,0:0:0:0:
364,58,5035,1,0,0:0:0:0:
272,259,5202,1,2,0:0:0:0:
271,262,5285,1,2,0:0:0:0:
270,265,5368,38,0,B|236:254|236:254|212:235,1,52.5,6|0,0:0|2:0,0:0:0:0:
198,198,5702,6,0,P|202:158|237:121,1,70,6|0,0:0|0:0,0:0:0:0:
234,323,6035,1,8,0:0:0:0:
272,188,6202,2,0,P|310:198|341:239,1,70,2|0,0:0|0:0,0:0:0:0:
129,203,6535,1,2,0:0:0:0:
270,265,6702,2,0,P|255:302|216:333,1,70,8|0,0:0|0:0,0:0:0:0:
218,134,7035,6,0,P|257:113|304:119,1,70,2|0,0:0|0:0,0:0:0:0:
339,293,7368,1,8,0:0:0:0:
143,135,7535,2,0,P|155:92|193:63,1,70,2|0,0:0|0:0,0:0:0:0:
340,161,7868,1,2,0:0:0:0:
90,188,8035,2,0,P|69:149|74:102,1,70,8|0,0:0|0:0,0:0:0:0:
353,94,8368,6,0,P|354:128|339:160,1,70,2|0,0:0|0:0,0:0:0:0:
147,291,8702,1,8,0:0:0:0:
244,56,8868,2,0,P|269:79|281:112,1,70,2|0,0:0|0:0,0:0:0:0:
237,340,9202,1,2,0:0:0:0:
140,106,9368,2,0,P|174:104|206:119,1,70,8|0,0:0|0:0,0:0:0:0:
303,329,9702,6,0,P|270:342|236:339,1,70,2|0,0:0|0:0,0:0:0:0:
160,177,10035,1,8,0:0:0:0:
131,371,10202,1,2,0:0:0:0:
90,201,10368,1,0,0:0:0:0:
253,266,10535,1,2,0:0:0:0:
256,267,10618,1,2,0:0:0:0:
259,268,10702,37,12,0:3:0:0:
297,253,10785,1,12,0:3:0:0:
338,262,10868,1,12,0:3:0:0:
368,291,10952,1,12,0:3:0:0:
377,331,11035,6,0,P|420:363|465:365,1,70,6|0,0:0|0:0,0:0:0:0:
303,329,11368,1,8,0:0:0:0:
440,291,11535,2,0,P|484:261|502:219,1,70,2|0,0:0|0:0,0:0:0:0:
303,329,11868,1,2,0:0:0:0:
423,218,12035,2,0,P|410:165|377:135,1,70,8|0,0:0|0:0,0:0:0:0:
257,278,12368,6,0,P|274:307|302:328,1,70,2|0,0:0|0:0,0:0:0:0:
338,113,12702,1,8,0:0:0:0:
183,253,12868,2,0,P|180:287|191:320,1,70,2|0,0:0|0:0,0:0:0:0:
343,163,13202,1,2,0:0:0:0:
136,190,13368,2,0,P|113:216|103:250,1,70,8|0,0:0|0:0,0:0:0:0:
257,278,13702,6,0,P|259:243|248:210,1,70,2|0,0:0|0:0,0:0:0:0:
91,360,14035,1,8,0:0:0:0:
248,210,14202,2,0,P|225:183|194:168,1,70,2|0,0:0|0:0,0:0:0:0:
91,360,14535,1,2,0:0:0:0:
194,168,14702,2,0,P|159:165|126:176,1,70,8|0,0:0|0:0,0:0:0:0:
258,358,15035,6,0,P|300:346|327:315,1,70,2|0,0:0|0:0,0:0:0:0:
338,113,15368,1,8,0:0:0:0:
177,248,15535,1,2,0:0:0:0:
156,60,15702,1,0,0:0:0:0:
244,194,15868,1,2,0:0:0:0:
250,201,15952,1,2,0:0:0:0:
248,200,16035,38,0,B|259:233|259:233|258:263,1,52.5,6|0,0:0|2:0,0:0:0:0:
257,278,16368,6,0,P|283:256|317:248,1,70,6|0,0:0|0:0,0:0:0:0:
372,380,16702,1,8,0:0:0:0:
309,174,16868,2,0,P|342:176|372:195,1,70,2|0,0:0|0:0,0:0:0:0:
318,328,17202,1,2,0:0:0:0:
419,137,17368,2,0,P|441:163|448:197,1,70,8|0,0:0|0:0,0:0:0:0:
252,127,17702,6,0,P|257:86|277:46,1,70,2|0,0:0|0:0,0:0:0:0:
317,247,18035,1,8,0:0:0:0:
184,176,18202,2,0,P|171:136|172:92,1,70,2|0,0:0|0:0,0:0:0:0:
317,247,18535,1,2,0:0:0:0:
143,249,18702,2,0,P|114:218|97:177,1,70,8|0,0:0|0:0,0:0:0:0:
304,180,19035,6,0,P|317:212|316:247,1,70,2|0,0:0|0:0,0:0:0:0:
136,332,19368,1,8,0:0:0:0:
294,100,19535,2,0,P|328:104|358:122,1,70,2|0,0:0|0:0,0:0:0:0:
342,321,19868,1,2,0:0:0:0:
220,69,20035,2,0,P|241:41|271:24,1,70,8|0,0:0|0:0,0:0:0:0:
434,140,20368,6,0,P|420:171|392:193,1,70,2|0,0:0|0:0,0:0:0:0:
210,245,20702,1,8,0:0:0:0:
294,100,20868,1,2,0:0:0:0:
430,281,21035,1,0,0:0:0:0:
358,122,21202,1,2,0:0:0:0:
361,125,21285,1,2,0:0:0:0:
364,127,21368,37,12,0:3:0:0:
332,154,21451,1,12,0:3:0:0:
321,194,21534,1,12,0:3:0:0:
334,233,21617,1,12,0:3:0:0:
366,259,21701,5,4,0:0:0:0:
459,32,21868,1,0,0:0:0:0:
366,259,22035,1,0,0:0:0:0:
294,100,22202,1,0,0:0:0:0:
366,259,22368,2,0,L|423:299,1,70
475,150,22702,2,0,L|417:109,1,70
294,100,23035,5,0,0:0:0:0:
329,343,23202,1,0,0:0:0:0:
294,100,23368,1,0,0:0:0:0:
169,223,23535,1,0,0:0:0:0:
294,100,23702,2,0,L|308:26,1,70
155,34,24035,2,0,L|141:102,1,70
169,223,24368,5,0,0:0:0:0:
388,112,24535,1,0,0:0:0:0:
169,223,24702,1,0,0:0:0:0:
319,312,24868,1,0,0:0:0:0:
169,223,25035,2,0,L|135:153,1,70
289,126,25368,2,0,L|319:188,1,70
319,312,25702,5,0,0:0:0:0:
185,108,25868,1,0,0:0:0:0:
319,312,26035,1,0,0:0:0:0:
388,151,26202,1,0,0:0:0:0:
319,312,26368,21,4,0:3:0:0:
310,327,26451,1,4,0:3:0:0:
302,342,26534,1,4,0:3:0:0:
293,358,26617,1,4,0:3:0:0:
285,373,26702,5,12,0:3:0:0:
325,382,26785,1,12,0:3:0:0:
363,367,26868,1,12,0:3:0:0:
386,333,26951,1,12,0:3:0:0:
386,292,27035,5,14,0:0:0:0:
149,356,27202,1,0,0:0:0:0:
386,292,27368,1,0,0:0:0:0:
243,191,27535,1,0,0:0:0:0:
386,292,27702,2,0,L|461:296,1,70
427,144,28035,2,0,L|357:140,1,70
243,191,28368,5,0,0:0:0:0:
403,377,28535,1,0,0:0:0:0:
243,191,28702,1,0,0:0:0:0:
174,351,28868,1,0,0:0:0:0:
243,191,29035,2,0,L|228:106,1,70
89,183,29368,2,0,L|101:251,1,70
174,351,29702,53,6,0:0:0:0:
311,243,29868,1,8,0:0:0:0:
322,221,29951,1,8,0:0:0:0:
327,197,30034,1,8,0:0:0:0:
326,173,30117,1,8,0:0:0:0:
318,150,30201,5,2,0:0:0:0:
232,276,30368,1,8,0:0:0:0:
244,296,30451,1,8,0:0:0:0:
262,313,30534,1,8,0:0:0:0:
284,324,30617,1,8,0:0:0:0:
308,328,30701,85,2,0:0:0:0:
243,191,30868,1,8,0:0:0:0:
218,191,30951,1,8,0:0:0:0:
195,199,31035,5,8,0:0:0:0:
213,161,31118,1,8,0:0:0:0:
215,120,31201,1,8,0:0:0:0:
200,81,31284,1,8,0:0:0:0:
171,51,31368,85,4,0:3:0:0:
192,39,31451,1,4,0:3:0:0:
213,27,31534,1,4,0:3:0:0:
235,15,31617,1,4,0:3:0:0:
256,3,31702,5,12,0:3:0:0:
261,37,31785,1,12,0:3:0:0:
281,65,31868,1,12,0:3:0:0:
312,81,31951,1,12,0:3:0:0:
348,82,32035,85,2,0:0:0:0:
367,96,32119,1,2,0:0:0:0:
382,116,32202,1,2,0:0:0:0:
389,139,32285,1,2,0:0:0:0:
389,164,32368,21,14,0:0:0:0:
487,109,32535,1,2,0:0:0:0:
490,108,32618,1,2,0:0:0:0:
493,107,32702,2,0,L|498:155,1,35,10|0,0:0|0:0,0:0:0:0:
317,185,32868,1,2,0:0:0:0:
313,184,32951,1,2,0:0:0:0:
309,183,33035,2,0,L|321:135,1,35,2|0,0:0|0:0,0:0:0:0:
463,245,33202,2,0,L|442:289,1,35,2|2,0:0|0:0,0:0:0:0:
245,230,33368,2,0,P|229:188|240:144,1,70,10|2,0:0|0:0,0:0:0:0:
235,146,33618,1,2,0:0:0:0:
239,129,33702,6,0,L|235:82,1,35,2|0,0:0|0:0,0:0:0:0:
56,137,33868,1,2,0:0:0:0:
55,140,33952,1,2,0:0:0:0:
54,143,34035,2,0,L|56:177,1,35,10|0,0:0|0:0,0:0:0:0:
250,296,34202,1,2,0:0:0:0:
254,296,34285,1,2,0:0:0:0:
258,296,34368,2,0,P|259:261|244:229,1,70,2|2,0:0|0:0,0:0:0:0:
234,214,34618,1,2,0:0:0:0:
221,201,34702,1,10,0:0:0:0:
199,345,34868,1,2,0:0:0:0:
211,359,34952,1,2,0:0:0:0:
225,367,35035,6,0,P|259:375|293:366,1,70,2|2,0:0|0:0,0:0:0:0:
308,356,35285,1,2,0:0:0:0:
319,343,35368,1,10,0:0:0:0:
328,328,35451,1,0,0:0:0:0:
334,311,35535,2,0,L|336:266,1,35,2|2,0:0|0:0,0:0:0:0:
187,274,35702,1,2,0:0:0:0:
172,265,35785,1,0,0:0:0:0:
159,252,35868,1,2,0:0:0:0:
149,238,35952,1,2,0:0:0:0:
143,222,36035,2,0,P|142:182|169:138,1,70,10|2,0:0|0:0,0:0:0:0:
166,142,36285,1,2,0:0:0:0:
181,133,36368,6,0,L|197:72,1,35,2|0,0:0|0:0,0:0:0:0:
64,81,36535,1,2,0:0:0:0:
61,83,36618,1,2,0:0:0:0:
58,85,36702,2,0,L|56:132,1,35,10|0,0:0|0:0,0:0:0:0:
221,201,36868,1,2,0:0:0:0:
224,202,36952,1,2,0:0:0:0:
227,203,37035,2,0,L|280:187,1,35,2|0,0:0|0:0,0:0:0:0:
448,266,37202,1,2,0:0:0:0:
451,267,37285,1,2,0:0:0:0:
454,268,37368,2,0,L|482:216,1,35,10|0,0:0|0:0,0:0:0:0:
345,151,37535,2,0,L|328:196,1,35,2|2,0:0|0:0,0:0:0:0:
287,340,37702,53,6,0:0:0:0:
407,187,37868,1,2,0:0:0:0:
410,189,37952,1,2,0:0:0:0:
413,191,38035,1,10,0:0:0:0:
229,129,38202,1,2,0:0:0:0:
225,130,38285,1,2,0:0:0:0:
221,130,38368,6,0,P|211:87|214:57,1,70,2|0,0:0|2:0,0:0:0:0:
288,88,38618,2,0,P|300:45|318:21,1,70,2|0,0:0|2:0,0:0:0:0:
367,85,38868,2,0,L|398:47,1,35,2|2,0:0|0:0,0:0:0:0:
479,193,39035,5,2,0:0:0:0:
297,171,39202,1,2,0:0:0:0:
294,169,39285,1,2,0:0:0:0:
291,167,39369,2,0,L|343:148,1,35,10|0,0:0|0:0,0:0:0:0:
380,320,39535,1,2,0:0:0:0:
379,323,39618,1,2,0:0:0:0:
378,326,39702,2,0,L|342:360,1,35,2|0,0:0|0:0,0:0:0:0:
208,252,39868,1,2,0:0:0:0:
206,249,39952,1,2,0:0:0:0:
204,246,40035,2,0,L|167:236,1,35,10|2,0:0|0:0,0:0:0:0:
58,343,40202,1,2,0:0:0:0:
56,347,40286,1,2,0:0:0:0:
55,351,40368,38,0,L|61:291,1,35,2|0,0:0|0:0,0:0:0:0:
171,325,40535,2,0,L|116:349,1,35,2|2,0:0|0:0,0:0:0:0:
93,234,40702,2,0,L|141:269,1,35,10|0,0:0|0:0,0:0:0:0:
204,246,40868,2,0,L|210:186,1,35,2|2,0:0|0:0,0:0:0:0:
119,129,41035,2,0,L|167:164,1,35,2|0,0:0|0:0,0:0:0:0:
264,114,41202,2,0,L|209:138,1,35,2|2,0:0|0:0,0:0:0:0:
291,191,41368,1,10,0:0:0:0:
321,173,41451,1,0,0:0:0:0:
341,145,41534,1,2,0:0:0:0:
346,111,41618,1,2,0:0:0:0:
337,77,41702,70,0,P|304:42|253:34,1,70,2|2,0:0|0:0,0:0:0:0:
255,36,41952,1,2,0:0:0:0:
227,44,42035,1,10,0:0:0:0:
201,56,42118,1,0,0:0:0:0:
174,67,42202,2,0,L|145:46,1,35,2|2,0:0|0:0,0:0:0:0:
37,96,42368,37,4,0:3:0:0:
31,130,42451,1,4,0:3:0:0:
38,164,42534,1,4,0:3:0:0:
58,193,42618,1,4,0:3:0:0:
88,212,42702,85,12,0:3:0:0:
116,254,42785,1,12,0:3:0:0:
107,304,42868,1,12,0:3:0:0:
64,332,42952,1,12,0:3:0:0:
14,322,43035,21,6,0:0:0:0:
210,303,43202,1,2,0:0:0:0:
213,303,43285,1,2,0:0:0:0:
216,304,43369,2,0,L|196:348,1,35,10|0,0:0|0:0,0:0:0:0:
51,266,43535,1,2,0:0:0:0:
47,264,43618,1,2,0:0:0:0:
44,261,43702,2,0,L|1:244,1,35,2|0,0:0|0:0,0:0:0:0:
171,173,43869,2,0,L|201:218,1,35,2|2,0:0|0:0,0:0:0:0:
290,345,44035,2,0,P|302:301|287:258,1,70,10|2,0:0|0:0,0:0:0:0:
292,260,44285,1,2,0:0:0:0:
287,243,44369,6,0,L|286:195,1,35,2|0,0:0|0:0,0:0:0:0:
405,256,44534,1,2,0:0:0:0:
404,259,44618,1,2,0:0:0:0:
404,262,44701,2,0,L|391:295,1,35,10|0,0:0|0:0,0:0:0:0:
198,202,44869,1,2,0:0:0:0:
194,202,44952,1,2,0:0:0:0:
190,202,45035,2,0,P|194:167|212:138,1,70,2|2,0:0|0:0,0:0:0:0:
225,126,45285,1,2,0:0:0:0:
241,118,45369,1,10,0:0:0:0:
216,304,45535,1,2,0:0:0:0:
197,307,45619,1,2,0:0:0:0:
179,307,45702,6,0,P|141:295|117:272,1,70,2|2,0:0|0:0,0:0:0:0:
108,260,45952,1,2,0:0:0:0:
100,244,46035,1,10,0:0:0:0:
94,227,46118,1,0,0:0:0:0:
92,210,46202,2,0,L|94:165,1,35,2|2,0:0|0:0,0:0:0:0:
286,208,46369,1,2,0:0:0:0:
300,198,46452,1,0,0:0:0:0:
314,187,46535,1,2,0:0:0:0:
324,173,46619,1,2,0:0:0:0:
333,158,46702,2,0,P|341:119|331:74,1,70,10|0,0:0|0:0,0:0:0:0:
329,73,46952,1,0,0:0:0:0:
320,57,47035,6,0,L|354:19,1,35
434,139,47202,1,2,0:0:0:0:
433,142,47285,1,2,0:0:0:0:
432,145,47368,2,0,L|421:203,1,35,10|0,0:0|0:0,0:0:0:0:
241,118,47535,1,2,0:0:0:0:
237,117,47618,1,2,0:0:0:0:
233,116,47702,2,0,L|183:128,1,35,2|0,0:0|0:0,0:0:0:0:
209,305,47868,1,2,0:0:0:0:
211,308,47952,1,2,0:0:0:0:
213,311,48035,2,0,L|259:348,1,35,10|0,0:0|0:0,0:0:0:0:
452,346,48202,2,0,L|446:288,1,35,2|2,0:0|0:0,0:0:0:0:
307,157,48368,53,6,0:0:0:0:
362,359,48535,1,2,0:0:0:0:
362,362,48618,1,2,0:0:0:0:
363,365,48702,1,10,0:0:0:0:
233,192,48868,1,2,0:0:0:0:
230,194,48952,1,2,0:0:0:0:
226,195,49035,6,0,P|187:200|140:173,1,70,2|0,0:0|2:0,0:0:0:0:
198,124,49285,2,0,P|166:99|152:47,1,70,2|0,0:0|2:0,0:0:0:0:
228,53,49535,2,0,L|228:8,1,35,2|2,0:0|0:0,0:0:0:0:
324,191,49702,5,2,0:0:0:0:
389,35,49868,1,2,0:0:0:0:
391,32,49952,1,2,0:0:0:0:
393,29,50035,2,0,L|428:71,1,35,10|0,0:0|0:0,0:0:0:0:
462,226,50202,1,2,0:0:0:0:
460,229,50285,1,2,0:0:0:0:
458,232,50368,2,0,L|408:229,1,35,2|0,0:0|0:0,0:0:0:0:
268,126,50535,1,2,0:0:0:0:
266,123,50618,1,2,0:0:0:0:
264,120,50702,2,0,L|290:83,1,35,10|0,0:0|0:0,0:0:0:0:
353,263,50868,1,2,0:0:0:0:
355,266,50951,1,2,0:0:0:0:
357,269,51035,38,0,L|353:312,1,35,2|0,0:0|0:0,0:0:0:0:
262,155,51202,2,0,L|265:120,1,35,2|2,0:0|0:0,0:0:0:0:
253,260,51368,2,0,L|218:256,1,35,10|0,0:0|0:0,0:0:0:0:
366,164,51535,2,0,L|400:167,1,35,2|2,0:0|0:0,0:0:0:0:
268,85,51702,2,0,L|264:119,1,35,2|0,0:0|0:0,0:0:0:0:
183,185,51868,2,0,L|186:150,1,35,2|2,0:0|0:0,0:0:0:0:
118,69,52035,2,0,L|114:103,1,35,10|0,0:0|0:0,0:0:0:0:
33,169,52201,2,0,L|36:134,1,35,2|2,0:0|0:0,0:0:0:0:
194,78,52368,5,14,0:0:0:0:
108,176,52536,1,14,0:0:0:0:
123,231,52619,1,8,0:0:0:0:
174,260,52702,1,8,0:0:0:0:
230,245,52786,1,8,0:0:0:0:
259,195,52869,1,8,0:0:0:0:
264,136,52952,1,8,0:0:0:0:
293,86,53035,53,12,0:3:0:0:
318,110,53118,1,12,0:3:0:0:
351,117,53201,1,12,0:3:0:0:
385,108,53284,1,12,0:3:0:0:
409,84,53368,85,12,0:3:0:0:
395,73,53452,1,2,0:0:0:0:
381,62,53535,1,2,0:0:0:0:
367,51,53618,1,2,0:0:0:0:
354,40,53702,69,14,0:0:0:0:
414,312,53868,1,2,0:0:0:0:
183,185,54035,1,12,0:0:0:0:
417,313,54202,1,2,0:0:0:0:
314,131,54368,1,12,0:0:0:0:
420,314,54535,1,2,0:0:0:0:
234,308,54702,1,12,0:0:0:0:
423,315,54869,1,2,0:0:0:0:
427,317,54952,1,2,0:0:0:0:
430,318,55035,5,12,0:0:0:0:
183,185,55202,1,2,0:0:0:0:
396,30,55368,1,12,0:0:0:0:
179,185,55535,1,2,0:0:0:0:
389,169,55702,1,12,0:0:0:0:
301,356,55868,1,2,0:0:0:0:
301,359,55952,1,2,0:0:0:0:
301,362,56035,1,12,0:0:0:0:
176,186,56201,1,2,0:0:0:0:
173,187,56285,1,2,0:0:0:0:
170,188,56368,5,12,0:0:0:0:
445,245,56535,1,2,0:0:0:0:
321,14,56702,1,12,0:0:0:0:
445,248,56868,1,2,0:0:0:0:
263,142,57035,1,12,0:0:0:0:
445,251,57202,1,2,0:0:0:0:
439,66,57368,1,12,0:0:0:0:
446,255,57535,1,2,0:0:0:0:
446,258,57618,1,2,0:0:0:0:
447,262,57701,5,12,0:0:0:0:
253,59,57868,1,2,0:0:0:0:
283,320,58035,1,12,0:0:0:0:
252,55,58202,1,2,0:0:0:0:
119,218,58369,1,12,0:0:0:0:
329,255,58535,1,2,0:0:0:0:
328,254,58619,1,2,0:0:0:0:
331,256,58702,1,12,0:0:0:0:
252,52,58868,1,2,0:0:0:0:
252,48,58952,1,2,0:0:0:0:
252,45,59035,53,12,0:0:0:0:
155,308,59202,1,2,0:0:0:0:
412,251,59368,1,12,0:0:0:0:
151,309,59535,1,2,0:0:0:0:
167,100,59702,1,12,0:0:0:0:
148,311,59868,1,2,0:0:0:0:
300,203,60035,1,12,0:0:0:0:
145,313,60202,1,2,0:0:0:0:
142,315,60285,1,2,0:0:0:0:
139,316,60368,5,12,0:0:0:0:
119,37,60535,1,2,0:0:0:0:
236,271,60702,1,12,0:0:0:0:
116,34,60868,1,2,0:0:0:0:
287,156,61035,1,12,0:0:0:0:
99,243,61201,1,2,0:0:0:0:
96,245,61285,1,2,0:0:0:0:
93,247,61368,1,12,0:0:0:0:
113,31,61534,1,2,0:0:0:0:
110,28,61618,1,2,0:0:0:0:
107,25,61701,5,12,0:0:0:0:
296,236,61868,1,2,0:0:0:0:
412,0,62035,1,12,0:0:0:0:
295,239,62202,1,2,0:0:0:0:
240,38,62368,1,12,0:0:0:0:
295,242,62535,1,2,0:0:0:0:
361,70,62702,1,12,0:0:0:0:
295,246,62868,1,2,0:0:0:0:
295,249,62951,1,2,0:0:0:0:
295,253,63034,5,12,0:0:0:0:
65,90,63202,1,0,0:0:0:0:
317,13,63368,1,12,0:0:0:0:
61,89,63535,1,0,0:0:0:0:
253,177,63702,1,12,0:0:0:0:
58,88,63868,1,2,0:0:0:0:
54,88,63952,1,8,0:0:0:0:
51,87,64035,37,8,0:0:0:0:
18,126,64118,1,8,0:0:0:0:
17,178,64201,1,2,0:0:0:0:
48,219,64285,1,2,0:0:0:0:
98,232,64368,85,12,0:0:0:0:
308,26,64535,1,2,0:0:0:0:
98,232,64702,1,12,0:0:0:0:
342,220,64868,1,2,0:0:0:0:
98,232,65035,1,12,0:0:0:0:
191,75,65202,1,2,0:0:0:0:
220,269,65368,1,12,0:0:0:0:
191,75,65535,2,0,L|232:104,1,35,2|2,0:0|0:0,0:0:0:0:
342,220,65702,5,12,0:0:0:0:
63,310,65868,1,2,0:0:0:0:
342,220,66035,1,12,0:0:0:0:
117,122,66202,1,2,0:0:0:0:
342,220,66368,1,12,0:0:0:0:
189,320,66535,2,0,L|167:284,1,35,2|2,0:0|0:0,0:0:0:0:
249,133,66702,1,12,0:0:0:0:
189,320,66868,2,0,L|167:284,1,35,2|2,0:0|0:0,0:0:0:0:
117,122,67035,85,12,0:0:0:0:
361,287,67202,1,2,0:0:0:0:
117,122,67368,1,12,0:0:0:0:
361,90,67535,1,2,0:0:0:0:
117,122,67702,1,12,0:0:0:0:
236,259,67868,1,2,0:0:0:0:
230,63,68035,1,12,0:0:0:0:
236,259,68202,2,0,L|272:234,1,35,2|2,0:0|0:0,0:0:0:0:
361,90,68368,5,12,0:0:0:0:
464,366,68535,1,2,0:0:0:0:
361,90,68702,1,12,0:0:0:0:
273,318,68868,1,2,0:0:0:0:
361,90,69035,1,12,0:0:0:0:
467,239,69202,2,0,L|438:265,1,35,2|2,0:0|0:0,0:0:0:0:
279,187,69368,1,12,0:0:0:0:
467,239,69535,2,0,L|438:265,1,35,2|2,0:0|0:0,0:0:0:0:
273,318,69702,85,12,0:0:0:0:
324,30,69868,1,2,0:0:0:0:
273,318,70035,1,12,0:0:0:0:
145,108,70202,1,2,0:0:0:0:
273,318,70368,1,12,0:0:0:0:
351,152,70535,1,2,0:0:0:0:
175,238,70702,1,12,0:0:0:0:
351,152,70868,2,0,L|318:131,1,35,2|2,0:0|0:0,0:0:0:0:
145,108,71035,5,12,0:0:0:0:
345,324,71202,1,2,0:0:0:0:
145,108,71368,1,12,0:0:0:0:
151,354,71535,1,2,0:0:0:0:
145,108,71702,1,12,0:0:0:0:
299,204,71868,2,0,L|277:239,1,35,2|2,0:0|0:0,0:0:0:0:
107,228,72035,1,12,0:0:0:0:
299,204,72202,2,0,L|277:239,1,35,2|2,0:0|0:0,0:0:0:0:
151,354,72368,85,12,0:0:0:0:
79,68,72535,1,2,0:0:0:0:
151,354,72702,1,12,0:0:0:0:
263,137,72868,1,2,0:0:0:0:
151,354,73035,1,12,0:0:0:0:
64,202,73202,1,2,0:0:0:0:
247,270,73368,1,12,0:0:0:0:
64,202,73535,2,0,L|73:240,1,35,2|2,0:0|0:0,0:0:0:0:
151,354,73702,5,12,0:0:0:0:
181,112,73868,1,2,0:0:0:0:
181,108,73952,1,2,0:0:0:0:
181,104,74035,1,12,0:0:0:0:
316,265,74202,1,2,0:0:0:0:
324,271,74285,1,2,0:0:0:0:
332,277,74368,86,0,L|376:271,1,35,12|12,0:3|0:3,0:0:0:0:
344,126,74535,1,2,0:0:0:0:
320,123,74618,1,2,0:0:0:0:
296,120,74702,6,0,L|251:143,1,35,12|12,0:3|0:3,0:0:0:0:
215,266,74868,1,2,0:0:0:0:
194,294,74952,1,2,0:0:0:0:
173,322,75035,5,4,0:0:0:0:
112,196,75202,1,2,0:0:0:0:
113,192,75285,1,2,0:0:0:0:
114,188,75368,2,0,L|164:173,1,35,10|0,0:0|0:0,0:0:0:0:
272,327,75535,1,2,0:0:0:0:
274,330,75618,1,2,0:0:0:0:
276,333,75702,2,0,L|337:349,1,35,2|0,0:0|0:0,0:0:0:0:
410,245,75868,2,0,L|377:216,1,35,2|2,0:0|0:0,0:0:0:0:
236,232,76035,2,0,P|235:187|260:149,1,70,10|2,0:0|0:0,0:0:0:0:
255,149,76285,1,2,0:0:0:0:
264,135,76369,6,0,L|293:97,1,35,2|0,0:0|0:0,0:0:0:0:
383,221,76535,1,2,0:0:0:0:
384,224,76618,1,2,0:0:0:0:
385,227,76702,2,0,L|332:257,1,35,10|0,0:0|0:0,0:0:0:0:
217,300,76869,1,2,0:0:0:0:
214,301,76952,1,2,0:0:0:0:
211,302,77035,2,0,P|181:282|164:252,1,70,2|2,0:0|0:0,0:0:0:0:
157,234,77285,1,2,0:0:0:0:
153,216,77369,1,10,0:0:0:0:
285,281,77535,1,2,0:0:0:0:
289,299,77619,1,2,0:0:0:0:
287,315,77702,6,0,P|274:347|247:370,1,70,2|2,0:0|0:0,0:0:0:0:
231,377,77952,1,2,0:0:0:0:
214,378,78035,1,10,0:0:0:0:
196,377,78118,1,0,0:0:0:0:
179,372,78202,2,0,L|140:347,1,35,2|2,0:0|0:0,0:0:0:0:
236,232,78369,1,2,0:0:0:0:
249,221,78452,1,0,0:0:0:0:
265,214,78535,1,2,0:0:0:0:
283,211,78618,1,2,0:0:0:0:
300,215,78702,2,0,P|340:240|352:280,1,70,10|2,0:0|0:0,0:0:0:0:
352,276,78952,1,2,0:0:0:0:
353,293,79035,6,0,L|393:343,1,35,2|0,0:0|0:0,0:0:0:0:
434,204,79202,1,2,0:0:0:0:
431,201,79285,1,2,0:0:0:0:
428,198,79368,2,0,L|389:154,1,35,10|0,0:0|0:0,0:0:0:0:
285,281,79535,1,2,0:0:0:0:
285,284,79618,1,2,0:0:0:0:
285,287,79702,2,0,L|256:334,1,35,2|0,0:0|0:0,0:0:0:0:
107,217,79868,1,2,0:0:0:0:
107,213,79952,1,2,0:0:0:0:
107,209,80035,2,0,L|126:154,1,35,10|0,0:0|0:0,0:0:0:0:
215,44,80202,2,0,L|244:94,1,35,2|2,0:0|0:0,0:0:0:0:
306,217,80368,53,6,0:0:0:0:
161,100,80535,1,2,0:0:0:0:
157,101,80618,1,2,0:0:0:0:
153,102,80702,1,10,0:0:0:0:
133,287,80868,1,2,0:0:0:0:
133,291,80951,1,2,0:0:0:0:
133,295,81035,6,0,P|138:338|154:370,1,70,2|0,0:0|2:0,0:0:0:0:
210,312,81285,2,0,P|235:348|261:364,1,70,2|0,0:0|2:0,0:0:0:0:
285,287,81534,2,0,L|327:312,1,35,2|2,0:0|0:0,0:0:0:0:
365,141,81702,5,2,0:0:0:0:
194,174,81868,1,2,0:0:0:0:
190,176,81951,1,2,0:0:0:0:
187,178,82034,2,0,L|201:219,1,35,10|0,0:0|0:0,0:0:0:0:
370,262,82202,1,0,0:0:0:0:
373,260,82285,1,0,0:0:0:0:
375,257,82368,2,0,L|362:206,1,35
268,79,82535,1,2,0:0:0:0:
265,77,82618,1,2,0:0:0:0:
262,75,82702,2,0,L|269:31,1,35,10|0,0:0|0:0,0:0:0:0:
452,27,82868,1,2,0:0:0:0:
458,34,82952,1,2,0:0:0:0:
457,33,83035,38,0,L|451:93,1,35,2|0,0:0|0:0,0:0:0:0:
341,59,83201,2,0,L|396:35,1,35,2|2,0:0|0:0,0:0:0:0:
419,150,83368,2,0,L|371:115,1,35,10|0,0:0|0:0,0:0:0:0:
308,138,83534,2,0,L|302:198,1,35,2|2,0:0|0:0,0:0:0:0:
393,255,83701,2,0,L|345:220,1,35,2|0,0:0|0:0,0:0:0:0:
248,270,83868,2,0,L|303:246,1,35,2|2,0:0|0:0,0:0:0:0:
221,193,84034,1,10,0:0:0:0:
191,211,84117,1,0,0:0:0:0:
171,239,84202,1,2,0:0:0:0:
166,273,84284,1,2,0:0:0:0:
175,307,84368,70,0,P|208:342|259:350,1,70,2|2,0:0|0:0,0:0:0:0:
257,348,84618,1,2,0:0:0:0:
285,340,84701,1,10,0:0:0:0:
311,328,84784,1,0,0:0:0:0:
338,317,84868,2,0,L|367:338,1,35,2|2,0:0|0:0,0:0:0:0:
475,288,85034,37,4,0:3:0:0:
481,254,85117,1,4,0:3:0:0:
474,220,85202,1,4,0:3:0:0:
454,191,85284,1,4,0:3:0:0:
424,172,85368,85,12,0:3:0:0:
396,130,85451,1,12,0:3:0:0:
405,80,85534,1,12,0:3:0:0:
448,52,85618,1,12,0:3:0:0:
498,62,85701,21,6,0:0:0:0:
393,255,85868,1,2,0:0:0:0:
389,255,85952,1,2,0:0:0:0:
385,255,86035,2,0,L|349:221,1,35,10|0,0:0|0:0,0:0:0:0:
187,169,86202,1,2,0:0:0:0:
185,172,86285,1,2,0:0:0:0:
183,175,86368,2,0,L|191:229,1,35,2|0,0:0|0:0,0:0:0:0:
320,142,86535,2,0,L|303:94,1,35,2|2,0:0|0:0,0:0:0:0:
117,234,86702,2,0,P|142:271|185:287,1,70,10|2,0:0|0:0,0:0:0:0:
180,286,86952,1,2,0:0:0:0:
197,287,87036,6,0,L|225:342,1,35,2|0,0:0|0:0,0:0:0:0:
359,230,87202,1,2,0:0:0:0:
360,226,87285,1,2,0:0:0:0:
360,222,87368,2,0,L|377:176,1,35,10|0,0:0|0:0,0:0:0:0:
211,117,87535,1,2,0:0:0:0:
207,114,87618,1,2,0:0:0:0:
203,112,87701,2,0,P|183:141|178:175,1,70,2|2,0:0|0:0,0:0:0:0:
182,193,87951,1,2,0:0:0:0:
188,209,88035,1,10,0:0:0:0:
289,50,88201,1,2,0:0:0:0:
277,36,88285,1,2,0:0:0:0:
263,24,88368,6,0,P|226:8|193:10,1,70,2|2,0:0|0:0,0:0:0:0:
178,13,88618,1,2,0:0:0:0:
161,21,88701,1,10,0:0:0:0:
146,31,88784,1,0,0:0:0:0:
133,43,88868,2,0,L|105:78,1,35,2|2,0:0|0:0,0:0:0:0:
264,173,89035,1,2,0:0:0:0:
281,176,89118,1,0,0:0:0:0:
298,176,89202,1,2,0:0:0:0:
316,174,89285,1,2,0:0:0:0:
332,170,89368,2,0,P|369:147|399:107,1,70,10|2,0:0|0:0,0:0:0:0:
395,112,89618,1,2,0:0:0:0:
399,94,89702,6,0,L|448:76,1,35,2|0,0:0|0:0,0:0:0:0:
405,233,89868,1,2,0:0:0:0:
402,235,89952,1,2,0:0:0:0:
399,237,90035,2,0,L|350:264,1,35,10|0,0:0|0:0,0:0:0:0:
306,89,90202,1,2,0:0:0:0:
304,85,90285,1,2,0:0:0:0:
302,82,90368,2,0,L|244:60,1,35,2|0,0:0|0:0,0:0:0:0:
179,221,90535,1,2,0:0:0:0:
179,224,90618,1,2,0:0:0:0:
179,227,90702,2,0,L|216:279,1,35,10|0,0:0|0:0,0:0:0:0:
395,161,90868,2,0,L|380:104,1,35,2|2,0:0|0:0,0:0:0:0:
187,70,91035,53,6,0:0:0:0:
84,237,91202,1,2,0:0:0:0:
83,240,91285,1,2,0:0:0:0:
81,243,91368,1,10,0:0:0:0:
246,184,91535,1,2,0:0:0:0:
248,181,91619,1,2,0:0:0:0:
253,181,91702,6,0,P|291:176|339:202,1,70,2|0,0:0|2:0,0:0:0:0:
281,252,91952,2,0,P|312:277|326:329,1,70,2|0,0:0|2:0,0:0:0:0:
251,323,92202,2,0,L|250:367,1,35,2|2,0:0|0:0,0:0:0:0:
141,214,92368,5,2,0:0:0:0:
77,361,92535,1,2,0:0:0:0:
74,363,92618,1,2,0:0:0:0:
71,365,92702,2,0,L|54:319,1,35,10|0,0:0|0:0,0:0:0:0:
203,251,92868,1,2,0:0:0:0:
203,254,92952,1,2,0:0:0:0:
202,257,93035,2,0,L|152:296,1,35,2|0,0:0|0:0,0:0:0:0:
54,148,93202,1,2,0:0:0:0:
53,144,93285,1,2,0:0:0:0:
52,140,93368,2,0,L|54:103,1,35,10|0,0:0|0:0,0:0:0:0:
214,46,93535,1,2,0:0:0:0:
216,43,93618,1,2,0:0:0:0:
218,40,93702,38,0,L|239:2,1,35,2|0,0:0|0:0,0:0:0:0:
256,183,93869,2,0,L|238:213,1,35,2|2,0:0|0:0,0:0:0:0:
309,92,94035,2,0,L|339:110,1,35,10|0,0:0|0:0,0:0:0:0:
166,132,94202,2,0,L|136:114,1,35,2|2,0:0|0:0,0:0:0:0:
222,244,94369,2,0,L|239:214,1,35,2|0,0:0|0:0,0:0:0:0:
341,190,94535,2,0,L|323:220,1,35,2|2,0:0|0:0,0:0:0:0:
350,322,94702,2,0,L|367:292,1,35,10|0,0:0|0:0,0:0:0:0:
470,267,94868,2,0,L|452:297,1,35,2|2,0:0|0:0,0:0:0:0:
276,303,95035,5,6,0:0:0:0:
270,114,95202,1,8,0:0:0:0:
315,89,95285,1,8,0:0:0:0:
367,90,95368,2,0,L|435:127,1,52.5000020027161,6|0,0:0|0:0,0:0:0:0:
276,303,95535,1,8,0:0:0:0:
229,324,95618,1,8,0:0:0:0:
179,312,95702,37,2,0:0:0:0:
186,288,95785,1,12,0:3:0:0:
187,264,95868,1,12,0:3:0:0:
182,240,95951,1,12,0:3:0:0:
170,219,96035,5,2,0:0:0:0:
153,232,96118,1,2,0:0:0:0:
137,245,96201,1,2,0:0:0:0:
120,258,96284,1,2,0:0:0:0:
104,271,96368,54,0,P|50:264|16:218,1,105,6|2,0:0|0:0,0:0:0:0:
17,218,96952,1,2,0:0:0:0:
17,209,97035,1,8,0:0:0:0:
19,200,97368,5,0,0:0:0:0:
38,339,97535,1,0,0:0:0:0:
87,200,97702,5,6,0:0:0:0:
142,243,97868,2,0,P|113:265|70:268,1,70,2|2,0:0|0:0,0:0:0:0:
71,267,98285,1,2,0:0:0:0:
62,264,98368,1,8,0:0:0:0:
54,260,98702,5,0,0:0:0:0:
172,320,98868,1,0,0:0:0:0:
195,111,99035,53,8,0:0:0:0:
219,249,99202,1,2,0:0:0:0:
87,200,99368,1,2,0:0:0:0:
220,109,99535,5,8,0:0:0:0:
219,249,99702,1,2,0:0:0:0:
98,177,99868,1,2,0:0:0:0:
245,112,100035,5,8,0:0:0:0:
219,249,100202,1,2,0:0:0:0:
113,157,100368,1,2,0:0:0:0:
269,119,100535,5,8,0:0:0:0:
219,249,100702,1,8,0:0:0:0:
219,275,100785,1,8,0:0:0:0:
228,299,100868,1,8,0:0:0:0:
245,319,100951,1,8,0:0:0:0:
267,333,101035,37,12,0:3:0:0:
281,317,101118,1,12,0:3:0:0:
298,305,101201,1,12,0:3:0:0:
318,298,101285,1,2,0:0:0:0:
340,296,101368,85,2,0:0:0:0:
344,275,101451,1,2,0:0:0:0:
350,256,101534,1,2,0:0:0:0:
355,236,101617,1,2,0:0:0:0:
360,216,101702,22,0,P|351:164|313:123,1,105,6|2,0:0|0:0,0:0:0:0:
304,120,102285,1,2,0:0:0:0:
290,117,102368,1,8,0:0:0:0:
275,117,102702,5,0,0:0:0:0:
399,82,102868,1,0,0:0:0:0:
273,203,103036,5,4,0:0:0:0:
334,171,103202,2,0,P|341:206|326:246,1,70,2|2,0:0|0:0,0:0:0:0:
327,245,103619,1,2,0:0:0:0:
320,252,103703,1,8,0:0:0:0:
314,257,104036,5,0,0:0:0:0:
412,163,104202,1,0,0:0:0:0:
348,325,104368,53,4,0:3:0:0:
346,328,104452,1,4,0:3:0:0:
344,331,104535,2,0,L|313:359,1,35,2|2,0:0|0:0,0:0:0:0:
256,321,104702,5,4,0:3:0:0:
253,323,104786,1,4,0:3:0:0:
250,325,104869,2,0,L|212:344,1,35,2|2,0:0|0:0,0:0:0:0:
171,291,105035,5,12,0:3:0:0:
167,292,105119,1,12,0:3:0:0:
164,293,105202,2,0,L|123:301,1,35,2|2,0:0|0:0,0:0:0:0:
93,241,105368,5,4,0:3:0:0:
89,241,105452,1,4,0:3:0:0:
86,242,105535,2,0,L|44:239,1,35,2|2,0:0|0:0,0:0:0:0:
34,173,105702,21,8,0:0:0:0:
49,165,105785,1,8,0:0:0:0:
66,160,105868,1,2,0:0:0:0:
84,158,105951,1,2,0:0:0:0:
101,159,106035,1,8,0:0:0:0:
118,163,106118,1,10,0:0:0:0:
134,169,106201,1,2,0:0:0:0:
149,178,106285,1,0,0:0:0:0:
163,189,106368,5,8,0:0:0:0:
180,207,106452,1,8,0:0:0:0:
204,226,106535,1,8,0:0:0:0:
239,241,106618,1,8,0:0:0:0:
284,244,106702,1,8,0:0:0:0:
333,227,106785,1,8,0:0:0:0:
376,186,106868,1,8,0:0:0:0:
397,122,106952,1,8,0:0:0:0:
381,47,107035,5,12,0:0:0:0:
346,115,107202,2,0,P|370:124|397:122,1,52.5,8|2,0:0|0:0,0:0:0:0:
432,106,107535,1,8,0:0:0:0:
381,47,107702,1,2,0:0:0:0:
304,50,107868,1,8,0:0:0:0:
278,79,107952,2,0,P|270:103|269:126,1,35,2|2,0:0|0:0,0:0:0:0:
278,150,108202,1,8,0:0:0:0:
343,194,108368,5,2,0:0:0:0:
278,236,108535,2,0,P|267:212|266:186,1,52.5,8|2,0:0|0:0,0:0:0:0:
278,150,108868,1,8,0:0:0:0:
343,194,109035,1,2,0:0:0:0:
347,270,109201,1,8,0:0:0:0:
321,299,109285,2,0,P|297:309|275:312,1,35,2|2,0:0|0:0,0:0:0:0:
250,307,109535,1,8,0:0:0:0:
183,270,109702,5,2,0:0:0:0:
250,307,109869,2,0,P|233:328|211:342,1,52.5,8|2,0:0|0:0,0:0:0:0:
173,345,110202,1,8,0:0:0:0:
183,270,110369,1,2,0:0:0:0:
245,230,110535,1,8,0:0:0:0:
282,240,110619,2,0,P|301:255|315:274,1,35,2|2,0:0|0:0,0:0:0:0:
321,299,110869,1,8,0:0:0:0:
293,369,111035,5,2,0:0:0:0:
237,315,111202,2,0,P|257:299|287:290,1,52.5,8|2,0:0|0:0,0:0:0:0:
321,299,111535,1,8,0:0:0:0:
369,360,111702,1,2,0:0:0:0:
398,289,111868,1,8,0:0:0:0:
382,253,111952,1,2,0:0:0:0:
352,229,112035,2,0,P|322:206|305:158,1,70,0|8,0:0|0:0,0:0:0:0:
452,134,112368,53,6,0:0:0:0:
380,160,112535,2,0,P|374:134|379:108,1,52.5,8|2,0:0|0:0,0:0:0:0:
399,78,112868,1,8,0:0:0:0:
452,134,113035,1,2,0:0:0:0:
380,160,113202,1,8,0:0:0:0:
377,168,113285,1,2,0:0:0:0:
303,146,113452,1,2,0:0:0:0:
300,138,113535,1,8,0:0:0:0:
244,191,113702,5,2,0:0:0:0:
218,119,113869,2,0,P|243:113|269:118,1,52.5,8|2,0:0|0:0,0:0:0:0:
300,138,114202,1,8,0:0:0:0:
244,191,114368,1,2,0:0:0:0:
169,170,114535,1,8,0:0:0:0:
163,164,114618,1,2,0:0:0:0:
189,245,114785,1,2,0:0:0:0:
192,253,114868,1,8,0:0:0:0:
115,225,115035,5,2,0:0:0:0:
38,217,115202,2,0,P|43:191|58:170,1,52.5,8|2,0:0|0:0,0:0:0:0:
90,151,115535,1,8,0:0:0:0:
115,225,115702,1,2,0:0:0:0:
70,287,115868,1,8,0:0:0:0:
65,294,115952,1,2,0:0:0:0:
147,296,116118,1,2,0:0:0:0:
151,304,116202,1,8,0:0:0:0:
194,235,116369,5,2,0:0:0:0:
232,301,116535,2,0,P|208:311|182:311,1,52.5,8|2,0:0|0:0,0:0:0:0:
147,296,116868,1,8,0:0:0:0:
194,235,117035,2,0,L|231:217,1,35,2|8,0:0|0:0,0:0:0:0:
246,221,117285,2,0,L|298:195,1,52.5000020027161,2|2,0:0|0:0,0:0:0:0:
320,197,117535,2,0,L|358:178,1,35,8|0,0:0|0:0,0:0:0:0:
284,123,117702,53,12,0:0:0:0:
263,135,117785,1,0,0:0:0:0:
247,154,117868,1,8,0:0:0:0:
237,176,117951,1,0,0:0:0:0:
234,200,118035,1,0,0:0:0:0:
238,224,118118,1,2,0:0:0:0:
249,246,118201,1,8,0:0:0:0:
266,263,118285,1,0,0:0:0:0:
288,275,118368,1,2,0:0:0:0:
312,280,118451,1,0,0:0:0:0:
336,277,118535,1,8,0:0:0:0:
360,273,118618,1,2,0:0:0:0:
384,278,118701,1,0,0:0:0:0:
405,290,118784,1,2,0:0:0:0:
421,308,118868,2,0,L|448:357,1,35,8|0,0:0|0:0,0:0:0:0:
357,350,119035,5,2,0:0:0:0:
348,334,119118,1,0,0:0:0:0:
344,317,119202,1,8,0:0:0:0:
344,300,119284,1,0,0:0:0:0:
347,283,119368,1,0,0:0:0:0:
355,267,119451,1,2,0:0:0:0:
365,253,119535,1,8,0:0:0:0:
379,242,119618,1,0,0:0:0:0:
394,234,119702,1,2,0:0:0:0:
409,226,119785,1,0,0:0:0:0:
423,215,119868,1,8,0:0:0:0:
434,201,119951,1,2,0:0:0:0:
441,186,120035,1,0,0:0:0:0:
445,169,120118,1,2,0:0:0:0:
445,151,120202,2,0,L|440:109,1,35,8|0,0:0|0:0,0:0:0:0:
362,156,120368,5,2,0:0:0:0:
345,162,120451,1,0,0:0:0:0:
330,170,120535,1,8,0:0:0:0:
315,180,120617,1,0,0:0:0:0:
302,191,120701,1,0,0:0:0:0:
290,204,120785,1,2,0:0:0:0:
277,215,120869,1,8,0:0:0:0:
261,224,120951,1,0,0:0:0:0:
244,228,121034,1,2,0:0:0:0:
227,228,121118,1,0,0:0:0:0:
210,224,121202,1,8,0:0:0:0:
195,215,121284,1,2,0:0:0:0:
182,203,121368,1,0,0:0:0:0:
173,189,121451,1,2,0:0:0:0:
167,172,121535,2,0,L|161:124,1,35,8|0,0:0|0:0,0:0:0:0:
236,157,121702,5,2,0:0:0:0:
237,167,121785,1,0,0:0:0:0:
238,177,121868,1,8,0:0:0:0:
236,188,121951,1,0,0:0:0:0:
234,198,122035,1,0,0:0:0:0:
229,207,122118,1,2,0:0:0:0:
224,216,122201,1,8,0:0:0:0:
217,224,122285,1,0,0:0:0:0:
209,231,122368,1,2,0:0:0:0:
200,236,122451,1,0,0:0:0:0:
190,240,122535,1,8,0:0:0:0:
180,243,122618,1,2,0:0:0:0:
170,244,122701,1,0,0:0:0:0:
159,244,122785,1,2,0:0:0:0:
149,241,122868,2,0,L|105:228,1,35,8|0,0:0|0:0,0:0:0:0:
112,305,123035,53,6,0:0:0:0:
118,307,123118,1,0,0:0:0:0:
124,310,123201,1,8,0:0:0:0:
131,312,123284,1,0,0:0:0:0:
138,314,123368,1,0,0:0:0:0:
145,316,123451,1,2,0:0:0:0:
151,317,123534,1,8,0:0:0:0:
158,318,123618,1,0,0:0:0:0:
165,318,123701,1,2,0:0:0:0:
172,318,123784,1,0,0:0:0:0:
179,318,123868,1,8,0:0:0:0:
186,317,123951,1,2,0:0:0:0:
193,317,124035,2,0,L|240:307,1,35,0|2,0:0|0:0,0:0:0:0:
221,239,124202,2,0,L|186:246,1,35,8|2,0:0|0:0,0:0:0:0:
284,269,124368,5,2,0:0:0:0:
290,241,124451,1,0,0:0:0:0:
286,214,124534,1,8,0:0:0:0:
271,191,124617,1,0,0:0:0:0:
248,175,124702,5,0,0:0:0:0:
250,140,124785,1,2,0:0:0:0:
266,109,124868,1,8,0:0:0:0:
293,87,124951,1,0,0:0:0:0:
326,78,125035,5,2,0:0:0:0:
324,119,125118,1,0,0:0:0:0:
343,156,125201,1,8,0:0:0:0:
378,178,125284,1,2,0:0:0:0:
419,179,125368,21,0,0:0:0:0:
372,192,125451,1,2,0:0:0:0:
342,230,125534,1,8,0:0:0:0:
340,278,125617,1,0,0:0:0:0:
366,319,125701,5,2,0:0:0:0:
496,175,125868,1,8,0:0:0:0:
478,127,125951,1,0,0:0:0:0:
434,101,126034,1,0,0:0:0:0:
383,108,126117,1,2,0:0:0:0:
348,146,126202,1,8,0:0:0:0:
314,185,126285,1,0,0:0:0:0:
264,199,126368,86,0,P|199:178|178:120,1,105.000004005432,2|8,0:0|0:0,0:0:0:0:
256,27,126618,2,0,P|270:93|230:140,1,105.000004005432,2|2,0:0|0:0,0:0:0:0:
194,71,126868,1,8,0:0:0:0:
264,199,127035,5,14,0:0:0:0:
194,71,127202,1,8,0:0:0:0:
137,82,127285,1,8,0:0:0:0:
103,129,127368,2,0,L|102:210,1,52.5000020027161,8|0,0:0|0:0,0:0:0:0:
264,199,127535,1,8,0:0:0:0:
342,46,127702,85,8,0:0:0:0:
357,55,127786,1,8,0:0:0:0:
370,67,127869,1,2,0:0:0:0:
380,81,127952,1,2,0:0:0:0:
387,96,128035,5,10,0:0:0:0:
337,85,128119,1,10,0:0:0:0:
289,104,128202,1,10,0:0:0:0:
261,147,128285,1,10,0:0:0:0:
264,199,128369,5,14,0:0:0:0:
40,33,128535,1,2,0:0:0:0:
70,293,128702,1,12,0:0:0:0:
38,29,128868,1,2,0:0:0:0:
144,212,129035,1,12,0:0:0:0:
36,26,129202,1,2,0:0:0:0:
1,210,129368,1,12,0:0:0:0:
34,23,129535,1,2,0:0:0:0:
33,20,129619,1,2,0:0:0:0:
31,17,129702,5,12,0:0:0:0:
61,295,129868,1,2,0:0:0:0:
224,89,130035,1,12,0:0:0:0:
58,297,130202,1,2,0:0:0:0:
60,90,130368,1,12,0:0:0:0:
241,194,130535,1,2,0:0:0:0:
244,195,130618,1,2,0:0:0:0:
247,196,130702,1,12,0:0:0:0:
56,300,130868,1,2,0:0:0:0:
53,302,130951,1,2,0:0:0:0:
51,305,131035,5,12,0:0:0:0:
170,51,131202,1,2,0:0:0:0:
242,304,131368,1,12,0:0:0:0:
169,47,131535,1,2,0:0:0:0:
113,250,131702,1,12,0:0:0:0:
169,44,131868,1,2,0:0:0:0:
31,170,132035,1,12,0:0:0:0:
169,40,132202,1,2,0:0:0:0:
169,37,132285,1,2,0:0:0:0:
169,33,132368,5,12,0:0:0:0:
343,254,132535,1,2,0:0:0:0:
82,270,132702,1,12,0:0:0:0:
346,255,132868,1,2,0:0:0:0:
182,124,133035,1,12,0:0:0:0:
155,333,133202,1,2,0:0:0:0:
153,336,133285,1,2,0:0:0:0:
151,339,133368,1,12,0:0:0:0:
349,256,133534,1,2,0:0:0:0:
353,257,133618,1,2,0:0:0:0:
356,258,133701,53,12,0:0:0:0:
97,151,133868,1,2,0:0:0:0:
354,94,134035,1,12,0:0:0:0:
93,151,134202,1,2,0:0:0:0:
299,173,134368,1,12,0:0:0:0:
90,151,134535,1,2,0:0:0:0:
210,293,134702,1,12,0:0:0:0:
86,151,134868,1,2,0:0:0:0:
83,151,134951,1,2,0:0:0:0:
79,151,135034,5,12,0:0:0:0:
333,27,135202,1,2,0:0:0:0:
294,288,135368,1,12,0:0:0:0:
335,24,135535,1,2,0:0:0:0:
410,221,135702,1,12,0:0:0:0:
204,184,135868,1,2,0:0:0:0:
201,186,135952,1,2,0:0:0:0:
198,188,136035,1,12,0:0:0:0:
337,21,136201,1,2,0:0:0:0:
339,18,136285,1,2,0:0:0:0:
342,16,136368,5,12,0:0:0:0:
364,296,136535,1,2,0:0:0:0:
188,102,136702,1,12,0:0:0:0:
365,299,136868,1,2,0:0:0:0:
445,105,137035,1,12,0:0:0:0:
366,302,137202,1,2,0:0:0:0:
284,136,137368,1,12,0:0:0:0:
367,306,137535,1,2,0:0:0:0:
368,309,137618,1,2,0:0:0:0:
369,312,137701,5,12,0:0:0:0:
136,157,137868,1,2,0:0:0:0:
398,127,138035,1,12,0:0:0:0:
132,155,138202,1,2,0:0:0:0:
322,245,138368,1,12,0:0:0:0:
129,153,138535,1,2,0:0:0:0:
126,151,138619,1,2,0:0:0:0:
123,149,138702,37,8,0:0:0:0:
118,97,138785,1,8,0:0:0:0:
146,54,138868,1,2,0:0:0:0:
196,39,138952,1,2,0:0:0:0:
243,56,139035,85,12,0:0:0:0:
184,343,139202,1,2,0:0:0:0:
243,56,139368,1,12,0:0:0:0:
366,269,139535,1,2,0:0:0:0:
243,56,139702,1,12,0:0:0:0:
424,67,139868,1,2,0:0:0:0:
265,182,140035,1,12,0:0:0:0:
424,67,140202,2,0,L|425:107,1,35,2|2,0:0|0:0,0:0:0:0:
366,269,140368,5,12,0:0:0:0:
169,50,140535,1,2,0:0:0:0:
366,269,140702,1,12,0:0:0:0:
123,241,140868,1,2,0:0:0:0:
366,269,141035,1,12,0:0:0:0:
284,106,141202,2,0,L|248:116,1,35,2|2,0:0|0:0,0:0:0:0:
243,297,141368,1,12,0:0:0:0:
284,106,141535,2,0,L|248:116,1,35,2|2,0:0|0:0,0:0:0:0:
123,241,141702,85,12,0:0:0:0:
408,174,141868,1,2,0:0:0:0:
123,241,142035,1,12,0:0:0:0:
265,41,142202,1,2,0:0:0:0:
123,241,142368,1,12,0:0:0:0:
305,248,142535,1,2,0:0:0:0:
159,117,142702,1,12,0:0:0:0:
305,248,142868,2,0,L|308:207,1,35,2|2,0:0|0:0,0:0:0:0:
265,41,143035,5,12,0:0:0:0:
197,326,143202,1,2,0:0:0:0:
265,41,143368,1,12,0:0:0:0:
381,257,143535,1,2,0:0:0:0:
265,41,143702,1,12,0:0:0:0:
178,200,143868,2,0,L|224:228,1,35,2|2,0:0|0:0,0:0:0:0:
358,127,144035,1,12,0:0:0:0:
178,200,144202,2,0,L|224:228,1,35,2|2,0:0|0:0,0:0:0:0:
381,257,144368,85,12,0:0:0:0:
199,25,144535,1,2,0:0:0:0:
381,257,144702,1,12,0:0:0:0:
395,13,144868,1,2,0:0:0:0:
381,257,145035,1,12,0:0:0:0:
235,148,145202,1,2,0:0:0:0:
430,141,145368,1,12,0:0:0:0:
235,148,145535,2,0,L|265:115,1,35,2|2,0:0|0:0,0:0:0:0:
395,13,145702,5,12,0:0:0:0:
467,297,145868,1,2,0:0:0:0:
395,13,146035,1,12,0:0:0:0:
283,232,146202,1,2,0:0:0:0:
395,13,146368,1,12,0:0:0:0:
485,172,146535,2,0,L|449:194,1,35,2|2,0:0|0:0,0:0:0:0:
301,103,146702,1,12,0:0:0:0:
485,172,146868,2,0,L|449:194,1,35,2|2,0:0|0:0,0:0:0:0:
283,232,147035,85,12,0:0:0:0:
89,10,147202,1,2,0:0:0:0:
283,232,147368,1,12,0:0:0:0:
39,200,147535,1,2,0:0:0:0:
283,232,147702,1,12,0:0:0:0:
204,69,147868,1,2,0:0:0:0:
159,260,148035,1,12,0:0:0:0:
204,69,148202,2,0,L|165:87,1,35,2|2,0:0|0:0,0:0:0:0:
39,200,148368,69,0,0:0:0:0:
283,232,148535,1,0,0:0:0:0:
39,200,148702,1,0,0:0:0:0:
140,341,148869,1,0,0:0:0:0:
39,200,149035,2,0,L|39:106,1,70
187,159,149368,2,0,L|187:229,1,70
140,341,149702,53,14,0:0:0:0:
108,177,149868,1,2,0:0:0:0:
109,173,149951,1,2,0:0:0:0:
110,169,150034,2,0,L|116:127,1,35,10|0,0:0|0:0,0:0:0:0:
285,181,150201,1,2,0:0:0:0:
285,185,150284,1,2,0:0:0:0:
285,189,150368,2,0,L|247:225,1,35,2|0,0:0|0:0,0:0:0:0:
226,35,150534,2,0,L|271:28,1,35,2|2,0:0|0:0,0:0:0:0:
360,171,150701,2,0,P|357:215|328:251,1,70,10|2,0:0|0:0,0:0:0:0:
334,251,150951,1,2,0:0:0:0:
321,263,151035,6,0,L|337:311,1,35,2|0,0:0|0:0,0:0:0:0:
433,148,151202,1,2,0:0:0:0:
433,144,151286,1,2,0:0:0:0:
433,140,151369,2,0,L|408:105,1,35,10|0,0:0|0:0,0:0:0:0:
219,121,151536,1,2,0:0:0:0:
216,119,151619,1,2,0:0:0:0:
212,118,151702,2,0,P|211:153|226:185,1,70,2|2,0:0|0:0,0:0:0:0:
236,200,151952,1,2,0:0:0:0:
249,213,152036,1,10,0:0:0:0:
271,69,152202,1,2,0:0:0:0:
259,55,152286,1,2,0:0:0:0:
245,47,152369,6,0,P|211:39|177:48,1,70,2|2,0:0|0:0,0:0:0:0:
162,58,152619,1,2,0:0:0:0:
151,71,152702,1,10,0:0:0:0:
142,86,152785,1,0,0:0:0:0:
136,103,152869,2,0,L|134:148,1,35,2|2,0:0|0:0,0:0:0:0:
285,138,153035,1,0,0:0:0:0:
301,132,153118,1,0,0:0:0:0:
316,123,153201,1,2,0:0:0:0:
328,110,153285,1,2,0:0:0:0:
336,95,153368,2,0,P|362:55|409:38,1,70,10|2,0:0|0:0,0:0:0:0:
397,41,153618,1,2,0:0:0:0:
414,40,153702,6,0,L|462:59,1,35,2|0,0:0|0:0,0:0:0:0:
409,195,153868,1,2,0:0:0:0:
406,197,153952,1,2,0:0:0:0:
402,198,154035,2,0,L|360:221,1,35,10|0,0:0|0:0,0:0:0:0:
271,69,154202,1,2,0:0:0:0:
271,65,154285,1,2,0:0:0:0:
271,61,154368,2,0,L|223:27,1,35,2|0,0:0|0:0,0:0:0:0:
158,171,154535,1,2,0:0:0:0:
157,174,154618,1,2,0:0:0:0:
156,177,154702,2,0,L|179:236,1,35,10|0,0:0|0:0,0:0:0:0:
360,142,154868,2,0,L|316:117,1,35
265,260,155035,53,2,0:0:0:0:
210,113,155202,1,2,0:0:0:0:
209,109,155285,1,2,0:0:0:0:
208,105,155368,1,10,0:0:0:0:
364,146,155535,1,2,0:0:0:0:
364,146,155618,1,2,0:0:0:0:
368,150,155701,6,0,P|397:181|410:208,1,70,2|0,0:0|2:0,0:0:0:0:
332,219,155952,2,0,P|343:261|339:291,1,70,2|0,0:0|2:0,0:0:0:0:
265,260,156201,2,0,L|257:308,1,35,2|2,0:0|0:0,0:0:0:0:
134,156,156368,5,2,0:0:0:0:
106,324,156535,1,2,0:0:0:0:
106,327,156618,1,2,0:0:0:0:
106,330,156702,2,0,L|157:360,1,35,8|0,0:0|0:0,0:0:0:0:
266,182,156868,1,2,0:0:0:0:
264,179,156952,1,2,0:0:0:0:
262,175,157035,2,0,L|219:138,1,35,2|0,0:0|0:0,0:0:0:0:
51,137,157202,1,2,0:0:0:0:
51,140,157285,1,2,0:0:0:0:
51,143,157368,2,0,L|44:182,1,35,10|0,0:0|0:0,0:0:0:0:
106,324,157535,1,2,0:0:0:0:
109,325,157619,1,2,0:0:0:0:
113,326,157701,38,0,L|172:314,1,35,2|0,0:0|0:0,0:0:0:0:
129,209,157868,2,0,L|109:265,1,35,2|2,0:0|0:0,0:0:0:0:
227,278,158035,2,0,L|187:233,1,35,10|0,0:0|0:0,0:0:0:0:
204,169,158201,2,0,L|263:157,1,35,2|2,0:0|0:0,0:0:0:0:
328,243,158368,2,0,L|288:198,1,35,2|0,0:0|0:0,0:0:0:0:
330,97,158535,2,0,L|310:153,1,35,2|2,0:0|0:0,0:0:0:0:
252,77,158701,1,10,0:0:0:0:
267,46,158784,1,0,0:0:0:0:
293,24,158867,1,2,0:0:0:0:
326,16,158951,1,2,0:0:0:0:
361,22,159035,70,0,P|398:51|411:101,1,70,2|2,0:0|0:0,0:0:0:0:
409,100,159285,1,2,0:0:0:0:
405,129,159368,1,10,0:0:0:0:
394,155,159451,1,0,0:0:0:0:
386,183,159535,2,0,L|409:210,1,35,2|2,0:0|0:0,0:0:0:0:
369,322,159701,37,4,0:3:0:0:
335,331,159784,1,4,0:3:0:0:
301,327,159867,1,4,0:3:0:0:
269,310,159951,1,4,0:3:0:0:
249,282,160035,85,12,0:3:0:0:
204,257,160118,1,12,0:3:0:0:
154,271,160201,1,12,0:3:0:0:
131,316,160285,1,12,0:3:0:0:
145,365,160368,21,6,0:0:0:0:
236,183,160535,1,2,0:0:0:0:
234,180,160618,1,2,0:0:0:0:
231,178,160702,2,0,L|181:174,1,35,10|0,0:0|0:0,0:0:0:0:
198,324,160868,1,2,0:0:0:0:
199,327,160952,1,2,0:0:0:0:
200,330,161035,2,0,L|231:371,1,35,2|0,0:0|0:0,0:0:0:0:
328,243,161202,2,0,L|304:215,1,35
131,216,161368,2,0,P|118:172|133:129,1,70,10|2,0:0|0:0,0:0:0:0:
128,131,161618,1,2,0:0:0:0:
133,114,161702,6,0,L|133:66,1,35,2|0,0:0|0:0,0:0:0:0:
38,208,161868,1,2,0:0:0:0:
39,211,161952,1,2,0:0:0:0:
39,214,162035,2,0,L|55:263,1,35,10|0,0:0|0:0,0:0:0:0:
191,180,162202,1,2,0:0:0:0:
193,177,162285,1,2,0:0:0:0:
196,175,162368,2,0,P|230:184|256:208,1,70,2|2,0:0|0:0,0:0:0:0:
263,222,162618,1,2,0:0:0:0:
267,239,162702,1,10,0:0:0:0:
131,217,162868,1,2,0:0:0:0:
122,202,162952,1,2,0:0:0:0:
119,186,163035,6,0,P|121:151|140:121,1,70,2|2,0:0|0:0,0:0:0:0:
153,109,163285,1,2,0:0:0:0:
169,103,163368,1,10,0:0:0:0:
186,98,163451,1,0,0:0:0:0:
203,98,163535,2,0,L|247:109,1,35,2|2,0:0|0:0,0:0:0:0:
196,249,163702,1,2,0:0:0:0:
199,265,163785,1,0,0:0:0:0:
207,281,163868,1,2,0:0:0:0:
219,294,163952,1,2,0:0:0:0:
233,304,164035,2,0,P|268:313|322:288,1,70,10|2,0:0|0:0,0:0:0:0:
315,295,164285,1,2,0:0:0:0:
326,282,164368,6,0,L|343:235,1,35,2|0,0:0|0:0,0:0:0:0:
459,141,164535,1,2,0:0:0:0:
462,139,164618,1,2,0:0:0:0:
465,137,164702,2,0,L|496:186,1,35,10|0,0:0|0:0,0:0:0:0:
420,329,164868,1,2,0:0:0:0:
417,331,164951,1,2,0:0:0:0:
414,333,165035,2,0,L|368:328,1,35,2|0,0:0|0:0,0:0:0:0:
274,206,165202,1,2,0:0:0:0:
270,204,165285,1,2,0:0:0:0:
266,202,165368,2,0,L|294:153,1,35,10|0,0:0|0:0,0:0:0:0:
479,234,165535,2,0,L|450:256,1,35,2|2,0:0|0:0,0:0:0:0:
239,311,165702,53,2,0:0:0:0:
201,105,165868,1,2,0:0:0:0:
202,101,165952,1,2,0:0:0:0:
203,97,166035,1,10,0:0:0:0:
356,214,166202,1,2,0:0:0:0:
358,217,166285,1,2,0:0:0:0:
361,220,166368,6,0,P|384:256|392:285,1,70,2|0,0:0|2:0,0:0:0:0:
313,282,166618,2,0,P|316:325|307:354,1,70,2|0,0:0|2:0,0:0:0:0:
239,311,166868,2,0,L|222:357,1,35,2|2,0:0|0:0,0:0:0:0:
92,200,167035,5,2,0:0:0:0:
252,234,167202,1,2,0:0:0:0:
254,231,167285,1,2,0:0:0:0:
257,229,167368,2,0,L|288:176,1,35,10|0,0:0|0:0,0:0:0:0:
298,49,167535,1,2,0:0:0:0:
294,48,167618,1,2,0:0:0:0:
290,47,167702,2,0,L|238:43,1,35,2|0,0:0|0:0,0:0:0:0:
105,101,167868,1,2,0:0:0:0:
103,104,167952,1,2,0:0:0:0:
101,107,168035,2,0,L|79:146,1,35,10|0,0:0|0:0,0:0:0:0:
154,276,168202,1,2,0:0:0:0:
153,279,168285,1,2,0:0:0:0:
153,283,168369,38,0,L|144:325,1,35,2|0,0:0|0:0,0:0:0:0:
274,198,168536,2,0,L|279:163,1,35,2|2,0:0|0:0,0:0:0:0:
256,301,168702,2,0,L|290:306,1,35,10|0,0:0|0:0,0:0:0:0:
172,179,168869,2,0,L|137:173,1,35,2|2,0:0|0:0,0:0:0:0:
287,129,169036,2,0,L|280:162,1,35,2|0,0:0|0:0,0:0:0:0:
343,247,169202,2,0,L|348:212,1,35,2|2,0:0|0:0,0:0:0:0:
435,151,169369,2,0,L|428:184,1,35,10|0,0:0|0:0,0:0:0:0:
492,271,169535,2,0,L|497:236,1,35,2|2,0:0|0:0,0:0:0:0:
366,118,169702,5,6,0:0:0:0:
240,259,169869,1,8,0:0:0:0:
259,307,169952,1,8,0:0:0:0:
299,340,170035,2,0,L|374:355,1,52.5000020027161,6|0,0:0|0:0,0:0:0:0:
366,118,170202,1,8,0:0:0:0:
344,72,170285,1,8,0:0:0:0:
298,49,170368,37,2,0:0:0:0:
287,70,170451,1,12,0:3:0:0:
271,89,170534,1,12,0:3:0:0:
251,104,170618,1,12,0:3:0:0:
229,114,170702,5,2,0:0:0:0:
214,99,170785,1,2,0:0:0:0:
199,84,170868,1,2,0:0:0:0:
184,69,170952,1,2,0:0:0:0:
169,54,171035,54,0,P|120:39|67:65,1,105,6|2,0:0|0:0,0:0:0:0:
67,66,171618,1,2,0:0:0:0:
63,74,171702,1,8,0:0:0:0:
62,82,172035,5,0,0:0:0:0:
102,260,172202,1,0,0:0:0:0:
125,112,172368,5,6,0:0:0:0:
80,166,172535,2,0,P|107:181|150:179,1,70,2|2,0:0|0:0,0:0:0:0:
153,178,172952,1,2,0:0:0:0:
161,174,173035,1,8,0:0:0:0:
168,169,173368,5,0,0:0:0:0:
206,333,173535,1,0,0:0:0:0:
263,182,173702,53,8,0:0:0:0:
371,272,173868,1,2,0:0:0:0:
394,134,174035,1,2,0:0:0:0:
254,205,174202,5,8,0:0:0:0:
384,251,174368,1,2,0:0:0:0:
359,113,174535,1,2,0:0:0:0:
256,230,174702,5,8,0:0:0:0:
394,228,174868,1,2,0:0:0:0:
323,108,175035,1,2,0:0:0:0:
271,253,175202,5,8,0:0:0:0:
399,204,175368,1,8,0:0:0:0:
423,194,175451,1,8,0:0:0:0:
449,193,175534,1,8,0:0:0:0:
474,200,175618,1,8,0:0:0:0:
496,215,175702,37,0,0:0:0:0:
489,235,175785,1,0,0:0:0:0:
479,252,175868,1,0,0:0:0:0:
464,267,175952,1,2,0:0:0:0:
446,278,176035,85,0,0:0:0:0:
425,275,176118,1,0,0:0:0:0:
404,273,176201,1,0,0:0:0:0:
383,271,176285,1,0,0:0:0:0:
363,270,176368,22,0,P|317:282|288:336,1,105,6|2,0:0|0:0,0:0:0:0:
289,337,176952,1,2,0:0:0:0:
291,345,177035,1,8,0:0:0:0:
294,353,177368,5,0,0:0:0:0:
248,202,177535,1,0,0:0:0:0:
177,355,177702,5,6,0:0:0:0:
133,301,177868,2,0,P|173:285|211:294,1,70,2|2,0:0|0:0,0:0:0:0:
206,292,178285,1,2,0:0:0:0:
213,297,178368,1,8,0:0:0:0:
219,302,178702,5,0,0:0:0:0:
201,132,178868,1,0,0:0:0:0:
248,202,179035,53,4,0:3:0:0:
251,200,179118,1,4,0:3:0:0:
254,198,179202,2,0,L|281:161,1,35,2|2,0:0|0:0,0:0:0:0:
348,192,179368,5,4,0:3:0:0:
350,189,179451,1,4,0:3:0:0:
351,185,179535,2,0,L|355:139,1,35,2|2,0:0|0:0,0:0:0:0:
430,133,179701,5,12,0:3:0:0:
430,129,179784,1,12,0:3:0:0:
429,126,179868,2,0,L|410:84,1,35,2|2,0:0|0:0,0:0:0:0:
471,40,180035,5,4,0:3:0:0:
469,37,180118,1,4,0:3:0:0:
467,34,180202,2,0,L|430:6,1,35,2|2,0:0|0:0,0:0:0:0:
357,31,180368,21,8,0:0:0:0:
347,45,180451,1,8,0:0:0:0:
335,58,180534,1,2,0:0:0:0:
322,69,180618,1,2,0:0:0:0:
307,79,180701,1,8,0:0:0:0:
291,86,180784,1,8,0:0:0:0:
274,91,180868,1,2,0:0:0:0:
257,93,180951,1,2,0:0:0:0:
239,90,181035,5,8,0:0:0:0:
215,83,181118,1,8,0:0:0:0:
183,77,181202,1,8,0:0:0:0:
145,82,181285,1,8,0:0:0:0:
108,108,181368,1,8,0:0:0:0:
87,156,181452,1,8,0:0:0:0:
98,214,181535,1,8,0:0:0:0:
150,254,181618,1,8,0:0:0:0:
229,254,181702,5,12,0:0:0:0:
150,254,181868,2,0,P|153:279|167:302,1,52.5,8|2,0:0|0:0,0:0:0:0:
197,326,182201,1,8,0:0:0:0:
229,254,182368,1,2,0:0:0:0:
187,187,182534,1,8,0:0:0:0:
150,178,182618,2,0,P|125:182|104:192,1,35,2|2,0:0|0:0,0:0:0:0:
87,210,182868,1,8,0:0:0:0:
68,287,183035,5,2,0:0:0:0:
87,210,183202,2,0,P|61:206|35:214,1,52.5,8|2,0:0|0:0,0:0:0:0:
6,237,183534,1,8,0:0:0:0:
68,287,183701,1,2,0:0:0:0:
143,263,183867,1,8,0:0:0:0:
161,229,183951,2,0,P|163:203|159:181,1,35,2|2,0:0|0:0,0:0:0:0:
146,160,184201,1,8,0:0:0:0:
92,104,184368,5,2,0:0:0:0:
146,160,184534,2,0,P|125:175|99:181,1,52.5,8|2,0:0|0:0,0:0:0:0:
62,178,184867,1,8,0:0:0:0:
92,104,185034,1,2,0:0:0:0:
168,86,185202,1,8,0:0:0:0:
201,107,185285,2,0,P|215:127|223:149,1,35,2|2,0:0|0:0,0:0:0:0:
222,174,185534,1,8,0:0:0:0:
174,237,185702,5,2,0:0:0:0:
249,256,185868,2,0,P|252:230|244:204,1,52.5,8|2,0:0|0:0,0:0:0:0:
221,175,186201,1,8,0:0:0:0:
175,237,186368,1,2,0:0:0:0:
195,311,186534,1,8,0:0:0:0:
228,331,186618,1,2,0:0:0:0:
266,333,186702,2,0,P|298:317|326:276,1,70,0|8,0:0|0:0,0:0:0:0:
175,237,187035,53,6,0:0:0:0:
249,256,187202,2,0,P|252:230|244:204,1,52.5,8|2,0:0|0:0,0:0:0:0:
221,175,187535,1,8,0:0:0:0:
174,237,187702,1,2,0:0:0:0:
144,166,187868,1,8,0:0:0:0:
139,159,187952,1,2,0:0:0:0:
190,104,188118,1,2,0:0:0:0:
190,95,188202,1,8,0:0:0:0:
267,113,188368,5,2,0:0:0:0:
251,37,188535,2,0,P|225:44|201:64,1,52.5,8|2,0:0|0:0,0:0:0:0:
190,95,188868,1,8,0:0:0:0:
267,113,189034,1,2,0:0:0:0:
212,168,189202,1,8,0:0:0:0:
208,176,189285,1,2,0:0:0:0:
286,188,189452,1,2,0:0:0:0:
293,194,189535,1,8,0:0:0:0:
238,248,189701,5,2,0:0:0:0:
286,188,189868,2,0,P|303:206|312:231,1,52.5,8|2,0:0|0:0,0:0:0:0:
311,269,190201,1,8,0:0:0:0:
238,248,190367,1,2,0:0:0:0:
256,323,190535,1,8,0:0:0:0:
256,332,190618,1,2,0:0:0:0:
182,301,190785,1,2,0:0:0:0:
173,303,190868,1,8,0:0:0:0:
164,226,191036,5,2,0:0:0:0:
123,290,191202,2,0,P|146:301|172:302,1,52.5,8|2,0:0|0:0,0:0:0:0:
209,289,191535,1,8,0:0:0:0:
164,226,191702,2,0,L|127:206,1,35,2|8,0:0|0:0,0:0:0:0:
128,159,191952,2,0,L|90:113,1,52.5000020027161,2|2,0:0|0:0,0:0:0:0:
110,70,192202,2,0,L|89:30,1,35,8|8,0:0|0:0,0:0:0:0:
187,10,192368,53,12,0:0:0:0:
199,31,192451,1,0,0:0:0:0:
205,54,192534,1,8,0:0:0:0:
206,79,192618,1,0,0:0:0:0:
200,102,192701,1,0,0:0:0:0:
189,124,192784,1,2,0:0:0:0:
173,142,192868,1,8,0:0:0:0:
153,156,192951,1,0,0:0:0:0:
130,164,193035,1,2,0:0:0:0:
106,169,193118,1,0,0:0:0:0:
85,181,193201,1,8,0:0:0:0:
69,200,193285,1,2,0:0:0:0:
60,222,193368,1,0,0:0:0:0:
59,247,193451,1,2,0:0:0:0:
65,270,193535,2,0,L|75:314,1,35,8|0,0:0|0:0,0:0:0:0:
142,245,193702,5,2,0:0:0:0:
134,229,193785,1,0,0:0:0:0:
124,214,193868,1,8,0:0:0:0:
111,203,193952,1,0,0:0:0:0:
96,194,194035,1,0,0:0:0:0:
79,190,194118,1,2,0:0:0:0:
63,181,194201,1,8,0:0:0:0:
50,170,194284,1,0,0:0:0:0:
41,155,194368,1,2,0:0:0:0:
35,139,194451,1,0,0:0:0:0:
33,121,194534,1,8,0:0:0:0:
36,104,194618,1,2,0:0:0:0:
43,88,194701,1,0,0:0:0:0:
54,74,194784,1,2,0:0:0:0:
67,63,194868,2,0,L|106:35,1,35,8|0,0:0|0:0,0:0:0:0:
108,124,195035,5,2,0:0:0:0:
124,130,195118,1,0,0:0:0:0:
139,139,195201,1,8,0:0:0:0:
154,148,195285,1,0,0:0:0:0:
167,159,195368,1,0,0:0:0:0:
180,171,195451,1,2,0:0:0:0:
192,184,195535,1,8,0:0:0:0:
203,197,195618,1,0,0:0:0:0:
217,207,195701,1,2,0:0:0:0:
233,213,195785,1,0,0:0:0:0:
251,216,195868,1,8,0:0:0:0:
268,214,195951,1,2,0:0:0:0:
284,207,196035,1,0,0:0:0:0:
298,197,196118,1,2,0:0:0:0:
310,184,196202,2,0,L|329:146,1,35,8|0,0:0|0:0,0:0:0:0:
250,145,196368,5,2,0:0:0:0:
244,154,196451,1,0,0:0:0:0:
241,164,196535,1,8,0:0:0:0:
238,174,196618,1,0,0:0:0:0:
238,184,196701,1,0,0:0:0:0:
239,195,196784,1,2,0:0:0:0:
241,205,196868,1,8,0:0:0:0:
245,215,196951,1,0,0:0:0:0:
250,224,197034,1,2,0:0:0:0:
256,232,197118,1,0,0:0:0:0:
264,239,197201,1,8,0:0:0:0:
272,246,197284,1,2,0:0:0:0:
281,250,197368,1,0,0:0:0:0:
291,254,197451,1,2,0:0:0:0:
302,256,197535,2,0,L|351:257,1,35,8|0,0:0|0:0,0:0:0:0:
316,186,197702,53,6,0:0:0:0:
309,185,197785,1,0,0:0:0:0:
302,184,197868,1,8,0:0:0:0:
295,185,197952,1,0,0:0:0:0:
288,186,198035,1,0,0:0:0:0:
281,187,198118,1,2,0:0:0:0:
274,190,198202,1,8,0:0:0:0:
268,193,198285,1,0,0:0:0:0:
262,196,198368,1,2,0:0:0:0:
256,200,198452,1,0,0:0:0:0:
251,205,198535,1,8,0:0:0:0:
246,210,198618,1,2,0:0:0:0:
242,216,198702,2,0,L|218:258,1,35,0|2,0:0|0:0,0:0:0:0:
284,286,198868,2,0,L|301:255,1,35,8|0,0:0|0:0,0:0:0:0:
219,318,199035,5,2,0:0:0:0:
235,340,199118,1,0,0:0:0:0:
259,354,199201,1,8,0:0:0:0:
287,358,199285,1,0,0:0:0:0:
314,351,199368,5,0,0:0:0:0:
344,367,199451,1,2,0:0:0:0:
379,371,199534,1,8,0:0:0:0:
412,361,199618,1,0,0:0:0:0:
439,339,199702,5,2,0:0:0:0:
403,317,199785,1,0,0:0:0:0:
381,282,199868,1,8,0:0:0:0:
379,240,199952,1,2,0:0:0:0:
396,202,200035,21,0,0:0:0:0:
352,222,200118,1,2,0:0:0:0:
304,216,200201,1,8,0:0:0:0:
267,185,200285,1,0,0:0:0:0:
253,139,200368,5,2,0:0:0:0:
458,259,200535,1,8,0:0:0:0:
479,212,200618,1,0,0:0:0:0:
470,161,200701,1,0,0:0:0:0:
433,125,200785,1,2,0:0:0:0:
382,118,200868,1,8,0:0:0:0:
336,141,200952,1,0,0:0:0:0:
312,188,201035,86,0,P|249:215|195:186,1,105.000004005432,2|8,0:0|0:0,0:0:0:0:
196,59,201285,2,0,P|238:88|252:138,1,105.000004005432,2|2,0:0|0:0,0:0:0:0:
140,229,201535,1,8,0:0:0:0:
178,134,201702,6,0,P|187:174|216:204,1,83.9999974365235,2|8,0:0|0:0,0:0:0:0:
260,216,201952,1,0,0:0:0:0:
299,202,202035,1,0,0:0:0:0:
325,169,202118,1,2,0:0:0:0:
355,140,202201,1,8,0:0:0:0:
395,131,202284,1,0,0:0:0:0:
435,143,202368,85,2,0:0:0:0:
409,166,202451,1,0,0:0:0:0:
389,195,202535,1,8,0:0:0:0:
372,225,202618,1,2,0:0:0:0:
349,251,202701,1,0,0:0:0:0:
320,271,202785,1,2,0:0:0:0:
287,282,202868,1,8,0:0:0:0:
252,285,202951,1,0,0:0:0:0:
218,280,203035,21,14,0:0:0:0:
307,51,203202,1,0,0:0:0:0:
218,280,203368,1,0,0:0:0:0:
140,123,203535,1,0,0:0:0:0:
218,280,203702,2,0,L|290:324,1,70
324,169,204035,2,0,L|264:132,1,70
140,123,204368,5,0,0:0:0:0:
156,369,204535,1,0,0:0:0:0:
140,123,204702,1,0,0:0:0:0:
276,232,204868,1,0,0:0:0:0:
140,123,205036,53,4,0:3:0:0:
124,131,205119,1,4,0:3:0:0:
110,140,205202,1,4,0:3:0:0:
94,149,205285,1,4,0:3:0:0:
80,158,205368,5,12,0:3:0:0:
110,186,205453,1,12,0:3:0:0:
150,192,205536,1,12,0:3:0:0:
187,174,205619,1,12,0:3:0:0:
208,139,205703,37,14,0:0:0:0:
90,351,205868,1,0,0:0:0:0:
208,139,206035,1,0,0:0:0:0:
265,305,206202,1,0,0:0:0:0:
208,139,206368,2,0,L|226:54,1,70
362,142,206702,2,0,L|347:210,1,70
265,305,207035,5,0,0:0:0:0:
285,60,207202,1,0,0:0:0:0:
265,305,207368,1,0,0:0:0:0:
415,197,207535,1,0,0:0:0:0:
418,195,207618,1,8,0:0:0:0:
421,193,207702,37,8,0:0:0:0:
438,162,207785,1,8,0:0:0:0:
440,128,207868,1,2,0:0:0:0:
425,96,207952,1,2,0:0:0:0:
397,75,208035,85,0,0:0:0:0:
347,210,208202,1,8,0:0:0:0:
346,213,208285,1,8,0:0:0:0:
345,216,208368,21,14,0:0:0:0:
209,12,208535,1,0,0:0:0:0:
345,216,208702,1,0,0:0:0:0:
173,190,208868,1,0,0:0:0:0:
345,216,209035,1,0,0:0:0:0:
270,351,209202,1,0,0:0:0:0:
268,182,209368,1,0,0:0:0:0:
270,351,209535,1,2,0:0:0:0:
270,354,209618,1,2,0:0:0:0:
270,357,209702,5,8,0:0:0:0:
213,120,209868,1,0,0:0:0:0:
270,357,210035,1,0,0:0:0:0:
116,273,210202,1,0,0:0:0:0:
270,357,210368,2,0,L|348:350,1,70
292,204,210702,2,0,L|222:210,1,70
116,273,211035,53,6,0:0:0:0:
227,138,211202,1,8,0:0:0:0:
250,147,211285,1,8,0:0:0:0:
269,162,211368,1,8,0:0:0:0:
283,180,211451,1,8,0:0:0:0:
292,204,211535,5,2,0:0:0:0:
144,163,211702,1,8,0:0:0:0:
142,140,211785,1,8,0:0:0:0:
144,115,211868,1,8,0:0:0:0:
153,93,211951,1,8,0:0:0:0:
170,74,212035,85,2,0:0:0:0:
207,220,212202,1,8,0:0:0:0:
189,237,212285,1,8,0:0:0:0:
166,245,212368,5,8,0:0:0:0:
204,262,212451,1,8,0:0:0:0:
234,290,212534,1,8,0:0:0:0:
255,327,212618,1,8,0:0:0:0:
263,368,212702,85,4,0:3:0:0:
285,358,212785,1,4,0:3:0:0:
308,349,212868,1,4,0:3:0:0:
331,340,212952,1,4,0:3:0:0:
353,331,213035,5,12,0:3:0:0:
328,306,213118,1,12,0:3:0:0:
314,274,213201,1,12,0:3:0:0:
314,239,213285,1,12,0:3:0:0:
328,208,213368,85,2,0:0:0:0:
350,197,213451,1,2,0:0:0:0:
372,187,213534,1,2,0:0:0:0:
394,176,213618,1,2,0:0:0:0:
412,168,213702,22,0,P|401:138|385:118,1,52.5,6|0,0:0|0:0,0:0:0:0:
324,77,214035,1,0,0:0:0:0:
276,140,214202,1,2,0:0:0:0:
275,145,214285,1,2,0:0:0:0:
274,150,214368,1,10,0:0:0:0:
245,68,214535,1,0,0:0:0:0:
198,132,214702,2,0,P|200:173|214:199,1,52.5000020027161
269,229,215035,5,2,0:0:0:0:
197,261,215202,2,0,P|210:282|251:306,1,52.5000020027161,2|0,0:0|0:0,0:0:0:0:
311,296,215535,1,2,0:0:0:0:
315,293,215618,1,2,0:0:0:0:
319,290,215702,2,0,P|342:260|347:229,1,52.5000020027161,10|0,0:0|0:0,0:0:0:0:
425,254,216035,2,0,P|420:216|401:191,1,52.5000020027161
474,153,216368,6,0,P|444:130|413:124,1,52.5000020027161,6|0,0:0|0:0,0:0:0:0:
355,151,216702,1,0,0:0:0:0:
371,74,216868,1,2,0:0:0:0:
372,68,216952,1,2,0:0:0:0:
373,62,217035,1,10,0:0:0:0:
296,99,217202,1,0,0:0:0:0:
310,176,217368,2,0,P|335:168|355:150,1,52.5000020027161
296,99,217702,5,2,0:0:0:0:
310,176,217868,2,0,P|310:202|300:226,1,52.5000020027161,2|0,0:0|0:0,0:0:0:0:
259,293,218201,1,2,0:0:0:0:
255,290,218284,1,2,0:0:0:0:
251,287,218368,2,0,P|228:257|223:226,1,52.5000020027161,10|0,0:0|0:0,0:0:0:0:
145,251,218701,2,0,P|149:213|168:188,1,52.5000020027161
96,150,219035,54,0,P|126:127|157:121,1,52.5000020027161,6|0,0:0|0:0,0:0:0:0:
215,148,219368,1,0,0:0:0:0:
156,201,219535,1,2,0:0:0:0:
155,206,219618,1,2,0:0:0:0:
154,211,219702,1,10,0:0:0:0:
231,225,219868,1,0,0:0:0:0:
290,172,220035,2,0,P|293:137|280:105,1,52.5000020027161
215,148,220368,5,2,0:0:0:0:
231,225,220535,2,0,P|255:245|292:251,1,52.5000020027161,2|0,0:0|0:0,0:0:0:0:
349,224,220868,1,2,0:0:0:0:
354,223,220952,1,2,0:0:0:0:
359,222,221035,2,0,P|390:240|411:270,1,52.5000020027161,10|0,0:0|0:0,0:0:0:0:
334,302,221368,2,0,P|312:320|280:328,1,52.5000020027161
275,250,221702,6,0,P|270:221|279:190,1,52.5000020027161,6|0,0:0|0:0,0:0:0:0:
334,146,222035,1,0,0:0:0:0:
318,69,222202,1,2,0:0:0:0:
317,63,222285,1,2,0:0:0:0:
316,57,222368,1,10,0:0:0:0:
259,121,222535,1,0,0:0:0:0:
243,44,222702,2,0,P|214:57|191:85,1,52.5000020027161
185,149,223035,5,0,0:0:0:0:
259,121,223202,2,0,P|265:152|256:186,1,52.5000020027161
204,226,223535,1,2,0:0:0:0:
201,230,223618,1,2,0:0:0:0:
198,234,223702,2,0,P|200:273|213:300,1,52.5000020027161,10|0,0:0|0:0,0:0:0:0:
280,248,224035,37,4,0:3:0:0:
314,244,224118,1,4,0:3:0:0:
346,257,224201,1,4,0:3:0:0:
369,283,224285,1,4,0:3:0:0:
379,316,224368,6,0,P|403:339|467:350,1,70,14|0,0:0|0:0,0:0:0:0:
448,267,224702,1,0,0:0:0:0:
400,198,224868,1,2,0:0:0:0:
400,191,224952,1,2,0:0:0:0:
400,184,225035,1,10,0:0:0:0:
484,191,225202,1,0,0:0:0:0:
448,115,225368,2,0,P|410:101|371:106,1,70
319,161,225702,5,2,0:0:0:0:
329,244,225868,2,0,P|290:239|256:215,1,70,2|0,0:0|0:0,0:0:0:0:
237,143,226202,1,2,0:0:0:0:
235,136,226285,1,2,0:0:0:0:
233,129,226368,2,0,P|211:99|179:81,1,70,10|0,0:0|0:0,0:0:0:0:
157,163,226702,2,0,P|121:151|85:154,1,70,2|0,0:0|0:0,0:0:0:0:
114,234,227035,6,0,P|78:244|50:268,1,70,6|0,0:0|3:0,3:0:0:0:
118,318,227368,1,0,0:0:0:0:
189,273,227535,1,2,0:0:0:0:
191,266,227618,1,2,0:0:0:0:
193,259,227702,1,10,0:0:0:0:
192,357,227868,1,0,0:0:0:0:
263,313,228035,2,0,P|300:298|348:304,1,70
395,351,228368,5,2,0:0:0:0:
408,268,228535,2,0,P|376:227|342:216,1,70
283,197,228869,1,2,0:0:0:0:
274,194,228952,1,2,0:0:0:0:
267,192,229035,2,0,P|236:170|219:138,1,70,10|0,0:0|0:0,0:0:0:0:
302,116,229369,2,0,P|290:79|293:43,1,70,2|0,0:0|0:0,0:0:0:0:
373,73,229702,54,0,P|382:37|406:9,1,70,6|0,0:0|0:0,0:0:0:0:
475,88,230035,1,0,0:0:0:0:
410,171,230202,1,2,0:0:0:0:
408,177,230285,1,2,0:0:0:0:
406,183,230368,1,10,0:0:0:0:
373,73,230535,1,0,0:0:0:0:
276,31,230702,2,0,P|224:36|194:58,1,70
261,136,231035,5,2,0:0:0:0:
209,44,231202,2,0,P|161:22|124:26,1,70,2|0,0:0|0:0,0:0:0:0:
131,127,231535,1,2,0:0:0:0:
138,127,231618,1,2,0:0:0:0:
145,127,231702,2,0,P|177:162|193:205,1,70,10|0,0:0|0:0,0:0:0:0:
264,133,232035,2,0,P|275:178|269:224,1,70
366,197,232368,6,0,P|354:243|328:280,1,70,6|0,0:0|0:0,0:0:0:0:
256,290,232702,1,0,0:0:0:0:
275,201,232868,1,2,0:0:0:0:
275,193,232952,1,2,0:0:0:0:
275,186,233035,1,10,0:0:0:0:
343,262,233202,1,0,0:0:0:0:
432,246,233368,2,0,P|439:204|436:176,1,70
376,107,233702,5,0,0:0:0:0:
436,176,233868,2,0,P|460:142|467:108,1,70
424,34,234202,1,2,0:0:0:0:
421,28,234285,1,2,0:0:0:0:
418,22,234368,21,10,0:0:0:0:
401,39,234451,1,8,0:0:0:0:
387,59,234535,1,8,0:0:0:0:
379,82,234618,1,8,0:0:0:0:
376,107,234702,5,10,0:0:0:0:
353,129,234785,1,8,0:0:0:0:
318,146,234868,1,8,0:0:0:0:
272,149,234952,1,8,0:0:0:0:
222,131,235035,86,0,P|201:97|199:48,1,70,14|0,0:0|0:0,0:0:0:0:
291,64,235202,85,2,0:0:0:0:
299,72,235257,1,0,0:0:0:0:
305,82,235313,1,0,0:0:0:0:
311,92,235368,6,0,P|320:132|307:177,1,70,10|0,0:0|0:0,0:0:0:0:
225,199,235535,2,0,P|216:159|229:114,1,70,2|0,0:0|0:0,0:0:0:0:
314,160,235702,85,2,0:0:0:0:
325,158,235757,1,0,0:0:0:0:
336,155,235813,1,0,0:0:0:0:
347,150,235868,6,0,P|391:143|419:152,1,52.5000020027161,2|0,0:0|0:0,0:0:0:0:
486,234,236035,21,10,0:0:0:0:
469,252,236118,1,0,0:0:0:0:
448,265,236201,1,2,0:0:0:0:
425,272,236285,1,0,0:0:0:0:
401,273,236368,69,2,0:0:0:0:
366,265,236452,1,0,0:0:0:0:
325,276,236535,1,2,0:0:0:0:
298,299,236618,1,0,0:0:0:0:
287,325,236702,21,10,0:0:0:0:
273,345,236785,1,0,0:0:0:0:
255,357,236868,1,2,0:0:0:0:
239,365,236952,1,0,0:0:0:0:
225,367,237035,70,0,B|171:346|171:346|152:299|109:288,1,140,2|10,0:0|0:0,0:0:0:0:
80,377,237535,1,2,0:0:0:0:
223,293,237702,21,2,0:0:0:0:
215,281,237785,1,0,0:0:0:0:
201,265,237868,1,2,0:0:0:0:
179,246,237952,1,0,0:0:0:0:
147,231,238035,69,10,0:0:0:0:
123,215,238118,1,0,0:0:0:0:
109,198,238202,1,2,0:0:0:0:
103,185,238285,1,0,0:0:0:0:
99,171,238368,21,2,0:0:0:0:
98,153,238452,1,0,0:0:0:0:
102,132,238535,1,2,0:0:0:0:
114,110,238618,1,0,0:0:0:0:
136,92,238702,69,10,0:0:0:0:
166,85,238785,1,0,0:0:0:0:
200,92,238868,1,2,0:0:0:0:
229,117,238952,1,0,0:0:0:0:
250,152,239035,21,2,0:0:0:0:
294,171,239118,1,0,0:0:0:0:
344,146,239202,1,2,0:0:0:0:
368,103,239285,1,0,0:0:0:0:
400,76,239368,69,10,0:0:0:0:
431,73,239452,1,0,0:0:0:0:
457,81,239535,1,2,0:0:0:0:
476,95,239618,1,0,0:0:0:0:
488,111,239702,21,2,0:0:0:0:
492,138,239785,1,0,0:0:0:0:
479,170,239868,1,2,0:0:0:0:
442,192,239952,1,0,0:0:0:0:
393,191,240035,69,10,0:0:0:0:
341,196,240118,1,0,0:0:0:0:
311,244,240202,1,2,0:0:0:0:
333,298,240285,1,0,0:0:0:0:
403,305,240368,21,6,0:0:0:0:
436,251,240452,1,0,0:0:0:0:
434,191,240535,1,2,0:0:0:0:
407,145,240618,1,0,0:0:0:0:
363,120,240702,69,10,0:0:0:0:
317,119,240785,1,0,0:0:0:0:
277,134,240868,1,2,0:0:0:0:
253,164,240952,1,0,0:0:0:0:
245,198,241035,22,0,B|210:264|135:239|135:239|90:272|31:241,1,210.000008010865,2|10,0:0|0:0,0:0:0:0:
170,163,241535,1,2,0:0:0:0:
151,320,241702,69,2,0:0:0:0:
185,321,241785,1,0,0:0:0:0:
220,314,241868,1,2,0:0:0:0:
251,299,241952,1,0,0:0:0:0:
279,278,242035,21,10,0:0:0:0:
321,291,242118,1,0,0:0:0:0:
366,284,242201,1,2,0:0:0:0:
402,256,242285,1,0,0:0:0:0:
421,216,242368,70,0,L|426:169,1,35,2|0,0:0|0:0,0:0:0:0:
397,376,242535,2,0,L|362:372,1,35,2|0,0:0|0:0,0:0:0:0:
329,196,242702,21,10,0:0:0:0:
279,181,242785,1,0,0:0:0:0:
229,195,242868,1,2,0:0:0:0:
194,234,242952,1,0,0:0:0:0:
187,278,243035,69,2,0:0:0:0:
171,328,243118,1,0,0:0:0:0:
114,356,243202,1,2,0:0:0:0:
64,337,243285,1,0,0:0:0:0:
44,300,243368,21,2,0:0:0:0:
44,264,243452,1,0,0:0:0:0:
63,226,243535,1,2,0:0:0:0:
103,198,243618,1,0,0:0:0:0:
134,151,243702,53,2,0:0:0:0:
133,140,243757,1,0,0:0:0:0:
129,129,243813,1,0,0:0:0:0:
123,119,243868,6,0,P|92:102|34:108,1,70,2|0,0:0|0:0,0:0:0:0:
70,185,244035,1,10,0:0:0:0:
111,220,244118,1,0,0:0:0:0:
166,217,244202,85,2,0:0:0:0:
176,212,244257,1,0,0:0:0:0:
185,204,244313,1,0,0:0:0:0:
193,195,244368,1,2,0:0:0:0:
199,186,244424,1,0,0:0:0:0:
204,175,244479,1,0,0:0:0:0:
207,164,244535,6,0,P|226:126|283:96,1,70,2|0,0:0|0:0,0:0:0:0:
301,189,244702,21,10,0:0:0:0:
341,204,244785,1,0,0:0:0:0:
385,202,244868,1,2,0:0:0:0:
423,180,244952,1,0,0:0:0:0:
448,145,245035,86,0,B|436:105|401:40|330:46|287:76|285:132|297:170|385:211|465:158|454:88|371:37|336:28|317:21|295:16|276:16|258:18|242:26,1,428.750004088879,2|0,0:0|0:0,0:0:0:0:
182,40,245702,38,0,P|188:63|201:78,1,35,2|2,0:0|0:0,0:0:0:0:
222,93,245952,1,0,0:0:0:0:
255,101,246035,21,10,0:0:0:0:
264,107,246090,1,0,0:0:0:0:
272,115,246146,1,0,0:0:0:0:
280,124,246202,6,0,P|293:158|288:196,1,52.5000020027161,2|0,0:0|0:0,0:0:0:0:
221,165,246368,21,2,0:0:0:0:
159,178,246452,1,0,0:0:0:0:
125,218,246535,1,2,0:0:0:0:
117,259,246618,1,0,0:0:0:0:
124,296,246702,69,10,0:0:0:0:
143,324,246785,1,0,0:0:0:0:
185,338,246868,1,2,0:0:0:0:
238,320,246952,1,0,0:0:0:0:
290,271,247035,21,2,0:0:0:0:
360,255,247118,1,0,0:0:0:0:
401,320,247202,1,2,0:0:0:0:
369,374,247285,1,0,0:0:0:0:
306,378,247368,69,10,0:0:0:0:
270,333,247452,1,0,0:0:0:0:
263,284,247535,1,2,0:0:0:0:
269,242,247618,1,0,0:0:0:0:
266,206,247702,21,2,0:0:0:0:
248,168,247785,1,0,0:0:0:0:
204,139,247868,1,2,0:0:0:0:
137,145,247952,1,0,0:0:0:0:
96,188,248035,69,10,0:0:0:0:
101,239,248118,1,0,0:0:0:0:
137,266,248202,1,2,0:0:0:0:
175,268,248285,1,0,0:0:0:0:
206,251,248368,85,2,0:0:0:0:
212,241,248423,1,0,0:0:0:0:
218,231,248479,1,0,0:0:0:0:
222,220,248534,1,2,0:0:0:0:
224,208,248590,1,0,0:0:0:0:
224,197,248645,1,0,0:0:0:0:
222,185,248702,38,0,P|212:140|226:89,1,70,10|0,0:0|0:0,0:0:0:0:
328,136,248868,1,2,0:0:0:0:
355,201,248952,1,0,0:0:0:0:
356,266,249035,69,2,0:0:0:0:
378,323,249118,1,0,0:0:0:0:
434,342,249202,1,2,0:0:0:0:
483,314,249285,1,0,0:0:0:0:
496,263,249368,21,10,0:0:0:0:
472,219,249452,1,0,0:0:0:0:
429,203,249535,1,2,0:0:0:0:
388,210,249618,1,0,0:0:0:0:
360,237,249702,53,2,0:0:0:0:
351,244,249757,1,0,0:0:0:0:
341,250,249813,1,0,0:0:0:0:
324,255,249868,6,0,P|287:242|266:222,1,52.5000020027161,2|0,0:0|0:0,0:0:0:0:
171,118,250034,21,2,0:0:0:0:
146,104,250117,1,0,0:0:0:0:
124,101,250201,1,2,0:0:0:0:
107,100,250284,1,0,0:0:0:0:
93,102,250368,22,0,P|55:131|42:165,1,70,2|10,0:0|0:0,0:0:0:0:
122,180,250868,1,2,0:0:0:0:
71,263,251035,6,0,B|120:292|175:262|175:262|205:301|205:301|231:252|268:252|292:253,1,262.500010013581,6|2,0:0|0:0,0:0:0:0:
279,334,252035,1,10,0:0:0:0:
352,299,252202,1,2,0:0:0:0:
241,320,252368,53,2,0:0:0:0:
352,299,252535,1,2,0:0:0:0:
196,288,252702,1,10,0:0:0:0:
352,299,252869,1,2,0:0:0:0:
147,228,253035,1,2,0:0:0:0:
352,299,253202,1,2,0:0:0:0:
101,129,253368,1,10,0:0:0:0:
352,299,253535,1,2,0:0:0:0:
274,48,253702,5,2,0:0:0:0:
235,359,253868,1,2,0:0:0:0:
187,127,254035,1,10,0:0:0:0:
235,359,254201,1,2,0:0:0:0:
147,228,254368,1,2,0:0:0:0:
235,359,254534,1,2,0:0:0:0:
187,127,254702,1,14,0:0:0:0:
235,359,254868,1,2,0:0:0:0:
274,48,255035,69,14,0:0:0:0:
354,247,255202,1,8,0:0:0:0:
398,273,255285,1,8,0:0:0:0:
449,268,255368,1,8,0:0:0:0:
487,233,255452,1,8,0:0:0:0:
496,182,255535,1,8,0:0:0:0:
473,136,255618,1,8,0:0:0:0:
427,113,255702,86,0,L|388:99,3,35,12|12|12|12,0:3|0:3|0:3|0:3,0:3:0:0:
323,132,256035,2,0,L|284:118,3,35,2|2|2|2,2:1|2:1|2:1|2:1,0:0:0:0:
236,177,256368,21,14,0:0:0:0:
252,182,256452,1,0,0:0:0:0:
268,188,256534,1,2,0:0:0:0:
285,194,256618,1,0,0:0:0:0:
301,200,256702,5,8,0:0:0:0:
283,208,256785,1,0,0:0:0:0:
267,219,256868,1,2,0:0:0:0:
252,230,256952,1,0,0:0:0:0:
237,243,257035,85,8,0:0:0:0:
253,255,257118,1,0,0:0:0:0:
272,264,257201,1,2,0:0:0:0:
293,269,257285,1,0,0:0:0:0:
314,270,257368,5,8,0:0:0:0:
294,281,257451,1,0,0:0:0:0:
277,296,257534,1,2,0:0:0:0:
265,315,257618,1,2,0:0:0:0:
258,337,257702,85,8,0:0:0:0:
239,321,257785,1,0,0:0:0:0:
217,310,257868,1,2,0:0:0:0:
193,307,257952,1,0,0:0:0:0:
168,311,258035,5,8,0:0:0:0:
183,289,258118,1,0,0:0:0:0:
194,266,258201,1,2,0:0:0:0:
200,240,258285,1,0,0:0:0:0:
202,214,258368,85,8,0:0:0:0:
176,224,258451,1,0,0:0:0:0:
148,229,258534,1,2,0:0:0:0:
120,226,258618,1,2,0:0:0:0:
94,218,258702,5,8,0:0:0:0:
115,197,258785,1,0,0:0:0:0:
129,171,258868,1,2,0:0:0:0:
135,142,258952,1,2,0:0:0:0:
132,113,259035,85,8,0:0:0:0:
150,138,259118,1,0,0:0:0:0:
176,154,259201,1,2,0:0:0:0:
207,160,259285,1,0,0:0:0:0:
238,153,259368,5,8,0:0:0:0:
227,121,259451,1,0,0:0:0:0:
229,88,259535,1,2,0:0:0:0:
242,58,259618,1,0,0:0:0:0:
265,34,259702,85,8,0:0:0:0:
289,58,259785,1,0,0:0:0:0:
321,72,259868,1,2,0:0:0:0:
355,73,259952,1,0,0:0:0:0:
388,60,260035,5,8,0:0:0:0:
380,95,260118,1,0,0:0:0:0:
363,128,260201,1,2,0:0:0:0:
336,153,260285,1,2,0:0:0:0:
304,170,260368,85,8,0:0:0:0:
332,195,260451,1,0,0:0:0:0:
368,206,260534,1,2,0:0:0:0:
406,199,260618,1,0,0:0:0:0:
437,177,260702,5,8,0:0:0:0:
417,211,260785,1,0,0:0:0:0:
418,251,260868,1,2,0:0:0:0:
439,284,260952,1,2,0:0:0:0:
475,302,261035,85,8,0:0:0:0:
442,327,261118,1,0,0:0:0:0:
402,340,261201,1,2,0:0:0:0:
360,337,261285,1,2,0:0:0:0:
322,320,261368,5,8,0:0:0:0:
346,284,261451,1,0,0:0:0:0:
354,241,261534,1,2,0:0:0:0:
343,199,261618,1,2,0:0:0:0:
317,164,261702,85,12,0:0:0:0:
310,208,261785,1,0,0:0:0:0:
280,241,261868,1,2,0:0:0:0:
236,250,261952,1,0,0:0:0:0:
195,233,262035,5,8,0:0:0:0:
178,276,262118,1,0,0:0:0:0:
143,307,262201,1,2,0:0:0:0:
97,316,262284,1,0,0:0:0:0:
52,302,262368,85,8,0:0:0:0:
87,268,262451,1,0,0:0:0:0:
101,222,262534,1,2,0:0:0:0:
90,175,262617,1,0,0:0:0:0:
56,139,262702,5,8,0:0:0:0:
103,153,262785,1,0,0:0:0:0:
151,138,262868,1,2,0:0:0:0:
181,98,262951,1,2,0:0:0:0:
182,49,263035,85,8,0:0:0:0:
221,82,263118,1,0,0:0:0:0:
273,86,263201,1,2,0:0:0:0:
318,61,263284,1,0,0:0:0:0:
340,14,263368,5,8,0:0:0:0:
379,49,263451,1,0,0:0:0:0:
389,102,263534,1,2,0:0:0:0:
365,149,263617,1,0,0:0:0:0:
317,173,263702,85,8,0:0:0:0:
337,224,263785,1,0,0:0:0:0:
381,258,263868,1,2,0:0:0:0:
436,266,263951,1,2,0:0:0:0:
487,245,264035,5,8,0:0:0:0:
440,211,264118,1,0,0:0:0:0:
384,210,264201,1,2,0:0:0:0:
336,241,264284,1,2,0:0:0:0:
314,294,264368,85,8,0:0:0:0:
290,240,264451,1,0,0:0:0:0:
237,214,264534,1,2,0:0:0:0:
180,227,264617,1,0,0:0:0:0:
145,274,264702,5,8,0:0:0:0:
105,228,264785,1,0,0:0:0:0:
101,168,264868,1,2,0:0:0:0:
133,117,264951,1,0,0:0:0:0:
189,95,265035,85,8,0:0:0:0:
229,141,265118,1,0,0:0:0:0:
290,148,265201,1,2,0:0:0:0:
340,111,265284,1,0,0:0:0:0:
353,51,265368,5,8,0:0:0:0:
308,96,265451,1,0,0:0:0:0:
306,159,265534,1,2,0:0:0:0:
347,207,265617,1,2,0:0:0:0:
409,216,265702,85,8,0:0:0:0:
371,269,265785,1,0,0:0:0:0:
308,289,265868,1,2,0:0:0:0:
246,268,265951,1,0,0:0:0:0:
209,215,266036,5,8,0:0:0:0:
165,265,266119,1,0,0:0:0:0:
99,274,266202,1,2,0:0:0:0:
45,235,266285,1,0,0:0:0:0:
31,170,266368,86,0,L|34:125,3,35,12|0|2|2,0:0|0:0|0:0|0:0,0:0:0:0:
35,311,266702,6,0,L|32:345,3,35,12|0|2|2,0:0|0:0|0:0|0:0,0:0:0:0:
120,191,267035,85,12,0:0:0:0:
125,174,267118,1,0,0:0:0:0:
130,157,267201,1,0,0:0:0:0:
135,140,267284,1,0,0:0:0:0:
140,124,267368,5,8,0:0:0:0:
147,141,267451,1,0,0:0:0:0:
157,157,267534,1,2,0:0:0:0:
171,171,267617,1,0,0:0:0:0:
187,181,267702,85,8,0:0:0:0:
187,160,267785,1,0,0:0:0:0:
195,140,267868,1,2,0:0:0:0:
209,125,267951,1,0,0:0:0:0:
228,115,268035,5,8,0:0:0:0:
237,135,268118,1,0,0:0:0:0:
252,152,268201,1,2,0:0:0:0:
271,164,268284,1,2,0:0:0:0:
293,168,268368,85,8,0:0:0:0:
272,180,268451,1,0,0:0:0:0:
256,199,268535,1,2,0:0:0:0:
247,221,268617,1,0,0:0:0:0:
245,246,268702,5,8,0:0:0:0:
270,239,268785,1,0,0:0:0:0:
296,240,268868,1,2,0:0:0:0:
321,249,268951,1,0,0:0:0:0:
342,264,269035,85,8,0:0:0:0:
338,236,269118,1,0,0:0:0:0:
344,209,269201,1,2,0:0:0:0:
361,187,269284,1,2,0:0:0:0:
385,172,269368,5,8,0:0:0:0:
361,154,269451,1,0,0:0:0:0:
346,128,269534,1,2,0:0:0:0:
345,99,269617,1,2,0:0:0:0:
357,72,269702,85,8,0:0:0:0:
334,93,269785,1,0,0:0:0:0:
305,104,269868,1,2,0:0:0:0:
274,101,269951,1,0,0:0:0:0:
247,85,270035,5,8,0:0:0:0:
217,99,270118,1,0,0:0:0:0:
184,98,270201,1,2,0:0:0:0:
156,80,270284,1,0,0:0:0:0:
141,52,270368,85,8,0:0:0:0:
112,71,270451,1,0,0:0:0:0:
97,102,270535,1,2,0:0:0:0:
101,137,270617,1,0,0:0:0:0:
121,165,270702,5,8,0:0:0:0:
86,177,270785,1,0,0:0:0:0:
64,205,270868,1,2,0:0:0:0:
60,241,270951,1,2,0:0:0:0:
75,274,271035,85,8,0:0:0:0:
103,248,271118,1,0,0:0:0:0:
140,240,271201,1,2,0:0:0:0:
176,250,271284,1,0,0:0:0:0:
203,278,271368,5,8,0:0:0:0:
200,238,271451,1,0,0:0:0:0:
221,204,271534,1,2,0:0:0:0:
257,189,271617,1,0,0:0:0:0:
296,197,271702,85,8,0:0:0:0:
303,237,271785,1,0,0:0:0:0:
332,267,271868,1,2,0:0:0:0:
372,278,271951,1,2,0:0:0:0:
411,265,272035,5,8,0:0:0:0:
381,233,272118,1,0,0:0:0:0:
376,190,272201,1,2,0:0:0:0:
397,153,272284,1,2,0:0:0:0:
436,134,272368,85,12,0:0:0:0:
392,142,272451,1,0,0:0:0:0:
351,123,272534,1,2,0:0:0:0:
329,83,272617,1,0,0:0:0:0:
335,39,272702,5,8,0:0:0:0:
309,77,272785,1,0,0:0:0:0:
265,92,272868,1,2,0:0:0:0:
221,76,272951,1,0,0:0:0:0:
196,37,273035,85,8,0:0:0:0:
164,73,273118,1,0,0:0:0:0:
164,120,273201,1,2,0:0:0:0:
196,156,273284,1,0,0:0:0:0:
244,162,273368,5,8,0:0:0:0:
214,202,273451,1,0,0:0:0:0:
169,223,273534,1,2,0:0:0:0:
119,218,273617,1,2,0:0:0:0:
78,189,273702,85,8,0:0:0:0:
114,225,273785,1,0,0:0:0:0:
116,276,273868,1,2,0:0:0:0:
83,315,273951,1,0,0:0:0:0:
32,321,274035,5,8,0:0:0:0:
64,278,274118,1,0,0:0:0:0:
115,262,274201,1,2,0:0:0:0:
165,279,274284,1,0,0:0:0:0:
197,322,274368,85,8,0:0:0:0:
208,268,274451,1,0,0:0:0:0:
249,232,274534,1,2,0:0:0:0:
304,229,274617,1,2,0:0:0:0:
349,260,274702,5,8,0:0:0:0:
326,208,274785,1,0,0:0:0:0:
344,155,274868,1,2,0:0:0:0:
394,128,274951,1,2,0:0:0:0:
448,143,275035,85,8,0:0:0:0:
391,155,275118,1,0,0:0:0:0:
339,128,275201,1,2,0:0:0:0:
318,73,275284,1,0,0:0:0:0:
338,18,275368,5,8,0:0:0:0:
278,24,275451,1,0,0:0:0:0:
236,66,275534,1,2,0:0:0:0:
230,126,275617,1,0,0:0:0:0:
264,176,275702,85,8,0:0:0:0:
209,204,275785,1,0,0:0:0:0:
148,193,275868,1,2,0:0:0:0:
108,146,275951,1,0,0:0:0:0:
106,84,276035,5,8,0:0:0:0:
166,103,276118,1,0,0:0:0:0:
194,159,276201,1,2,0:0:0:0:
176,220,276284,1,2,0:0:0:0:
120,249,276368,53,6,0:0:0:0:
137,297,276451,1,4,0:3:0:0:
181,324,276534,1,4,0:3:0:0:
232,319,276617,1,4,0:3:0:0:
269,283,276702,1,4,0:3:0:0:
310,251,276785,1,4,0:3:0:0:
362,248,276868,1,4,0:3:0:0:
406,274,276951,1,4,0:3:0:0:
430,320,277035,5,12,0:3:0:0:
388,322,277118,1,12,0:3:0:0:
348,309,277201,1,12,0:3:0:0:
318,281,277284,1,12,0:3:0:0:
300,243,277368,1,12,0:3:0:0:
292,201,277451,1,12,0:3:0:0:
276,163,277534,1,12,0:3:0:0:
250,129,277617,1,12,0:3:0:0:
218,103,277702,86,0,B|225:195|362:206|381:103|381:103|424:110|451:91|480:67,1,315.000012016297,14|0,0:0|2:0,0:0:0:0:
298,93,278368,2,0,B|304:163|241:199|185:178|185:178|223:221|182:278|258:324,1,315.000012016297,2|0,0:0|2:0,0:0:0:0:
388,366,279035,21,2,0:0:0:0:
446,191,279202,1,0,0:0:0:0:
285,246,279368,1,8,0:0:0:0:
466,337,279535,1,2,0:0:0:0:
359,287,279702,70,0,B|308:309|305:361|305:361|215:350|188:294|188:294|138:314|92:272,1,315.000012016297,2|2,0:0|0:0,0:0:0:0:
156,217,280368,21,2,0:0:0:0:
201,192,280451,1,0,0:0:0:0:
225,146,280534,1,0,0:0:0:0:
218,95,280617,1,0,0:0:0:0:
182,57,280702,2,0,L|122:43,1,52.5000020027161,8|0,0:0|0:0,0:0:0:0:
142,132,280868,69,2,0:0:0:0:
193,139,280951,1,0,0:0:0:0:
231,174,281034,1,0,0:0:0:0:
241,224,281117,1,0,0:0:0:0:
222,272,281202,2,0,L|176:303,1,52.5000020027161,2|0,0:0|0:0,0:0:0:0:
156,217,281368,21,8,0:0:0:0:
199,188,281451,1,0,0:0:0:0:
250,190,281534,1,0,0:0:0:0:
291,221,281617,1,0,0:0:0:0:
307,271,281702,70,0,B|289:287|284:296|276:296|256:300|239:305|222:303|206:297|197:284|195:268|196:256|203:243|216:238|229:239|245:244|253:255|257:269|248:288|235:292|221:297|211:297|201:289|194:281|191:281|189:281|174:288|137:342|106:269|92:262|85:241,1,315.000012016297,2|2,0:0|0:0,0:0:0:0:
89,244,282285,1,0,0:0:0:0:
84,218,282368,2,0,L|84:178,1,35
205,358,282535,21,2,0:0:0:0:
208,359,282618,1,2,0:0:0:0:
211,360,282702,86,0,P|247:366|278:364,1,52.5
288,359,283035,86,0,P|316:305|306:221,1,105.000004005432,2|0,0:0|0:0,0:0:0:0:
286,189,283285,2,0,P|349:190|389:227,1,105.000004005432
318,261,283535,2,0,L|260:285,1,52.5000020027161,2|0,0:0|0:0,0:0:0:0:
147,231,283702,21,0,0:0:0:0:
164,361,283868,1,2,0:0:0:0:
221,225,284035,86,0,P|207:186|166:159,1,78.7500030040742,8|0,0:0|0:0,0:0:0:0:
152,156,284368,86,0,P|107:114|87:32,1,105.000004005432,2|0,0:0|0:0,0:0:0:0:
95,0,284618,2,0,P|36:22|11:70,1,105.000004005432
90,74,284868,2,0,L|152:76,1,52.5000020027161,2|0,0:0|0:0,0:0:0:0:
262,19,285035,21,0,0:0:0:0:
142,76,285202,1,2,0:0:0:0:
250,150,285368,2,0,P|301:146|341:124,1,70,8|0,0:0|0:0,0:0:0:0:
334,132,285618,1,0,0:0:0:0:
349,122,285702,70,0,P|412:107|474:172,1,140,2|8,0:0|0:0,0:0:0:0:
478,262,286202,1,0,0:0:0:0:
397,185,286368,21,0,0:0:0:0:
478,262,286535,1,0,0:0:0:0:
370,294,286702,86,0,P|334:280|304:244,1,78.7500030040742
293,218,287035,85,2,0:0:0:0:
265,195,287118,1,0,0:0:0:0:
232,186,287201,1,0,0:0:0:0:
198,192,287284,1,0,0:0:0:0:
170,213,287368,21,8,0:0:0:0:
144,224,287451,1,0,0:0:0:0:
117,228,287534,1,2,0:0:0:0:
89,223,287617,1,0,0:0:0:0:
65,210,287701,69,0,0:0:0:0:
120,146,287868,1,2,0:0:0:0:
122,149,287952,1,2,0:0:0:0:
124,152,288035,5,12,0:3:0:0:
142,181,288118,1,12,0:3:0:0:
147,215,288201,1,12,0:3:0:0:
138,249,288284,1,12,0:3:0:0:
116,275,288368,6,0,P|93:327|105:375,1,105.000004005432,6|8,0:0|0:0,0:0:0:0:
175,332,288868,1,2,0:0:0:0:
65,210,289035,69,0,0:0:0:0:
47,188,289118,1,0,0:0:0:0:
36,154,289202,1,2,0:0:0:0:
43,112,289285,1,0,0:0:0:0:
74,74,289368,21,8,0:0:0:0:
122,85,289452,1,0,0:0:0:0:
162,73,289535,1,0,0:0:0:0:
189,51,289618,1,0,0:0:0:0:
204,27,289702,69,2,0:0:0:0:
213,89,289785,1,0,0:0:0:0:
245,134,289868,1,0,0:0:0:0:
288,157,289952,1,0,0:0:0:0:
329,164,290035,21,8,0:0:0:0:
332,215,290118,1,0,0:0:0:0:
364,255,290201,1,2,0:0:0:0:
414,269,290284,1,0,0:0:0:0:
463,252,290368,69,0,0:0:0:0:
343,338,290535,1,2,0:0:0:0:
413,185,290702,6,0,P|415:150|394:106,1,78.7500030040742,8|0,0:0|0:0,0:0:0:0:
372,85,291035,5,2,0:0:0:0:
262,183,291202,1,0,0:0:0:0:
232,40,291368,1,8,0:0:0:0:
329,164,291535,1,2,0:0:0:0:
205,287,291702,1,0,0:0:0:0:
159,118,291868,1,2,0:0:0:0:
274,262,292035,86,0,P|275:307|255:341,1,78.7500030040742,8|0,0:0|0:0,0:0:0:0:
205,287,292368,85,2,0:0:0:0:
200,259,292452,1,0,0:0:0:0:
206,231,292535,1,0,0:0:0:0:
219,210,292618,1,0,0:0:0:0:
238,195,292702,21,8,0:0:0:0:
257,187,292785,1,0,0:0:0:0:
274,174,292868,1,2,0:0:0:0:
285,160,292952,1,0,0:0:0:0:
293,144,293035,69,0,0:0:0:0:
296,130,293118,1,0,0:0:0:0:
298,116,293202,1,2,0:0:0:0:
295,105,293285,1,2,0:0:0:0:
292,94,293368,6,0,P|261:55|247:48,1,52.5,14|0,0:0|0:0,0:0:0:0:
243,49,293702,6,0,P|205:89|147:89,1,105.000004005432,6|8,0:0|0:0,0:0:0:0:
176,24,294202,1,2,0:0:0:0:
244,153,294368,70,0,P|243:206|198:260,1,105
154,177,294868,1,0,0:0:0:0:
260,149,295035,21,2,0:0:0:0:
260,269,295285,1,0,0:0:0:0:
155,209,295535,1,2,0:0:0:0:
275,144,295702,5,2,0:0:0:0:
315,294,295952,1,0,0:0:0:0:
163,254,296202,1,2,0:0:0:0:
290,139,296368,5,2,0:0:0:0:
390,313,296618,1,0,0:0:0:0:
186,314,296868,1,2,0:0:0:0:
305,129,297035,5,2,0:0:0:0:
488,313,297285,1,0,0:0:0:0:
233,383,297535,1,2,0:0:0:0:
320,124,297702,37,8,0:0:0:0:
367,102,297785,1,8,0:0:0:0:
418,111,297868,2,0,L|470:156,1,52.5000020027161,2|2,0:0|0:0,0:0:0:0:
289,210,298035,85,8,0:0:0:0:
247,179,298118,1,8,0:0:0:0:
228,131,298202,2,0,L|241:63,1,52.5000020027161,2|2,0:0|0:0,0:0:0:0:
378,193,298368,5,8,0:0:0:0:
378,217,298452,1,8,0:0:0:0:
371,247,298535,1,8,0:0:0:0:
350,279,298618,1,8,0:0:0:0:
309,300,298702,1,8,0:0:0:0:
256,295,298785,1,8,0:0:0:0:
210,256,298868,1,8,0:0:0:0:
154,219,298952,1,8,0:0:0:0:
77,219,299035,5,12,0:0:0:0:
154,219,299202,2,0,P|150:244|138:267,1,52.5,8|2,0:0|0:0,0:0:0:0:
103,300,299535,1,8,0:0:0:0:
77,219,299702,1,2,0:0:0:0:
135,145,299868,1,8,0:0:0:0:
181,149,299952,2,0,P|197:157|217:180,1,35,2|2,0:0|0:0,0:0:0:0:
228,212,300202,1,8,0:0:0:0:
301,152,300368,5,2,0:0:0:0:
312,246,300535,2,0,P|340:239|363:220,1,52.5,8|2,0:0|0:0,0:0:0:0:
385,186,300868,1,8,0:0:0:0:
432,268,301035,1,2,0:0:0:0:
480,187,301202,1,8,0:0:0:0:
472,141,301285,2,0,P|458:120|440:105,1,35,2|2,0:0|0:0,0:0:0:0:
408,92,301535,1,8,0:0:0:0:
301,152,301702,5,2,0:0:0:0:
235,97,301868,2,0,P|255:79|289:67,1,52.5,8|2,0:0|0:0,0:0:0:0:
328,71,302201,1,8,0:0:0:0:
301,152,302368,1,2,0:0:0:0:
220,180,302534,1,8,0:0:0:0:
177,159,302618,2,0,P|161:137|152:116,1,35,2|2,0:0|0:0,0:0:0:0:
155,82,302868,1,8,0:0:0:0:
71,133,303035,5,2,0:0:0:0:
126,209,303202,2,0,P|102:223|77:228,1,52.5,8|2,0:0|0:0,0:0:0:0:
31,220,303535,1,8,0:0:0:0:
71,133,303702,1,2,0:0:0:0:
177,159,303868,1,8,0:0:0:0:
196,201,303952,1,2,0:0:0:0:
235,225,304035,2,0,P|274:224|313:197,1,70,0|8,0:0|0:0,0:0:0:0:
262,53,304368,53,6,0:0:0:0:
335,103,304535,2,0,P|319:124|296:136,1,52.5,8|2,0:0|0:0,0:0:0:0:
251,149,304868,1,8,0:0:0:0:
173,91,305035,1,2,0:0:0:0:
163,187,305202,1,8,0:0:0:0:
176,210,305285,1,2,0:0:0:0:
71,213,305452,1,2,0:0:0:0:
62,188,305535,1,8,0:0:0:0:
125,303,305702,5,2,0:0:0:0:
176,210,305869,2,0,P|203:206|232:217,1,52.5,8|2,0:0|0:0,0:0:0:0:
257,251,306202,1,8,0:0:0:0:
283,157,306368,1,2,0:0:0:0:
352,227,306535,1,8,0:0:0:0:
353,253,306618,1,2,0:0:0:0:
377,132,306785,1,2,0:0:0:0:
366,108,306868,1,8,0:0:0:0:
446,202,307035,5,2,0:0:0:0:
377,132,307202,2,0,P|351:127|320:134,1,52.5,8|2,0:0|0:0,0:0:0:0:
283,157,307535,1,8,0:0:0:0:
258,252,307702,1,2,0:0:0:0:
190,182,307868,1,8,0:0:0:0:
190,155,307952,1,2,0:0:0:0:
162,277,308118,1,2,0:0:0:0:
173,301,308202,1,8,0:0:0:0:
97,204,308368,5,2,0:0:0:0:
162,277,308535,2,0,P|185:281|220:275,1,52.5,8|2,0:0|0:0,0:0:0:0:
258,252,308868,1,8,0:0:0:0:
190,182,309035,2,0,L|191:145,1,35,2|8,0:0|0:0,0:0:0:0:
211,109,309285,2,0,L|233:52,1,52.5000020027161,2|2,0:0|0:0,0:0:0:0:
276,56,309535,2,0,L|304:21,1,35,8|8,0:0|0:0,0:0:0:0:
366,100,309702,53,6,0:0:0:0:
352,120,309785,1,0,0:0:0:0:
334,136,309868,1,8,0:0:0:0:
313,148,309951,1,0,0:0:0:0:
289,154,310035,1,0,0:0:0:0:
264,154,310118,1,2,0:0:0:0:
241,148,310201,1,8,0:0:0:0:
219,137,310285,1,0,0:0:0:0:
198,124,310368,1,2,0:0:0:0:
174,120,310451,1,0,0:0:0:0:
150,124,310534,1,8,0:0:0:0:
129,136,310618,1,2,0:0:0:0:
113,155,310701,1,0,0:0:0:0:
105,178,310784,1,2,0:0:0:0:
106,203,310868,2,0,L|110:242,1,35,8|0,0:0|0:0,0:0:0:0:
176,191,311035,5,2,0:0:0:0:
171,174,311118,1,0,0:0:0:0:
162,159,311201,1,8,0:0:0:0:
149,146,311284,1,0,0:0:0:0:
134,138,311368,1,0,0:0:0:0:
118,133,311451,1,2,0:0:0:0:
100,132,311535,1,8,0:0:0:0:
82,132,311618,1,0,0:0:0:0:
65,127,311701,1,2,0:0:0:0:
50,119,311784,1,0,0:0:0:0:
36,108,311868,1,8,0:0:0:0:
26,94,311951,1,2,0:0:0:0:
20,77,312034,1,0,0:0:0:0:
18,60,312118,1,2,0:0:0:0:
20,43,312202,2,0,L|29:-9,1,35,8|0,0:0|0:0,0:0:0:0:
94,55,312368,5,2,0:0:0:0:
111,54,312451,1,0,0:0:0:0:
128,56,312534,1,8,0:0:0:0:
145,60,312617,1,0,0:0:0:0:
162,66,312701,1,0,0:0:0:0:
178,74,312784,1,2,0:0:0:0:
192,83,312867,1,8,0:0:0:0:
206,94,312951,1,0,0:0:0:0:
218,107,313035,1,2,0:0:0:0:
229,120,313118,1,0,0:0:0:0:
236,136,313201,1,8,0:0:0:0:
239,153,313284,1,2,0:0:0:0:
238,170,313368,1,0,0:0:0:0:
232,187,313451,1,2,0:0:0:0:
223,202,313535,2,0,L|192:241,1,35,8|0,0:0|0:0,0:0:0:0:
169,157,313702,5,2,0:0:0:0:
176,149,313785,1,0,0:0:0:0:
184,143,313869,1,8,0:0:0:0:
193,138,313951,1,0,0:0:0:0:
203,134,314035,1,0,0:0:0:0:
214,132,314118,1,2,0:0:0:0:
224,131,314202,1,8,0:0:0:0:
234,132,314285,1,0,0:0:0:0:
245,135,314368,1,2,0:0:0:0:
254,139,314451,1,0,0:0:0:0:
263,144,314535,1,8,0:0:0:0:
271,151,314618,1,2,0:0:0:0:
278,159,314701,1,0,0:0:0:0:
284,168,314785,1,2,0:0:0:0:
289,177,314868,2,0,L|297:227,1,35,8|0,0:0|0:0,0:0:0:0:
248,270,315035,53,6,0:0:0:0:
253,274,315118,1,0,0:0:0:0:
259,277,315201,1,8,0:0:0:0:
265,280,315284,1,0,0:0:0:0:
272,283,315368,1,0,0:0:0:0:
279,285,315451,1,2,0:0:0:0:
286,286,315534,1,8,0:0:0:0:
292,287,315618,1,0,0:0:0:0:
299,286,315701,1,2,0:0:0:0:
306,285,315784,1,0,0:0:0:0:
313,284,315868,1,8,0:0:0:0:
320,282,315951,1,2,0:0:0:0:
326,279,316035,2,0,L|373:248,1,35,0|2,0:0|0:0,0:0:0:0:
323,192,316202,2,0,L|293:211,1,35,8|0,0:0|0:0,0:0:0:0:
396,198,316368,5,2,0:0:0:0:
392,170,316451,1,0,0:0:0:0:
379,145,316534,1,8,0:0:0:0:
358,127,316617,1,0,0:0:0:0:
332,119,316702,5,0,0:0:0:0:
297,124,316785,1,2,0:0:0:0:
264,114,316868,1,8,0:0:0:0:
240,89,316951,1,0,0:0:0:0:
230,56,317035,5,2,0:0:0:0:
205,89,317118,1,0,0:0:0:0:
169,110,317201,1,8,0:0:0:0:
127,113,317284,1,2,0:0:0:0:
88,99,317368,21,0,0:0:0:0:
128,126,317451,1,2,0:0:0:0:
148,169,317534,1,8,0:0:0:0:
144,218,317617,1,0,0:0:0:0:
115,257,317701,5,2,0:0:0:0:
143,24,317869,1,8,0:0:0:0:
93,7,317952,1,0,0:0:0:0:
43,19,318035,1,0,0:0:0:0:
7,56,318118,1,2,0:0:0:0:
0,107,318202,1,8,0:0:0:0:
16,155,318285,1,0,0:0:0:0:
58,186,318368,86,0,P|111:227|111:289,1,105.000004005432,2|8,0:0|0:0,0:0:0:0:
5,349,318618,2,0,P|14:282|68:251,1,105.000004005432,2|2,0:0|0:0,0:0:0:0:
78,328,318868,1,8,0:0:0:0:
58,186,319035,5,14,0:0:0:0:
78,328,319202,1,8,0:0:0:0:
136,337,319285,1,8,0:0:0:0:
183,306,319368,2,0,L|211:230,1,52.5000020027161,8|0,0:0|0:0,0:0:0:0:
58,186,319535,1,8,0:0:0:0:
219,182,319702,85,8,0:0:0:0:
235,187,319785,1,8,0:0:0:0:
250,197,319868,1,2,0:0:0:0:
262,209,319951,1,2,0:0:0:0:
271,224,320035,5,10,0:0:0:0:
321,211,320118,1,10,0:0:0:0:
359,176,320201,1,10,0:0:0:0:
375,127,320284,1,10,0:0:0:0:
364,76,320368,5,14,0:0:0:0:
363,357,320535,1,2,0:0:0:0:
122,214,320702,1,12,0:0:0:0:
374,86,320868,1,2,0:0:0:0:
348,365,321035,1,12,0:0:0:0:
120,202,321202,1,2,0:0:0:0:
383,96,321368,1,12,0:0:0:0:
332,373,321535,1,2,0:0:0:0:
329,373,321618,1,2,0:0:0:0:
325,373,321702,5,12,0:0:0:0:
482,185,321868,1,2,0:0:0:0:
241,142,322035,1,12,0:0:0:0:
369,348,322202,1,2,0:0:0:0:
472,126,322368,1,12,0:0:0:0:
228,147,322535,1,2,0:0:0:0:
225,148,322618,1,2,0:0:0:0:
221,149,322702,1,12,0:0:0:0:
406,314,322868,1,2,0:0:0:0:
410,315,322952,1,2,0:0:0:0:
414,316,323035,5,12,0:0:0:0:
216,244,323202,1,2,0:0:0:0:
376,109,323368,1,12,0:0:0:0:
330,368,323535,1,2,0:0:0:0:
195,207,323702,1,12,0:0:0:0:
401,170,323868,1,2,0:0:0:0:
232,371,324035,1,12,0:0:0:0:
195,164,324202,1,2,0:0:0:0:
194,160,324285,1,2,0:0:0:0:
193,156,324368,5,12,0:0:0:0:
333,355,324535,1,2,0:0:0:0:
435,134,324702,1,12,0:0:0:0:
185,211,324868,1,2,0:0:0:0:
425,252,325035,1,12,0:0:0:0:
341,24,325202,1,2,0:0:0:0:
339,21,325285,1,2,0:0:0:0:
336,18,325368,1,12,0:0:0:0:
220,255,325535,1,2,0:0:0:0:
219,258,325618,1,2,0:0:0:0:
218,261,325702,53,12,0:0:0:0:
78,18,325868,1,2,0:0:0:0:
358,18,326035,1,12,0:0:0:0:
212,267,326202,1,2,0:0:0:0:
93,13,326368,1,12,0:0:0:0:
372,37,326535,1,2,0:0:0:0:
205,272,326702,1,12,0:0:0:0:
109,9,326868,1,2,0:0:0:0:
112,7,326952,1,2,0:0:0:0:
115,6,327035,5,12,0:0:0:0:
134,248,327202,1,2,0:0:0:0:
335,108,327368,1,12,0:0:0:0:
71,48,327535,1,2,0:0:0:0:
152,277,327702,1,12,0:0:0:0:
310,90,327868,1,2,0:0:0:0:
312,87,327952,1,2,0:0:0:0:
313,83,328035,1,12,0:0:0:0:
40,101,328202,1,2,0:0:0:0:
40,105,328285,1,2,0:0:0:0:
41,109,328368,5,12,0:0:0:0:
231,175,328535,1,2,0:0:0:0:
70,310,328702,1,12,0:0:0:0:
108,36,328868,1,2,0:0:0:0:
242,194,329035,1,12,0:0:0:0:
35,231,329202,1,2,0:0:0:0:
205,14,329368,1,12,0:0:0:0:
242,217,329535,1,2,0:0:0:0:
241,220,329618,1,2,0:0:0:0:
240,223,329702,5,12,0:0:0:0:
360,9,329868,1,2,0:0:0:0:
115,9,330035,1,12,0:0:0:0:
266,237,330202,1,2,0:0:0:0:
199,1,330368,1,12,0:0:0:0:
26,174,330535,37,2,0:0:0:0:
35,224,330618,1,8,0:0:0:0:
72,260,330701,1,8,0:0:0:0:
123,268,330784,1,8,0:0:0:0:
169,245,330868,1,8,0:0:0:0:
193,200,330951,1,8,0:0:0:0:
234,167,331035,5,14,0:0:0:0:
247,216,331118,1,0,0:0:0:0:
288,246,331201,1,8,0:0:0:0:
340,242,331284,1,0,0:0:0:0:
377,206,331368,1,0,0:0:0:0:
382,155,331451,1,2,0:0:0:0:
353,112,331535,1,8,0:0:0:0:
363,60,331618,1,0,0:0:0:0:
407,32,331701,1,2,0:0:0:0:
457,44,331784,1,0,0:0:0:0:
483,89,331868,1,8,0:0:0:0:
471,139,331951,1,2,0:0:0:0:
428,169,332035,2,0,L|364:180,1,52.5000020027161,0|2,0:0|0:0,0:0:0:0:
374,326,332202,2,0,L|425:317,1,52.5000020027161,8|0,0:0|0:0,0:0:0:0:
375,252,332368,5,2,0:0:0:0:
335,263,332451,1,0,0:0:0:0:
307,294,332535,1,8,0:0:0:0:
293,333,332618,1,0,0:0:0:0:
263,362,332701,1,0,0:0:0:0:
224,375,332784,1,2,0:0:0:0:
183,368,332868,1,8,0:0:0:0:
149,344,332951,1,0,0:0:0:0:
131,306,333034,1,2,0:0:0:0:
136,264,333118,1,0,0:0:0:0:
158,228,333201,1,8,0:0:0:0:
163,184,333285,1,2,0:0:0:0:
160,141,333368,2,0,L|150:71,1,52.5000020027161,0|2,0:0|0:0,0:0:0:0:
6,111,333535,2,0,L|13:162,1,52.5000020027161,8|0,0:0|0:0,0:0:0:0:
79,102,333702,5,2,0:0:0:0:
81,67,333785,1,0,0:0:0:0:
99,37,333868,1,8,0:0:0:0:
129,19,333951,1,0,0:0:0:0:
163,16,334035,1,0,0:0:0:0:
195,29,334118,1,2,0:0:0:0:
218,55,334201,1,8,0:0:0:0:
227,89,334285,1,0,0:0:0:0:
238,121,334368,1,2,0:0:0:0:
262,147,334451,1,0,0:0:0:0:
294,161,334534,1,8,0:0:0:0:
329,162,334618,1,2,0:0:0:0:
361,149,334702,2,0,L|421:113,1,52.5000020027161,0|2,0:0|0:0,0:0:0:0:
325,0,334868,2,0,L|279:27,1,52.5000020027161,8|0,0:0|0:0,0:0:0:0:
364,63,335035,5,2,0:0:0:0:
402,48,335118,1,0,0:0:0:0:
443,58,335201,1,8,0:0:0:0:
472,87,335284,1,0,0:0:0:0:
481,128,335368,1,0,0:0:0:0:
466,166,335451,1,2,0:0:0:0:
432,191,335534,1,8,0:0:0:0:
391,194,335618,1,0,0:0:0:0:
352,177,335702,1,2,0:0:0:0:
318,152,335785,1,0,0:0:0:0:
277,149,335868,1,8,0:0:0:0:
240,169,335951,1,2,0:0:0:0:
219,205,336035,2,0,L|200:266,1,52.5000020027161,0|2,0:0|0:0,0:0:0:0:
341,310,336202,2,0,L|356:259,1,52.5000020027161,8|0,0:0|0:0,0:0:0:0:
272,284,336368,53,6,0:0:0:0:
236,321,336451,1,0,0:0:0:0:
185,327,336534,1,8,0:0:0:0:
143,297,336617,1,0,0:0:0:0:
130,248,336701,1,0,0:0:0:0:
152,202,336784,1,2,0:0:0:0:
199,181,336868,1,8,0:0:0:0:
250,176,336951,1,0,0:0:0:0:
291,144,337034,1,2,0:0:0:0:
307,95,337117,1,0,0:0:0:0:
294,45,337201,1,8,0:0:0:0:
255,11,337284,1,2,0:0:0:0:
204,4,337368,2,0,L|145:11,1,52.5000020027161,0|2,0:0|0:0,0:0:0:0:
188,154,337535,2,0,L|240:147,1,52.5000020027161,8|0,0:0|0:0,0:0:0:0:
176,81,337702,5,2,0:0:0:0:
138,98,337785,1,0,0:0:0:0:
116,133,337868,1,8,0:0:0:0:
115,174,337951,1,0,0:0:0:0:
137,210,338035,1,0,0:0:0:0:
174,228,338118,1,2,0:0:0:0:
215,224,338202,1,8,0:0:0:0:
245,195,338285,1,0,0:0:0:0:
285,182,338368,1,2,0:0:0:0:
326,187,338451,1,0,0:0:0:0:
362,208,338535,1,8,0:0:0:0:
385,243,338618,1,2,0:0:0:0:
392,284,338702,2,0,L|384:345,1,52.5000020027161,0|2,0:0|0:0,0:0:0:0:
239,345,338868,2,0,L|245:292,1,52.5000020027161,8|2,0:0|0:0,0:0:0:0:
318,289,339035,69,6,0:0:0:0:
306,96,339202,1,8,0:0:0:0:
261,70,339285,1,8,0:0:0:0:
209,68,339368,1,8,0:0:0:0:
162,92,339451,1,8,0:0:0:0:
133,135,339535,85,2,0:0:0:0:
333,197,339702,1,8,0:0:0:0:
377,171,339785,1,8,0:0:0:0:
405,126,339868,1,8,0:0:0:0:
407,74,339951,1,8,0:0:0:0:
384,28,340035,5,2,0:0:0:0:
232,171,340202,1,8,0:0:0:0:
232,222,340285,1,8,0:0:0:0:
257,268,340369,85,8,0:0:0:0:
301,296,340452,1,8,0:0:0:0:
352,299,340535,2,0,L|409:277,1,52.5000020027161,2|2,0:0|0:0,0:0:0:0:
209,198,340702,5,8,0:0:0:0:
181,241,340785,1,8,0:0:0:0:
177,292,340868,2,0,L|198:349,1,52.5000020027161,2|2,0:0|0:0,0:0:0:0:
278,150,341036,85,12,0:3:0:0:
236,122,341119,1,12,0:3:0:0:
185,118,341202,2,0,L|128:139,1,52.5000020027161,2|2,0:0|0:0,0:0:0:0:
327,219,341368,5,12,0:3:0:0:
355,177,341452,1,12,0:3:0:0:
359,126,341535,2,0,L|337:69,1,52.5000020027161,2|2,0:0|0:0,0:0:0:0:
257,268,341702,5,14,0:0:0:0:
256,192,341785,12,0,343035,0:0:0:0:
