osu file format v14

[General]
AudioFilename: audio.mp3
AudioLeadIn: 0
PreviewTime: -1
Countdown: 1
SampleSet: None
StackLeniency: 0.7
Mode: 0
LetterboxInBreaks: 0
WidescreenStoryboard: 1

[Editor]
Bookmarks: 4088,17724
DistanceSpacing: 0.5
BeatDivisor: 4
GridSize: 4
TimelineZoom: 2.2

[Metadata]
Title:Immortal Vengeance
TitleUnicode:Immortal Vengeance
Artist:Thousand Leaves
ArtistUnicode:Thousand Leaves
Creator:LanExtremophile
Version:Inferno Fury
Source:Touhou
Tags:
BeatmapID:1936261
BeatmapSetID:927054

[Difficulty]
HPDrainRate:5
CircleSize:5
OverallDifficulty:10
ApproachRate:10
SliderMultiplier:2
SliderTickRate:1

[Events]
//Background and Video events
0,0,"fujiwara-no-mokou-touhou-project-28781-2560x1600.jpg",0,0
//Break Periods
//Storyboard Layer 0 (Background)
//Storyboard Layer 1 (Fail)
//Storyboard Layer 2 (Pass)
//Storyboard Layer 3 (Foreground)
//Storyboard Sound Samples

[TimingPoints]
270,272.727272727273,4,3,0,100,1,0
19360,-200,4,3,0,100,0,0
19906,-100,4,3,0,100,0,0

[HitObjects]
76,64,270,5,8,0:0:0:0:
125,60,338,1,0,0:0:0:0:
166,86,406,1,0,0:0:0:0:
184,132,474,1,0,0:0:0:0:
168,184,542,1,0,0:0:0:0:
156,232,610,1,0,0:0:0:0:
170,279,678,1,0,0:0:0:0:
205,314,746,1,0,0:0:0:0:
260,316,815,1,2,0:0:0:0:
306,298,883,1,0,0:0:0:0:
339,262,951,1,0,0:0:0:0:
352,214,1019,1,0,0:0:0:0:
348,184,1088,1,0,0:0:0:0:
328,161,1156,1,0,0:0:0:0:
309,138,1224,1,0,0:0:0:0:
289,115,1292,1,0,0:0:0:0:
268,92,1360,5,8,0:0:0:0:
221,77,1428,1,0,0:0:0:0:
175,94,1496,1,0,0:0:0:0:
151,137,1564,1,0,0:0:0:0:
160,188,1633,1,0,0:0:0:0:
181,233,1701,1,0,0:0:0:0:
214,269,1769,1,0,0:0:0:0:
260,288,1837,1,0,0:0:0:0:
304,264,1906,1,2,0:0:0:0:
345,238,1974,1,0,0:0:0:0:
392,251,2042,1,0,0:0:0:0:
415,294,2110,1,0,0:0:0:0:
396,320,2179,1,0,0:0:0:0:
369,333,2247,1,0,0:0:0:0:
340,342,2315,1,0,0:0:0:0:
311,348,2383,1,0,0:0:0:0:
260,352,2451,5,8,0:0:0:0:
211,351,2519,1,0,0:0:0:0:
177,316,2587,1,0,0:0:0:0:
181,268,2655,1,0,0:0:0:0:
204,224,2724,1,0,0:0:0:0:
222,178,2792,1,0,0:0:0:0:
212,129,2860,1,0,0:0:0:0:
179,93,2928,1,0,0:0:0:0:
132,76,2997,1,2,0:0:0:0:
84,85,3065,1,0,0:0:0:0:
58,126,3133,1,0,0:0:0:0:
70,173,3201,1,0,0:0:0:0:
88,196,3270,1,0,0:0:0:0:
107,218,3338,1,0,0:0:0:0:
132,234,3406,1,0,0:0:0:0:
160,245,3474,1,0,0:0:0:0:
208,256,3542,5,8,0:0:0:0:
257,253,3610,1,0,0:0:0:0:
299,228,3678,1,0,0:0:0:0:
324,185,3746,1,0,0:0:0:0:
316,136,3815,1,0,0:0:0:0:
270,115,3883,1,0,0:0:0:0:
220,112,3951,1,0,0:0:0:0:
172,125,4019,1,0,0:0:0:0:
124,140,4088,1,2,0:0:0:0:
137,92,4156,1,0,0:0:0:0:
175,60,4224,1,0,0:0:0:0:
223,53,4292,1,0,0:0:0:0:
252,52,4360,1,0,0:0:0:0:
281,53,4428,1,0,0:0:0:0:
311,58,4496,1,0,0:0:0:0:
339,68,4564,1,0,0:0:0:0:
384,96,4633,5,8,0:0:0:0:
406,140,4701,1,0,0:0:0:0:
416,189,4769,1,0,0:0:0:0:
412,238,4837,1,0,0:0:0:0:
372,272,4906,1,0,0:0:0:0:
325,289,4974,1,0,0:0:0:0:
276,284,5042,1,0,0:0:0:0:
234,258,5110,1,0,0:0:0:0:
188,236,5179,1,2,0:0:0:0:
141,224,5247,1,0,0:0:0:0:
102,254,5315,1,0,0:0:0:0:
102,302,5383,1,0,0:0:0:0:
124,324,5451,1,0,0:0:0:0:
149,339,5519,1,0,0:0:0:0:
178,348,5587,1,0,0:0:0:0:
207,352,5655,1,0,0:0:0:0:
256,348,5724,5,8,0:0:0:0:
298,323,5792,1,0,0:0:0:0:
321,280,5860,1,0,0:0:0:0:
317,231,5928,1,0,0:0:0:0:
296,188,5997,1,0,0:0:0:0:
301,139,6065,1,0,0:0:0:0:
342,114,6133,1,0,0:0:0:0:
388,131,6201,1,0,0:0:0:0:
392,180,6270,1,2,0:0:0:0:
364,221,6338,1,0,0:0:0:0:
321,246,6406,1,0,0:0:0:0:
272,249,6474,1,0,0:0:0:0:
224,236,6542,1,0,0:0:0:0:
194,229,6610,1,0,0:0:0:0:
168,215,6678,1,0,0:0:0:0:
147,194,6746,1,0,0:0:0:0:
108,160,6815,5,8,0:0:0:0:
61,171,6883,1,0,0:0:0:0:
40,215,6951,1,0,0:0:0:0:
61,259,7019,1,0,0:0:0:0:
108,284,7088,1,0,0:0:0:0:
157,284,7156,1,0,0:0:0:0:
202,263,7224,1,0,0:0:0:0:
233,224,7292,1,0,0:0:0:0:
256,180,7360,1,2,0:0:0:0:
283,140,7428,1,0,0:0:0:0:
331,137,7496,1,0,0:0:0:0:
363,173,7564,1,0,0:0:0:0:
364,204,7633,1,0,0:0:0:0:
362,233,7701,1,0,0:0:0:0:
354,262,7769,1,0,0:0:0:0:
292,328,7906,5,2,0:0:0:0:
267,334,7974,1,2,0:0:0:0:
243,341,8042,1,10,0:0:0:0:
248,240,8179,5,2,0:0:0:0:
223,246,8247,1,2,0:0:0:0:
199,253,8315,1,10,0:0:0:0:
220,156,8451,5,2,0:0:0:0:
195,162,8519,1,2,0:0:0:0:
171,169,8587,1,10,0:0:0:0:
176,68,8724,5,2,0:0:0:0:
151,74,8792,1,2,0:0:0:0:
127,81,8860,1,10,0:0:0:0:
48,180,8997,5,8,0:0:0:0:
66,225,9065,1,0,0:0:0:0:
104,258,9133,1,0,0:0:0:0:
152,269,9201,1,0,0:0:0:0:
199,253,9270,1,0,0:0:0:0:
247,240,9338,1,0,0:0:0:0:
296,246,9406,1,0,0:0:0:0:
340,272,9474,1,0,0:0:0:0:
376,304,9542,1,2,0:0:0:0:
421,317,9610,1,0,0:0:0:0:
456,285,9678,1,0,0:0:0:0:
447,238,9746,1,0,0:0:0:0:
428,216,9815,1,0,0:0:0:0:
407,194,9883,1,0,0:0:0:0:
383,175,9951,1,0,0:0:0:0:
357,160,10019,1,0,0:0:0:0:
316,132,10088,5,8,0:0:0:0:
270,113,10156,1,0,0:0:0:0:
226,133,10224,1,0,0:0:0:0:
209,179,10292,1,0,0:0:0:0:
204,228,10360,1,0,0:0:0:0:
189,274,10428,1,0,0:0:0:0:
145,295,10496,1,0,0:0:0:0:
100,277,10564,1,0,0:0:0:0:
96,228,10633,1,2,0:0:0:0:
132,194,10701,1,0,0:0:0:0:
179,179,10769,1,0,0:0:0:0:
228,188,10837,1,0,0:0:0:0:
252,208,10906,1,0,0:0:0:0:
275,226,10974,1,0,0:0:0:0:
299,244,11042,1,0,0:0:0:0:
322,263,11110,1,0,0:0:0:0:
360,296,11179,5,8,0:0:0:0:
405,312,11247,1,0,0:0:0:0:
447,288,11315,1,0,0:0:0:0:
457,241,11383,1,0,0:0:0:0:
436,196,11451,1,0,0:0:0:0:
400,161,11519,1,0,0:0:0:0:
352,146,11587,1,0,0:0:0:0:
303,152,11655,1,0,0:0:0:0:
264,184,11724,1,2,0:0:0:0:
217,196,11792,1,0,0:0:0:0:
179,166,11860,1,0,0:0:0:0:
181,118,11928,1,0,0:0:0:0:
200,96,11997,1,0,0:0:0:0:
225,80,12065,1,0,0:0:0:0:
253,70,12133,1,0,0:0:0:0:
283,66,12201,1,0,0:0:0:0:
328,84,12270,5,8,0:0:0:0:
360,121,12338,1,0,0:0:0:0:
367,170,12406,1,0,0:0:0:0:
346,215,12474,1,0,0:0:0:0:
304,240,12542,1,0,0:0:0:0:
254,241,12610,1,0,0:0:0:0:
210,219,12678,1,0,0:0:0:0:
181,179,12746,1,0,0:0:0:0:
176,128,12815,1,2,0:0:0:0:
142,164,12883,1,0,0:0:0:0:
135,212,12951,1,0,0:0:0:0:
156,257,13019,1,0,0:0:0:0:
196,292,13088,1,0,0:0:0:0:
241,311,13156,1,0,0:0:0:0:
292,316,13224,1,0,0:0:0:0:
292,316,13292,1,0,0:0:0:0:
292,316,13360,1,0,0:0:0:0:
280,268,13429,5,8,0:0:0:0:
266,219,13497,1,0,0:0:0:0:
253,171,13565,1,0,0:0:0:0:
240,124,13633,1,0,0:0:0:0:
200,95,13701,1,0,0:0:0:0:
153,104,13769,1,0,0:0:0:0:
128,146,13837,1,0,0:0:0:0:
128,196,13906,1,0,0:0:0:0:
171,219,13974,1,2,0:0:0:0:
221,225,14042,1,0,0:0:0:0:
269,213,14110,1,0,0:0:0:0:
296,204,14179,1,0,0:0:0:0:
322,190,14247,1,0,0:0:0:0:
352,186,14315,1,0,0:0:0:0:
381,192,14383,1,0,0:0:0:0:
428,212,14451,5,8,0:0:0:0:
440,258,14519,1,0,0:0:0:0:
412,298,14587,1,0,0:0:0:0:
364,302,14655,1,0,0:0:0:0:
320,276,14724,1,0,0:0:0:0:
281,245,14792,1,0,0:0:0:0:
232,242,14860,1,0,0:0:0:0:
189,267,14928,1,0,0:0:0:0:
156,304,14997,1,2,0:0:0:0:
115,328,15065,1,0,0:0:0:0:
74,303,15133,1,0,0:0:0:0:
77,255,15201,1,0,0:0:0:0:
84,228,15270,1,0,0:0:0:0:
104,205,15338,1,0,0:0:0:0:
129,189,15406,1,0,0:0:0:0:
160,80,15542,5,2,0:0:0:0:
176,98,15610,1,2,0:0:0:0:
193,116,15678,1,10,0:0:0:0:
216,224,15815,5,2,0:0:0:0:
233,206,15883,1,2,0:0:0:0:
250,187,15951,1,10,0:0:0:0:
268,76,16088,5,2,0:0:0:0:
284,94,16156,1,2,0:0:0:0:
301,112,16224,1,10,0:0:0:0:
324,220,16361,5,2,0:0:0:0:
341,202,16429,1,2,0:0:0:0:
358,183,16497,1,10,0:0:0:0:
452,88,16633,5,4,0:0:0:0:
451,97,16701,1,4,0:0:0:0:
450,107,16769,1,4,0:0:0:0:
449,117,16837,1,4,0:0:0:0:
448,127,16905,1,8,0:0:0:0:
447,137,16973,1,8,0:0:0:0:
446,147,17042,1,8,0:0:0:0:
445,157,17110,1,8,0:0:0:0:
444,167,17178,1,2,0:0:0:0:
443,177,17246,1,2,0:0:0:0:
442,187,17314,1,2,0:0:0:0:
442,197,17383,1,2,0:0:0:0:
441,207,17451,1,0,0:0:0:0:
440,217,17519,1,0,0:0:0:0:
439,227,17587,1,0,0:0:0:0:
424,320,17724,6,0,L|328:292,1,100
216,248,17997,1,8,0:0:0:0:
100,200,18133,2,0,L|192:144,1,100
188,28,18406,2,8,L|288:84,1,100
356,184,18679,2,8,L|408:96,1,100,10|10,0:0|0:0,0:0:0:0:
440,36,18951,1,4,0:0:0:0:
480,104,19020,1,4,0:0:0:0:
436,168,19088,1,4,0:0:0:0:
284,172,19224,1,6,0:0:0:0:
180,96,19360,2,12,P|112:120|56:200,1,150
96,296,19906,6,0,B|152:276|152:276|204:244,1,100
288,172,20179,1,8,0:0:0:0:
392,96,20315,2,0,L|388:204,1,100
272,232,20588,2,8,L|220:336,1,100,10|10,0:0|0:0,0:0:0:0:
96,316,20860,1,6,0:0:0:0:
120,156,20997,5,10,0:0:0:0:
134,159,21065,1,10,0:0:0:0:
149,163,21133,1,10,0:0:0:0:
163,166,21201,1,10,0:0:0:0:
172,188,21270,1,10,0:0:0:0:
191,183,21338,1,10,0:0:0:0:
211,179,21406,1,10,0:0:0:0:
230,175,21474,1,10,0:0:0:0:
276,156,21542,1,2,0:0:0:0:
324,163,21610,1,2,0:0:0:0:
351,203,21678,1,2,0:0:0:0:
340,251,21746,1,2,0:0:0:0:
324,300,21815,1,6,0:0:0:0:
335,346,21883,1,6,0:0:0:0:
379,366,21951,1,6,0:0:0:0:
421,344,22019,1,6,0:0:0:0:
448,300,22088,6,0,P|468:236|468:192,1,100,2|2,0:0|0:0,0:0:0:0:
384,76,22360,1,10,0:0:0:0:
256,160,22497,1,10,0:0:0:0:
396,228,22633,1,10,0:0:0:0:
308,27,22770,1,10,0:0:0:0:
239,164,22906,1,10,0:0:0:0:
395,153,23043,1,10,0:0:0:0:
219,23,23179,1,8,0:0:0:0:
219,23,23247,1,8,0:0:0:0:
219,23,23315,1,8,0:0:0:0:
108,156,23451,5,8,2:0:0:0:
272,72,23588,1,8,2:0:0:0:
188,276,23724,1,8,2:0:0:0:
160,60,23860,1,8,2:0:0:0:
312,228,23997,1,8,2:0:0:0:
372,64,24133,5,2,0:0:0:0:
372,64,24201,1,2,0:0:0:0:
372,64,24270,2,2,L|460:144,1,100,10|10,0:0|0:0,0:0:0:0:
460,260,24542,1,10,0:0:0:0:
312,332,24679,1,10,0:0:0:0:
312,176,24815,1,10,0:0:0:0:
398,352,24951,1,10,0:0:0:0:
234,341,25088,1,10,0:0:0:0:
312,206,25224,1,10,0:0:0:0:
384,72,25360,1,8,0:0:0:0:
384,72,25429,1,8,0:0:0:0:
384,72,25497,1,8,0:0:0:0:
200,116,25633,5,8,0:2:0:0:
408,156,25770,1,8,0:2:0:0:
216,248,25906,1,8,0:2:0:0:
312,64,26042,1,8,0:2:0:0:
352,276,26179,1,8,0:2:0:0:
200,116,26315,5,2,0:0:0:0:
200,116,26383,1,2,0:0:0:0:
200,116,26451,2,2,L|108:168,1,100,10|10,0:0|0:0,0:0:0:0:
192,276,26724,1,10,0:0:0:0:
220,272,26792,1,10,0:0:0:0:
248,260,26860,2,8,P|280:236|324:188,1,100,10|10,0:0|0:0,0:0:0:0:
356,80,27133,1,2,0:0:0:0:
356,80,27201,1,2,0:0:0:0:
356,80,27270,1,2,0:0:0:0:
436,224,27406,1,10,0:0:0:0:
216,156,27542,1,8,0:0:0:0:
192,147,27610,1,8,0:0:0:0:
168,139,27678,1,8,0:0:0:0:
72,88,27815,5,8,0:2:0:0:
124,232,27951,1,8,0:2:0:0:
208,68,28088,1,8,0:2:0:0:
252,280,28224,1,8,0:2:0:0:
368,56,28360,1,8,0:2:0:0:
436,336,28497,5,2,0:0:0:0:
436,336,28565,1,2,0:0:0:0:
436,336,28633,2,8,L|328:328,1,100,10|10,0:0|0:0,0:0:0:0:
184,300,28906,1,10,0:0:0:0:
184,272,28974,1,10,0:0:0:0:
192,244,29042,2,8,P|228:200|272:192,1,100,10|10,0:0|0:0,0:0:0:0:
376,240,29315,1,10,0:0:0:0:
423,251,29383,1,10,0:0:0:0:
468,232,29451,1,10,0:0:0:0:
492,189,29519,1,10,0:0:0:0:
484,140,29587,1,10,0:0:0:0:
449,107,29655,1,10,0:0:0:0:
404,88,29724,5,0,0:0:0:0:
349,83,29792,1,0,0:0:0:0:
296,95,29860,1,0,0:0:0:0:
249,123,29928,1,0,0:0:0:0:
216,168,29997,1,8,0:0:0:0:
182,204,30065,1,8,0:0:0:0:
134,210,30133,1,8,0:0:0:0:
93,183,30201,1,8,0:0:0:0:
79,136,30269,1,2,0:0:0:0:
100,84,30338,1,2,0:0:0:0:
159,77,30406,1,2,0:0:0:0:
215,96,30474,1,2,0:0:0:0:
252,144,30542,1,6,0:0:0:0:
302,184,30610,1,6,0:0:0:0:
365,189,30678,1,6,0:0:0:0:
422,158,30746,1,6,0:0:0:0:
451,102,30814,1,6,0:0:0:0:
412,52,30883,2,6,P|360:48|328:64,1,50
215,96,31088,6,2,P|168:144|160:188,1,100
208,296,31360,1,10,0:0:0:0:
224,284,31429,1,10,0:0:0:0:
240,272,31497,1,10,0:0:0:0:
296,156,31633,1,10,0:0:0:0:
312,168,31701,1,10,0:0:0:0:
328,180,31770,1,10,0:0:0:0:
444,264,31906,5,8,0:2:0:0:
340,84,32042,1,8,0:2:0:0:
316,328,32179,1,8,0:2:0:0:
176,76,32315,1,8,0:2:0:0:
164,264,32451,1,8,0:2:0:0:
304,184,32588,1,10,0:2:0:0:
80,152,32724,2,8,P|56:208|64:252,1,100,8|8,0:2|0:2,0:2:0:0:
176,344,32997,1,8,0:2:0:0:
225,342,33065,1,8,0:2:0:0:
271,323,33133,1,8,0:2:0:0:
