osu file format v14

[General]
AudioFilename: audio.mp3
AudioLeadIn: 0
PreviewTime: 864
Countdown: 1
SampleSet: Soft
StackLeniency: 0.4
Mode: 0
LetterboxInBreaks: 0
WidescreenStoryboard: 1

[Editor]
Bookmarks: 18045,24590,26772,33318
DistanceSpacing: 2.5
BeatDivisor: 8
GridSize: 4
TimelineZoom: 1.7

[Metadata]
Title:Lilli legt los
TitleUnicode:Lilli legt los
Artist:Thorsten Pospischil, Saskia Tanfal
ArtistUnicode:Thorsten Pospischil, Saskia Tanfal
Creator:-Helium-
Version:Hard
Source:Hexe Lilli
Tags:German the witch Cartoons Cartoon Opening Intro
BeatmapID:1838253
BeatmapSetID:878982

[Difficulty]
HPDrainRate:5
CircleSize:4.2
OverallDifficulty:6
ApproachRate:7
SliderMultiplier:1.6
SliderTickRate:1

[Events]
//Background and Video events
0,0,"bg.jpg",0,0
//Break Periods
//Storyboard Layer 0 (Background)
//Storyboard Layer 1 (Fail)
//Storyboard Layer 2 (Pass)
//Storyboard Layer 3 (Foreground)
//Storyboard Sound Samples

[TimingPoints]
864,560.747663551402,4,2,0,20,1,0
6471,-100,4,2,0,5,0,0
7032,-100,4,2,0,10,0,0
7592,-66.6666666666667,4,2,0,15,0,0
9833,545.454545454546,4,2,0,35,1,0
9833,-66.6666666666667,4,2,0,20,0,0
18560,-80,4,2,0,20,0,0
27287,-58.8235294117647,4,2,0,20,0,0
33969,-58.8235294117647,4,2,0,5,0,0
34378,-100,4,2,0,10,0,0
34514,-100,4,2,0,5,0,0
34923,-100,4,2,0,5,0,0

[HitObjects]
256,192,864,12,0,1985,0:0:0:0:
256,192,4228,5,0,0:0:0:0:
273,107,6471,6,0,L|325:115,1,40,2|2,0:0|0:0,0:0:0:0:
359,183,6751,2,0,L|307:191,1,40,2|2,0:0|0:0,0:0:0:0:
287,201,7032,5,0,0:0:0:0:
258,229,7172,1,0,0:0:0:0:
241,264,7312,1,0,0:0:0:0:
237,304,7452,1,0,0:0:0:0:
248,349,7592,6,0,L|160:341,1,60.0000022888184,2|2,0:0|0:0,0:0:0:0:
134,278,7873,2,0,L|46:270,1,60.0000022888184,2|2,0:0|0:0,0:0:0:0:
16,192,8153,6,0,L|94:188,1,60.0000022888184,2|2,0:0|0:0,0:0:0:0:
144,125,8434,2,0,L|223:119,1,60.0000022888184,2|2,0:0|0:0,0:0:0:0:
248,42,8714,2,0,B|286:65|286:65|326:67|326:67|394:30|394:30|436:37|436:37|469:64,1,240.000009155274
379,289,9833,6,0,P|395:225|311:141,1,180.000006866455
182,230,10378,2,0,L|318:234,1,120.000004577637,8|0,0:0|0:0,0:0:0:0:
200,132,10923,1,2,0:0:0:0:
56,204,11196,6,0,L|44:240,4,30.0000011444092,0|0|0|0|0,0:0|0:0|0:0|0:0|0:0,0:0:0:0:
284,193,11742,1,0,0:0:0:0:
156,72,12014,5,2,0:0:0:0:
136,212,12287,1,0,0:0:0:0:
232,100,12560,1,8,0:0:0:0:
212,240,12833,1,0,0:0:0:0:
345,139,13105,6,0,L|217:95,1,120.000004577637,2|0,0:0|0:0,0:0:0:0:
398,233,13651,2,0,L|270:189,1,120.000004577637,8|0,0:0|0:0,0:0:0:0:
100,68,14196,5,2,0:0:0:0:
97,88,14333,2,0,P|100:164|135:210,1,120.000004577637,0|0,0:0|0:0,0:0:0:0:
202,239,14742,2,0,P|237:236|275:214,1,60.0000022888184,8|0,0:0|0:0,0:0:0:0:
313,171,15014,1,0,0:0:0:0:
273,99,15151,1,0,0:0:0:0:
270,13,15287,2,0,B|333:32|333:32|361:93,1,120.000004577637,2|0,0:0|0:0,0:0:0:0:
293,340,15833,6,0,L|254:322,4,30.0000011444092,8|0|0|0|0,0:0|0:0|0:0|0:0|0:0,0:0:0:0:
249,316,16242,1,0,0:0:0:0:
227,302,16378,2,0,B|187:266|187:266|231:122,1,180.000006866455,2|0,0:0|0:0,0:0:0:0:
241,52,16923,5,8,0:0:0:0:
99,190,17196,1,0,0:0:0:0:
285,243,17469,2,0,L|325:115,1,120.000004577637,2|0,0:0|0:0,0:0:0:0:
446,51,18014,1,8,0:0:0:0:
305,13,18287,1,0,0:0:0:0:
171,61,18560,6,0,L|180:179,1,100,2|0,0:0|0:0,0:0:0:0:
267,280,19105,2,0,L|258:162,1,100,8|0,0:0|0:0,0:0:0:0:
251,61,19651,1,2,0:0:0:0:
152,255,19923,1,0,0:0:0:0:
397,201,20196,1,8,0:0:0:0:
262,154,20469,1,0,0:0:0:0:
321,339,20742,6,0,L|302:237,1,100,10|0,0:0|0:0,0:0:0:0:
295,212,21105,2,0,L|286:159,1,33.3333333333333
285,149,21287,2,0,L|175:169,1,100,2|0,0:0|0:0,0:0:0:0:
66,307,21833,6,0,L|77:238,1,66.6666666666667,8|0,0:0|0:0,0:0:0:0:
101,219,22105,2,0,L|112:150,1,66.6666666666667,8|0,0:0|0:0,0:0:0:0:
130,122,22378,1,2,0:0:0:0:
164,335,22651,1,0,0:0:0:0:
354,262,22923,6,0,L|272:263,1,66.6666666666667,8|0,0:0|0:0,0:0:0:0:
255,264,23196,2,0,L|176:264,1,66.6666666666667
149,263,23469,2,0,P|154:219|193:182,1,100,2|0,0:0|0:0,0:0:0:0:
337,180,24014,1,8,0:0:0:0:
171,82,24287,1,0,0:0:0:0:
213,285,24560,1,2,0:0:0:0:
252,149,24833,1,0,0:0:0:0:
90,279,25105,6,0,P|86:305|90:328,1,50,8|0,0:0|0:0,0:0:0:0:
176,90,25651,6,0,P|179:66|174:41,1,50,8|0,0:0|0:0,0:0:0:0:
388,268,26196,6,0,P|386:295|390:317,1,50,8|0,0:0|0:0,0:0:0:0:
292,88,26742,6,0,P|296:65|295:39,1,50,8|0,0:0|0:0,0:0:0:0:
224,219,27287,5,2,0:0:0:0:
224,219,27423,2,0,P|291:212|390:227,1,136.000002593994,0|0,0:0|0:0,0:0:0:0:
438,245,27833,2,0,P|502:241|443:164,1,204.000003890991,8|0,0:0|0:0,0:0:0:0:
372,151,28378,2,0,B|291:134|291:134|235:17,1,204.000003890991,2|0,0:0|0:0,0:0:0:0:
161,48,28923,2,0,L|219:180,1,136.000002593994,8|0,0:0|0:0,0:0:0:0:
299,338,29469,5,2,0:0:0:0:
118,266,29742,1,0,0:0:0:0:
312,262,30014,1,8,0:0:0:0:
134,353,30287,1,0,0:0:0:0:
213,253,30560,6,0,B|211:160|211:160|270:117,1,136.000002593994,2|0,0:0|0:0,0:0:0:0:
417,202,31105,2,0,P|364:219|279:192,1,136.000002593994,8|0,0:0|0:0,0:0:0:0:
88,76,31651,5,2,0:0:0:0:
113,247,31923,2,0,P|155:266|205:182,1,136.000002593994,0|8,0:0|0:0,0:0:0:0:
261,59,32469,2,0,P|280:31|312:19,1,68.0000012969971,0|0,0:0|0:0,0:0:0:0:
392,23,32742,2,0,L|392:178,1,136.000002593994,2|0,0:0|0:0,0:0:0:0:
249,200,33287,6,0,L|245:233,4,34.0000006484985,8|0|0|0|0,0:0|0:0|0:0|0:0|0:0,0:0:0:0:
280,133,33696,5,0,0:0:0:0:
280,133,33833,2,0,P|214:132|196:147,1,68.0000012969971,2|0,0:0|0:0,0:0:0:0:
141,256,34378,6,0,P|137:285|147:313,1,40,2|0,0:0|0:0,0:0:0:0:
341,290,34923,6,0,P|343:270|338:250,1,40,2|0,0:0|0:0,0:0:0:0:
