osu file format v14

[General]
AudioFilename: audio.mp3
AudioLeadIn: 0
PreviewTime: -1
Countdown: 1
SampleSet: Normal
StackLeniency: 0.7
Mode: 0
LetterboxInBreaks: 0
WidescreenStoryboard: 0

[Editor]
DistanceSpacing: 0.8
BeatDivisor: 4
GridSize: 8
TimelineZoom: 1

[Metadata]
Title:Trip Thriugh Tokyo
TitleUnicode:Trip Thriugh Tokyo
Artist:Thomas Hood
ArtistUnicode:Thomas Hood
Creator:Black Asu
Version:
Source:
Tags:Liquid Drum & Bass
BeatmapID:932707
BeatmapSetID:432539

[Difficulty]
HPDrainRate:6
CircleSize:4
OverallDifficulty:7
ApproachRate:9
SliderMultiplier:1.4
SliderTickRate:2

[Events]
//Background and Video events
0,0,"z4iVy63.jpg",0,0
//Break Periods
//Storyboard Layer 0 (Background)
//Storyboard Layer 1 (Fail)
//Storyboard Layer 2 (Pass)
//Storyboard Layer 3 (Foreground)
//Storyboard Layer 4 (Overlay)
//Storyboard Sound Samples

[TimingPoints]
212,344.827586206897,4,1,0,100,1,0

[HitObjects]
168,168,5384,5,0,0:0:0:0:
344,168,5729,1,0,0:0:0:0:
256,192,7108,12,0,8487,0:0:0:0:
256,88,10901,5,0,0:0:0:0:
144,176,11246,2,0,L|376:176,2,210
168,176,12625,2,0,B|216:120|264:112|288:120|320:160|368:264,1,280
368,288,13660,1,0,0:0:0:0:
368,288,14005,2,0,B|344:200|344:200|280:248|280:248|280:136|280:136|176:224|176:224|184:80,1,560
176,88,16418,5,0,0:0:0:0:
176,88,16763,1,0,0:0:0:0:
367,104,17108,2,0,L|315:163,4,70
375,301,18143,5,0,0:0:0:0:
114,293,18487,2,0,L|181:225,4,70
134,86,19522,1,0,0:0:0:0:
256,192,20901,12,0,21936,0:0:0:0:
257,190,22280,5,0,0:0:0:0:
80,60,22625,1,0,0:0:0:0:
253,58,22798,1,0,0:0:0:0:
434,58,22970,1,0,0:0:0:0:
255,188,23143,5,0,0:0:0:0:
257,190,23315,1,0,0:0:0:0:
255,188,23660,5,0,0:0:0:0:
410,313,24005,1,0,0:0:0:0:
259,310,24177,1,0,0:0:0:0:
106,309,24349,1,0,0:0:0:0:
255,188,24522,5,0,0:0:0:0:
255,188,24694,1,0,0:0:0:0:
255,188,25039,1,0,0:0:0:0:
206,137,25384,6,0,L|264:198,2,70
306,141,26074,2,0,L|231:208,2,70
358,240,26763,5,0,0:0:0:0:
257,299,26936,1,0,0:0:0:0:
154,229,27108,1,0,0:0:0:0:
255,55,27453,5,0,0:0:0:0:
255,55,27798,1,0,0:0:0:0:
110,191,28143,5,0,0:0:0:0:
254,271,28315,1,0,0:0:0:0:
391,192,28487,1,0,0:0:0:0:
255,191,28660,1,0,0:0:0:0:
255,191,28832,1,0,0:0:0:0:
123,188,29177,5,0,0:0:0:0:
255,82,29349,1,0,0:0:0:0:
382,193,29522,1,0,0:0:0:0:
255,191,29694,1,0,0:0:0:0:
255,191,29867,1,0,0:0:0:0:
255,191,30039,1,0,0:0:0:0:
255,191,30212,6,0,P|102:167|100:167,1,140
116,169,30901,1,0,0:0:0:0:
121,173,31074,1,0,0:0:0:0:
121,173,31246,1,0,0:0:0:0:
391,176,31591,1,0,0:0:0:0:
391,176,32280,5,0,0:0:0:0:
118,192,32625,1,0,0:0:0:0:
254,84,32970,1,0,0:0:0:0:
254,84,33315,6,0,L|255:249,1,140
254,223,33832,1,0,0:0:0:0:
254,223,34005,1,0,0:0:0:0:
254,223,34177,1,0,0:0:0:0:
263,235,34694,6,0,L|250:91,1,140
250,95,35212,1,0,0:0:0:0:
250,95,35384,1,0,0:0:0:0:
250,95,35556,1,0,0:0:0:0:
143,191,35729,6,0,L|291:193,1,140
342,191,36418,1,0,0:0:0:0:
255,192,36591,1,0,0:0:0:0:
173,192,36763,1,0,0:0:0:0:
