osu file format v14

[General]
AudioFilename: audio.mp3
AudioLeadIn: 0
PreviewTime: 87512
Countdown: 0
SampleSet: Soft
StackLeniency: 0.2
Mode: 0
LetterboxInBreaks: 0
WidescreenStoryboard: 1

[Editor]
Bookmarks: 9887,19787,29387,39587,49187,58787,68387,77987,87587,97187,106787,136787,155987,172787
DistanceSpacing: 1
BeatDivisor: 8
GridSize: 8
TimelineZoom: 2.900005

[Metadata]
Title:Knep Smerten Vaek
TitleUnicode:Knep Smerten Væk
Artist:Thomas Holm
ArtistUnicode:Thomas Holm
Creator:Spork Lover
Version:Collab Hidden Extra
Source:
Tags:18+ R18 Danish Denmark Pop waefwerf YokesPai Cerkie Hanori Striderin fuck the pain away
BeatmapID:2098377
BeatmapSetID:894768

[Difficulty]
HPDrainRate:5
CircleSize:4
OverallDifficulty:8
ApproachRate:8
SliderMultiplier:2.19999990463257
SliderTickRate:1

[Events]
//Background and Video events
0,0,"58103072_p0.jpg",0,0
//Break Periods
//Storyboard Layer 0 (Background)
//Storyboard Layer 1 (Fail)
//Storyboard Layer 2 (Pass)
//Storyboard Layer 3 (Foreground)
//Storyboard Layer 4 (Overlay)
//Storyboard Sound Samples

[TimingPoints]
45,600,4,2,1,50,1,0
5145,-100,4,2,1,60,0,0
10245,-66.6666666666667,4,2,1,70,0,0
36645,600,5,2,1,70,1,0
36645,-66.6666666666667,5,2,1,70,0,0
38145,-66.6666666666667,5,2,1,40,0,0
39195,-66.6666666666667,5,2,1,80,0,0
39645,600,4,2,1,100,1,1
39645,-50,4,2,1,100,0,1
56445,-100,4,2,1,100,0,1
57795,-100,4,2,1,100,0,1
58245,-66.6666666666667,4,2,1,100,0,1
58845,-66.6666666666667,4,2,1,70,0,0
78045,-60.6060606060606,4,2,1,70,0,0
85845,-66.6666666666667,4,2,1,70,0,0
86145,-66.6666666666667,4,2,1,80,0,0
86745,-66.6666666666667,4,2,1,40,0,0
87195,-66.6666666666667,4,2,1,80,0,0
87645,-50,4,2,1,100,0,1
91695,-66.6666666666667,4,2,1,100,0,1
92445,-50,4,2,1,100,0,1
101745,-66.6666666666667,4,2,1,100,0,1
102045,-50,4,2,1,100,0,1
104445,-50,4,2,1,60,0,1
105795,-100,4,2,1,60,0,1
106245,-100,4,2,1,100,0,1
106845,-50,4,2,1,90,0,0
107745,-50,4,2,1,60,0,0
108645,-100,4,2,1,60,0,0
109245,-50,4,2,1,90,0,0
110445,-50,4,2,1,60,0,0
111045,-100,4,2,1,60,0,0
111645,-50,4,2,1,90,0,0
112545,-50,4,2,1,60,0,0
113445,-100,4,2,1,60,0,0
113745,-50,4,2,1,60,0,0
114045,-50,4,2,1,90,0,0
115245,-40,4,2,1,90,0,0
116445,-44.4444444444445,4,2,1,90,0,0
117045,-222.222222222222,4,2,1,90,0,0
117345,-222.222222222222,4,2,1,60,0,0
117795,-133.333333333333,4,2,1,60,0,0
118245,-100,4,2,1,60,0,0
118845,-44.4444444444445,4,2,1,90,0,0
119295,-222.222222222222,4,2,1,90,0,0
119745,-222.222222222222,4,2,1,60,0,0
120045,-133.333333333333,4,2,1,60,0,0
120645,-100,4,2,1,60,0,0
121245,-44.4444444444445,4,2,1,90,0,0
121695,-222.222222222222,4,2,1,90,0,0
122145,-222.222222222222,4,2,1,60,0,0
122595,-133.333333333333,4,2,1,60,0,0
123345,-50,4,2,1,90,0,0
124845,-60.2409638554217,4,2,1,100,0,0
126045,-100,4,2,1,100,0,0
126345,-66.6666666666667,4,2,1,100,0,0
126645,-222.222222222222,4,2,1,100,0,0
127395,-133.333333333333,4,2,1,100,0,0
127845,-133.333333333333,4,2,1,100,0,0
133995,-133.333333333333,4,2,1,100,0,0
134145,-133.333333333333,4,2,1,100,0,0
134295,-133.333333333333,4,2,1,100,0,0
134445,-1000,4,2,1,60,0,0
135045,-1000,4,2,1,5,0,0
135645,-1000,4,2,1,20,0,0
136845,600,4,2,1,100,1,1
136845,-50,4,2,1,100,0,1
153645,-100,4,2,1,100,0,1
154545,-200,4,2,1,100,0,1
155445,-50,4,2,1,100,0,0
155520,-100,4,2,1,5,0,0
155595,-50,4,2,1,100,0,0
155670,-100,4,2,1,5,0,0
155745,-50,4,2,1,100,0,0
155820,-100,4,2,1,5,0,0
155895,-50,4,2,1,100,0,0
155970,-100,4,2,1,5,0,0
156045,-50,4,2,1,100,0,1
172845,-100,4,2,1,100,0,0
174645,-66.6666666666667,4,2,1,100,0,0
174945,600,4,2,1,100,1,0
176745,-66.6666666666667,4,2,1,100,0,0
177045,600,4,2,1,100,1,0

[Colours]
Combo1 : 0,255,64
Combo2 : 191,0,0
Combo3 : 125,0,125
Combo4 : 0,128,255

[HitObjects]
178,221,9945,5,8,3:2:0:0:
141,311,10095,1,8,3:2:0:0:
267,203,10245,6,0,P|286:124|253:49,1,164.999999141693,4|0,1:2|0:0,0:0:0:0:
178,221,10695,1,0,3:0:0:0:
238,296,10845,2,0,P|313:329|392:310,1,164.999999141693,8|2,0:0|0:0,0:0:0:0:
489,120,11445,5,2,0:0:0:0:
399,107,11745,1,2,1:2:0:0:
432,188,12045,1,8,0:0:0:0:
399,107,12195,1,0,1:0:0:0:
78,131,12645,6,0,P|58:210|91:285,1,164.999999141693,4|0,1:2|0:0,0:0:0:0:
111,51,13095,1,0,0:0:0:0:
167,118,13245,2,0,P|246:99|321:132,2,164.999999141693,8|2|2,0:0|0:0|0:0,0:0:0:0:
167,118,14145,1,0,1:0:0:0:
167,118,14445,1,8,0:0:0:0:
181,217,14595,1,0,1:0:0:0:
253,64,15045,6,0,B|265:113|265:113|253:185|253:185|262:225,1,164.999999141693,4|0,1:2|0:0,0:0:0:0:
167,118,15495,1,0,3:0:0:0:
262,225,15645,2,0,B|302:234|302:234|374:222|374:222|424:235,1,164.999999141693,8|2,0:0|0:0,0:0:0:0:
167,118,16245,5,2,0:0:0:0:
77,105,16545,1,2,1:2:0:0:
110,186,16845,1,8,0:0:0:0:
167,118,16995,1,0,1:0:0:0:
400,53,17445,6,0,B|408:111|408:111|386:180|386:180|389:213,1,164.999999141693,4|0,1:2|0:0,0:0:0:0:
481,179,17895,1,0,0:0:0:0:
389,213,18045,2,0,B|357:199|357:199|309:145|309:145|254:123,1,164.999999141693,8|0,0:0|0:0,0:0:0:0:
401,54,18645,1,2,0:0:0:0:
255,124,18945,1,0,1:0:0:0:
255,124,19545,5,0,0:0:0:0:
401,54,19695,1,0,0:0:0:0:
401,54,19845,6,0,P|421:133|390:208,1,164.999999141693,4|2,1:2|3:0,0:0:0:0:
301,222,20295,1,0,3:0:0:0:
424,286,20445,2,0,P|351:323|271:306,1,164.999999141693,8|2,3:2|3:2,0:0:0:0:
213,239,20895,1,0,1:0:0:0:
274,67,21045,5,2,3:2:0:0:
243,150,21345,1,0,1:0:0:0:
243,150,21645,1,8,0:0:0:0:
186,83,21795,2,0,P|201:13|222:-6,2,82.4999995708466,0|2|2,1:0|3:0|3:0,0:0:0:0:
273,66,22245,6,0,P|352:50|425:86,1,164.999999141693,4|2,1:2|3:0,0:0:0:0:
243,150,22695,1,0,0:0:0:0:
186,83,22845,2,0,P|113:118|34:102,2,164.999999141693,8|2|2,0:0|0:0|0:2,0:0:0:0:
34,102,23745,1,0,1:0:0:0:
0,0,24045,1,8,0:0:0:0:
34,102,24195,2,0,P|75:102|113:117,2,82.4999995708466,0|0|2,1:0|3:0|3:0,0:0:0:0:
12,207,24645,6,0,B|13:247|13:247|43:314|43:314|44:366,1,164.999999141693,4|2,1:2|3:0,0:0:0:0:
100,226,25095,1,0,0:0:0:0:
44,365,25245,2,0,B|84:363|84:363|151:333|151:333|203:332,1,164.999999141693,8|2,0:0|3:2,0:0:0:0:
276,384,25695,1,0,1:0:0:0:
228,245,25845,5,2,3:2:0:0:
319,243,26145,1,0,1:0:0:0:
366,320,26445,1,8,0:0:0:0:
363,164,26595,2,0,B|367:137|367:137|359:107|359:107|363:84,2,82.4999995708466,0|2|0,1:0|3:0|3:0,0:0:0:0:
319,243,27045,6,0,B|286:203|286:203|266:132|266:132|241:100,1,164.999999141693,0|2,1:0|3:0,0:0:0:0:
161,56,27495,1,0,3:0:0:0:
99,178,27645,2,0,B|131:152|131:152|201:133|201:133|241:100,2,164.999999141693,8|2|2,0:0|0:0|3:0,0:0:0:0:
99,178,28545,1,0,1:0:0:0:
99,178,28845,1,8,0:0:0:0:
170,139,28995,1,0,1:0:0:0:
241,99,29145,1,2,3:0:0:0:
99,178,29445,5,4,1:2:0:0:
170,139,29745,1,2,3:0:0:0:
241,99,30045,2,0,L|219:219,1,82.4999995708466,8|2,0:0|3:0,0:0:0:0:
211,261,30345,5,0,3:2:0:0:
282,300,30645,1,2,3:2:0:0:
353,340,30945,2,0,L|331:220,1,82.4999995708466,0|2,1:0|3:0,0:0:0:0:
211,261,31245,2,0,L|233:141,1,82.4999995708466,8|0,0:0|1:0,0:0:0:0:
99,178,31545,2,0,L|77:58,1,82.4999995708466,2|0,3:0|0:0,0:0:0:0:
211,261,31845,5,0,1:0:0:0:
282,222,32145,1,2,3:0:0:0:
353,182,32445,2,0,L|331:302,1,82.4999995708466,8|0,0:0|0:0,0:0:0:0:
196,342,32745,2,0,L|218:222,1,82.4999995708466,2|0,3:2|1:0,0:0:0:0:
97,176,33045,5,2,3:2:0:0:
168,137,33345,1,0,1:0:0:0:
211,261,33645,5,8,0:0:0:0:
282,222,33945,1,2,3:0:0:0:
413,178,34245,5,4,1:2:0:0:
342,139,34545,1,2,3:0:0:0:
271,99,34845,2,0,L|293:219,1,82.4999995708466,8|2,0:0|3:0,0:0:0:0:
230,300,35145,5,0,3:0:0:0:
301,261,35445,1,2,0:0:0:0:
159,340,35745,2,0,L|181:220,1,82.4999995708466,0|2,1:0|3:0,0:0:0:0:
301,261,36045,2,0,L|279:141,1,82.4999995708466,8|0,0:0|1:0,0:0:0:0:
413,178,36345,2,0,L|435:58,1,82.4999995708466,2|0,3:0|0:0,0:0:0:0:
301,261,36645,5,0,1:0:0:0:
230,222,36945,1,2,3:0:0:0:
301,261,37245,2,0,L|264:85,2,164.999999141693,8|2|2,0:0|3:2|0:0,0:0:0:0:
139,92,38145,5,0,3:0:0:0:
139,92,38445,5,0,3:0:0:0:
139,92,38745,5,0,3:0:0:0:
46,310,39645,6,0,B|139:375|256:323|256:323|373:375|464:310,1,439.999980926514,4|8,1:0|0:0,0:0:0:0:
256,324,40545,1,2,0:0:0:0:
149,136,40845,5,2,3:2:0:0:
164,216,40995,1,0,0:0:0:0:
226,164,41145,1,0,1:0:0:0:
256,324,41295,5,2,0:0:0:0:
241,244,41445,1,8,3:2:0:0:
318,272,41595,1,0,1:0:0:0:
289,111,41745,5,2,3:2:0:0:
303,192,41895,1,0,3:0:0:0:
371,139,42045,2,0,B|515:147|515:147|444:172,1,219.999990463257,2|0,1:2|3:0,0:0:0:0:
380,220,42645,5,10,0:0:0:0:
403,58,42945,1,2,0:0:0:0:
241,35,43245,1,2,0:0:0:0:
218,197,43545,1,0,1:0:0:0:
229,116,43695,1,2,0:0:0:0:
403,58,43995,1,0,1:0:0:0:
321,46,44145,2,0,P|310:89|317:164,1,109.999995231628,2|2,3:0|3:0,0:0:0:0:
464,310,44445,6,0,B|373:375|256:323|256:323|139:375|46:310,1,439.999980926514,4|8,1:0|0:0,0:0:0:0:
118,126,45345,1,2,3:2:0:0:
199,139,45645,5,2,3:2:0:0:
280,152,45795,1,0,0:0:0:0:
118,126,45945,1,0,1:0:0:0:
251,76,46095,5,2,0:0:0:0:
170,63,46245,1,8,3:2:0:0:
332,89,46395,1,0,1:0:0:0:
199,139,46545,5,2,3:2:0:0:
361,165,46695,1,2,3:0:0:0:
251,76,46845,6,0,P|304:4|331:89,1,219.999990463257,0|2,1:0|0:0,0:0:0:0:
117,126,47445,2,0,P|145:211|198:139,1,219.999990463257,8|2,0:0|0:0,0:0:0:0:
106,50,47895,1,0,1:0:0:0:
106,50,48045,2,0,B|157:-1|157:-1|197:138,1,219.999990463257,2|0,0:0|1:0,0:0:0:0:
406,50,48495,1,2,0:0:0:0:
406,50,48645,2,0,B|354:-1|354:-1|314:138,1,219.999990463257,8|2,0:0|3:0,0:0:0:0:
43,289,49245,6,0,B|256:343|256:343|469:288,1,439.999980926514,4|8,1:0|0:0,0:0:0:0:
256,190,50145,1,2,3:2:0:0:
416,50,50445,5,2,3:2:0:0:
468,117,50595,1,0,0:0:0:0:
436,198,50745,1,0,1:0:0:0:
329,59,50895,5,2,0:0:0:0:
381,126,51045,1,8,3:2:0:0:
349,207,51195,1,0,1:0:0:0:
211,150,51345,5,2,3:2:0:0:
263,217,51495,1,0,3:0:0:0:
296,139,51645,2,0,B|315:278|315:278|243:194,1,219.999990463257,2|0,1:2|3:0,0:0:0:0:
211,150,52245,5,10,0:0:0:0:
381,126,52545,1,2,3:2:0:0:
211,150,52845,1,2,0:0:0:0:
381,126,53145,1,0,1:0:0:0:
315,278,53295,1,2,0:0:0:0:
315,278,53595,1,0,1:0:0:0:
381,126,53745,2,0,B|321:90|308:21,1,109.999995231628,2|2,3:0|3:0,0:0:0:0:
469,288,54045,6,0,B|256:343|256:343|43:289,1,439.999980926514,4|8,1:0|0:0,0:0:0:0:
255,44,54945,1,2,0:0:0:0:
43,289,55245,6,0,B|256:343|256:343|469:289,1,439.999980926514,2|8,3:0|3:2,0:0:0:0:
469,289,56145,1,2,3:0:0:0:
256,44,56445,6,0,L|338:51,1,54.9999976158142,4|0,1:2|0:0,0:0:0:0:
189,161,56745,2,0,L|107:168,1,54.9999976158142,2|2,0:0|3:0,0:0:0:0:
256,44,57045,1,10,0:2:0:0:
321,260,57345,1,2,3:2:0:0:
321,260,57645,1,2,0:0:0:0:
189,161,57795,2,0,P|213:209|199:261,1,109.999995231628,0|0,1:3|0:0,0:0:0:0:
189,161,58245,6,0,P|151:151|105:166,1,82.4999995708466,8|0,0:0|1:0,0:0:0:0:
70,236,58545,1,8,0:0:0:0:
76,87,58695,1,8,0:0:0:0:
189,161,58845,6,0,P|209:240|176:315,1,164.999999141693,4|2,1:2|0:0,0:0:0:0:
70,236,59295,1,0,0:0:0:0:
268,116,59445,2,0,P|346:138|394:204,1,164.999999141693,8|2,0:0|0:0,0:0:0:0:
382,292,60045,5,2,0:0:0:0:
393,203,60345,1,2,1:2:0:0:
370,382,60645,1,8,0:0:0:0:
393,203,60795,1,0,1:0:0:0:
67,107,61245,6,0,P|124:51|205:41,1,164.999999141693,4|0,1:2|0:0,0:0:0:0:
55,197,61695,1,0,0:0:0:0:
43,287,61845,2,0,P|121:266|195:299,2,164.999999141693,8|2|2,0:0|0:0|0:0,0:0:0:0:
43,287,62745,1,2,1:2:0:0:
67,107,63045,1,8,0:0:0:0:
55,197,63195,1,0,1:0:0:0:
168,70,63645,6,0,B|171:120|171:120|146:189|146:189|148:230,1,164.999999141693,4|0,1:2|0:0,0:0:0:0:
67,107,64095,1,0,0:0:0:0:
148,230,64245,2,0,B|198:226|198:226|267:251|267:251|308:249,1,164.999999141693,8|2,0:0|0:0,0:0:0:0:
168,70,64845,5,2,0:0:0:0:
67,107,65145,1,2,1:2:0:0:
269,33,65445,1,8,0:0:0:0:
168,70,65595,1,0,3:0:0:0:
389,214,66045,2,0,B|353:179|353:179|285:152|285:152|256:124,1,164.999999141693,4|0,1:2|0:0,0:0:0:0:
269,33,66495,1,2,0:0:0:0:
389,214,66645,2,0,B|398:174|398:174|387:101|387:101|400:53,1,164.999999141693,8|0,0:0|0:0,0:0:0:0:
256,124,67245,5,2,0:0:0:0:
402,54,67545,1,0,0:0:0:0:
256,124,68145,5,2,3:2:0:0:
402,54,68295,1,2,3:2:0:0:
256,124,68445,6,0,P|286:199|266:277,1,164.999999141693,4|2,1:2|3:0,0:0:0:0:
193,312,68895,1,0,3:0:0:0:
193,312,69045,2,0,P|239:297|292:244,1,82.4999995708466,10|2,0:0|3:0,0:0:0:0:
217,203,69345,1,2,3:2:0:0:
168,129,69645,5,2,3:2:0:0:
199,46,69945,1,0,1:0:0:0:
168,129,70245,1,8,0:0:0:0:
257,111,70395,2,0,P|327:126|346:147,2,82.4999995708466,2|0|2,1:2|3:0|3:0,0:0:0:0:
276,197,70845,6,0,P|260:276|296:349,1,164.999999141693,4|2,1:2|3:0,0:0:0:0:
370,261,71295,1,0,3:0:0:0:
370,261,71445,2,0,P|404:228|440:217,1,82.4999995708466,8|2,0:0|3:0,0:0:0:0:
450,317,71745,1,2,3:2:0:0:
370,261,71895,1,0,1:0:0:0:
363,353,72045,5,2,3:2:0:0:
370,261,72345,1,2,1:2:0:0:
450,317,72645,1,8,0:0:0:0:
370,261,72795,2,0,P|332:276|291:277,2,82.4999995708466,0|2|2,1:0|3:0|3:0,0:0:0:0:
316,182,73245,6,0,B|307:138|329:101|329:101|354:61|348:23,1,164.999999141693,4|2,1:2|3:0,0:0:0:0:
260,41,73695,1,0,3:0:0:0:
473,149,73845,2,0,B|437:144|397:169|397:169|360:191|316:182,1,164.999999141693,8|2,0:0|3:2,0:0:0:0:
260,41,74295,1,0,1:0:0:0:
196,182,74445,5,2,3:2:0:0:
316,182,74745,1,0,1:0:0:0:
256,281,75045,1,8,0:0:0:0:
316,182,75195,2,0,B|320:155|320:155|312:125|312:125|316:102,2,82.4999995708466,0|2|2,1:0|3:0|3:0,0:0:0:0:
196,182,75645,6,0,B|164:206|164:206|93:226|93:226|53:259,1,164.999999141693,0|2,1:0|3:0,0:0:0:0:
130,120,76095,1,2,3:2:0:0:
217,93,76245,2,0,B|256:105|256:105|310:154|310:154|359:169,2,164.999999141693,8|2|2,0:0|0:3|3:2,0:0:0:0:
196,182,77145,1,0,1:0:0:0:
217,93,77445,1,8,0:0:0:0:
130,120,77595,1,0,1:0:0:0:
196,182,77745,1,2,3:0:0:0:
196,182,78045,5,4,0:0:0:0:
130,120,78345,1,2,3:0:0:0:
217,93,78645,2,0,L|196:182,1,90.7499969315529,8|2,0:0|3:2,0:0:0:0:
262,244,78945,5,2,3:2:0:0:
284,333,79245,1,2,3:2:0:0:
348,269,79545,2,0,L|328:181,1,90.7499988355637,0|2,1:0|0:3,0:0:0:0:
174,217,79845,2,0,L|195:129,1,90.7499988355637,8|0,0:0|1:0,0:0:0:0:
40,164,80145,2,0,L|20:76,1,90.7499988355637,2|0,3:0|0:0,0:0:0:0:
107,48,80445,5,0,1:0:0:0:
195,21,80745,1,2,3:0:0:0:
174,110,81045,2,0,L|195:199,1,90.7499969315529,8|0,0:0|0:0,0:0:0:0:
87,136,81345,2,0,L|107:48,1,90.7499969315529,2|0,3:2|1:0,0:0:0:0:
195,21,81645,5,2,3:2:0:0:
174,110,81945,1,2,1:2:0:0:
40,164,82245,5,8,0:0:0:0:
19,253,82545,1,2,3:0:0:0:
173,287,82845,5,4,1:2:0:0:
194,198,83145,1,2,3:0:0:0:
260,260,83445,2,0,L|281:172,1,90.7499988355637,8|2,0:0|3:0,0:0:0:0:
302,82,83745,5,2,0:2:0:0:
368,144,84045,1,2,3:2:0:0:
389,55,84345,2,0,L|410:143,1,90.7499988355637,0|2,1:0|3:0,0:0:0:0:
281,172,84645,2,0,L|260:260,1,90.7499988355637,8|0,0:0|1:0,0:0:0:0:
129,288,84945,2,0,L|150:376,1,90.7499988355637,2|0,3:0|0:0,0:0:0:0:
216,314,85245,5,0,1:0:0:0:
129,288,85545,1,2,3:0:0:0:
195,225,85845,2,0,L|366:276,2,164.999999141693,8|2|2,0:0|3:2|0:2,0:0:0:0:
42,262,86745,5,0,3:0:0:0:
42,262,87045,5,0,3:0:0:0:
42,262,87345,5,0,3:0:0:0:
46,74,87645,6,0,B|139:9|256:61|256:61|373:9|464:74,1,439.999980926514,4|8,1:0|0:0,0:0:0:0:
256,60,88545,1,2,0:0:0:0:
256,60,88845,5,2,3:2:0:0:
288,141,88995,1,0,0:0:0:0:
236,208,89145,1,0,1:0:0:0:
340,74,89295,5,2,0:0:0:0:
288,141,89445,1,8,3:2:0:0:
320,222,89595,1,0,1:0:0:0:
458,165,89745,5,2,3:2:0:0:
404,235,89895,1,0,3:0:0:0:
373,154,90045,2,0,B|355:295|355:295|405:235,1,219.999990463257,0|0,1:0|3:0,0:0:0:0:
184,136,90645,5,10,0:0:0:0:
340,74,90945,1,2,0:0:0:0:
404,235,91245,1,2,0:0:0:0:
245,294,91545,1,0,1:0:0:0:
323,266,91695,1,2,0:0:0:0:
340,74,91995,1,0,1:0:0:0:
404,235,92145,2,0,P|427:279|421:321,1,82.4999995708466,2|0,3:0|0:0,0:0:0:0:
464,74,92445,6,0,B|373:9|256:61|256:61|139:9|46:74,1,439.999980926514,4|8,1:0|0:0,0:0:0:0:
233,259,93345,1,2,3:2:0:0:
186,54,93645,5,2,3:2:0:0:
166,214,93795,1,0,0:0:0:0:
176,134,93945,1,0,1:0:0:0:
233,259,94095,5,2,0:0:0:0:
253,99,94245,1,8,3:2:0:0:
243,179,94395,1,0,1:0:0:0:
330,63,94545,5,2,3:2:0:0:
176,134,94695,1,2,0:0:0:0:
330,63,94845,6,0,P|258:9|253:99,1,219.999990463257,0|2,1:0|0:0,0:0:0:0:
310,223,95445,2,0,P|304:313|233:259,1,219.999990463257,8|2,0:0|0:0,0:0:0:0:
173,90,95895,1,0,1:0:0:0:
173,90,96045,2,0,B|34:34|34:34|75:96,1,219.999990463257,2|0,0:0|1:0,0:0:0:0:
339,90,96495,1,2,0:0:0:0:
339,90,96645,2,0,B|478:34|478:34|437:96,1,219.999990463257,8|2,0:0|3:0,0:0:0:0:
43,289,97245,6,0,B|256:343|256:343|469:288,1,439.999980926514,4|8,1:0|0:0,0:0:0:0:
256,192,98145,1,2,3:0:0:0:
351,86,98445,5,2,3:2:0:0:
334,166,98595,1,0,0:0:0:0:
256,192,98745,1,0,1:0:0:0:
116,162,98895,5,2,0:0:0:0:
194,137,99045,1,8,3:2:0:0:
256,192,99195,1,0,1:0:0:0:
300,327,99345,5,2,3:2:0:0:
239,272,99495,1,2,3:0:0:0:
256,192,99645,2,0,B|332:167|332:167|240:273,1,219.999990463257,0|2,1:0|3:0,0:0:0:0:
100,242,100245,5,10,0:0:0:0:
256,192,100545,1,2,0:0:0:0:
239,272,100845,1,2,0:0:0:0:
222,352,101145,1,0,1:0:0:0:
100,242,101295,1,2,0:0:0:0:
159,297,101595,1,0,1:0:0:0:
183,220,101745,2,0,P|215:195|256:192,1,82.4999995708466,2|2,3:0|3:0,0:0:0:0:
469,289,102045,6,0,B|256:343|256:343|43:288,1,439.999980926514,4|8,1:0|0:0,0:0:0:0:
256,44,102945,1,2,0:0:0:0:
43,288,103245,6,0,B|256:343|256:343|469:289,1,439.999980926514,2|8,0:0|0:0,0:0:0:0:
469,288,104145,1,2,3:0:0:0:
256,44,104445,5,0,0:0:0:0:
190,162,104745,1,0,0:0:0:0:
256,44,105045,1,0,0:0:0:0:
321,260,105345,1,0,0:0:0:0:
321,260,105645,1,0,0:0:0:0:
190,162,105795,2,0,P|215:218|175:282,1,109.999995231628,0|0,0:0|1:0,0:0:0:0:
256,44,106245,5,8,0:0:0:0:
190,162,106395,1,0,1:0:0:0:
321,260,106545,1,8,0:0:0:0:
190,162,106695,1,8,0:0:0:0:
90,370,106845,6,0,L|111:151,1,219.999990463257,0|0,1:3|0:0,0:0:0:0:
190,162,107295,1,8,1:3:0:0:
21,249,107445,2,0,L|0:30,1,219.999990463257,8|2,0:0|0:0,0:0:0:0:
0,30,108345,1,0,3:0:0:0:
256,0,108645,5,8,0:0:0:0:
512,30,109095,1,0,0:0:0:0:
491,249,109245,6,0,L|512:30,1,219.999990463257,0|0,1:3|0:0,0:0:0:0:
322,162,109695,1,0,1:3:0:0:
422,370,109845,2,0,L|400:151,1,219.999990463257,8|0,0:0|0:0,0:0:0:0:
256,132,110745,1,0,3:0:0:0:
256,0,111045,5,8,0:0:0:0:
256,132,111195,1,0,1:0:0:0:
37,248,111645,6,0,L|255:269,1,219.999990463257,0|0,1:3|0:0,0:0:0:0:
256,355,112095,1,0,1:3:0:0:
474,110,112245,2,0,L|255:131,1,219.999990463257,8|0,0:0|0:0,0:0:0:0:
256,0,113445,5,8,0:0:0:0:
255,296,113745,6,0,L|255:131,1,164.999992847443,2|0,0:1|0:0,0:0:0:0:
172,129,114045,2,0,P|146:82|171:34,1,109.999995231628,2|0,1:2|0:0,0:0:0:0:
341,35,114345,2,0,P|365:82|340:129,1,109.999995231628,2|0,0:0|1:0,0:0:0:0:
172,129,114645,1,10,0:0:0:0:
341,35,114795,1,2,0:0:0:0:
256,82,114945,1,0,1:0:0:0:
172,129,115245,6,0,P|256:218|340:124,1,274.999988079071,8|0,1:3|1:0,0:0:0:0:
169,35,115695,1,2,0:3:0:0:
340,128,115845,1,8,0:0:0:0:
256,82,115995,1,0,1:0:0:0:
172,129,116445,6,0,L|49:144,2,123.74999935627,2|0|0,1:2|0:0|0:0,0:0:0:0:
136,5,116895,1,2,1:2:0:0:
98,150,117045,2,0,L|49:144,1,49.4999963436128,8|0,0:0|0:0,0:0:0:0:
115,231,117645,1,2,3:0:0:0:
79,343,117795,6,0,L|73:302,1,41.2499997854233
115,231,118095,1,2,3:0:0:0:
256,384,118245,5,8,0:0:0:0:
256,224,118395,1,0,0:0:0:0:
256,304,118545,1,6,3:0:0:0:
482,244,118845,6,0,L|360:260,2,123.74999935627,2|0|0,1:2|0:0|0:0,0:0:0:0:
396,168,119295,1,2,1:2:0:0:
482,244,119445,2,0,L|432:237,1,49.4999963436128,8|0,0:0|0:0,0:0:0:0:
432,56,120045,1,2,3:0:0:0:
396,168,120195,6,0,L|391:128,2,41.2499997854233,0|0|2,0:0|0:0|3:0,0:0:0:0:
256,13,120645,5,8,0:0:0:0:
297,83,120795,1,0,0:0:0:0:
216,83,120945,1,2,3:0:0:0:
30,244,121245,6,0,L|152:260,2,123.74999935627,2|0|0,1:2|0:0|0:0,0:0:0:0:
116,168,121695,1,2,1:2:0:0:
30,244,121845,2,0,L|80:237,1,49.4999963436128,8|0,0:0|0:0,0:0:0:0:
67,52,122445,1,2,3:0:0:0:
116,168,122595,6,0,L|121:116,2,41.2499997854233,2|0|0,0:0|3:0|0:0,0:0:0:0:
256,13,123045,5,8,0:0:0:0:
255,88,123195,1,0,0:0:0:0:
255,88,123345,6,0,L|255:253,1,164.999992847443,2|0,3:0|0:0,0:0:0:0:
172,255,123645,2,0,P|146:302|171:350,1,109.999995231628,2|0,1:2|0:0,0:0:0:0:
341,349,123945,2,0,P|365:302|340:255,1,109.999995231628,2|0,0:0|1:0,0:0:0:0:
172,255,124245,1,10,0:0:0:0:
341,349,124395,1,2,0:0:0:0:
256,302,124545,1,2,3:0:0:0:
172,255,124845,6,0,P|258:167|343:267,1,273.899992097168,6|0,1:3|0:0,0:0:0:0:
344,253,125445,6,0,P|252:341|171:253,1,273.899992097168,8|0,0:0|0:0,0:0:0:0:
258,252,126045,5,0,1:3:0:0:
258,164,126195,1,0,3:0:0:0:
258,76,126345,2,0,P|306:82|368:55,1,82.4999995708466,0|0,3:0|1:0,0:0:0:0:
258,252,126645,5,8,0:0:0:0:
304,163,126795,1,0,0:0:0:0:
338,74,126945,1,8,3:3:0:0:
258,252,127245,5,2,3:0:0:0:
212,163,127395,1,0,0:0:0:0:
178,74,127545,1,0,1:0:0:0:
178,74,127845,6,0,P|220:85|259:76,1,82.4999995708466,8|2,0:0|3:0,0:0:0:0:
258,252,128445,5,4,1:2:0:0:
258,164,128595,1,0,0:0:0:0:
259,77,128745,1,2,3:0:0:0:
259,77,128895,1,0,1:0:0:0:
393,111,129045,5,8,0:0:0:0:
331,183,129195,1,0,0:0:0:0:
258,252,129345,1,8,3:0:0:0:
123,111,129645,6,0,P|165:106|199:84,1,82.4999995708466,4|0,1:2|1:0,0:0:0:0:
123,111,130245,5,8,0:0:0:0:
185,183,130395,1,0,1:0:0:0:
258,252,130545,1,2,3:0:0:0:
258,252,130845,6,0,L|258:157,1,82.4999995708466,4|2,1:2|3:0,0:0:0:0:
440,181,131445,5,8,0:0:0:0:
355,220,131595,1,0,0:0:0:0:
258,252,131745,1,8,3:0:0:0:
76,181,132045,5,2,1:3:0:0:
161,220,132195,1,0,0:0:0:0:
258,252,132345,1,0,1:0:0:0:
355,220,132495,1,2,3:0:0:0:
440,181,132645,1,8,0:0:0:0:
76,181,132945,1,2,3:0:0:0:
512,0,133245,5,10,1:3:0:0:
0,0,133845,5,2,3:2:0:0:
256,384,134445,6,0,L|256:339,1,43.9999980926514
256,192,135795,12,0,136545,0:0:0:0:
43,58,136845,6,0,B|138:4|255:59|255:59|378:118|464:68,1,439.999980926514,4|8,1:0|0:0,0:0:0:0:
256,60,137745,1,2,3:0:0:0:
256,60,138045,5,2,3:2:0:0:
205,129,138195,1,0,3:0:0:0:
236,208,138345,1,0,1:0:0:0:
340,74,138495,5,2,3:2:0:0:
236,208,138645,1,8,3:2:0:0:
287,140,138795,1,2,1:2:0:0:
287,140,138945,1,2,3:2:0:0:
256,60,139095,1,2,3:0:0:0:
321,221,139245,2,0,B|352:292|352:292|374:151,1,219.999990463257,0|2,1:0|3:0,0:0:0:0:
172,46,139845,5,10,0:0:0:0:
121,115,140145,1,2,0:0:0:0:
152,194,140445,1,2,0:0:0:0:
236,208,140745,1,0,1:0:0:0:
256,60,140895,5,2,0:0:0:0:
152,194,141045,1,8,0:0:0:0:
205,129,141195,1,2,1:2:0:0:
205,129,141345,1,2,3:0:0:0:
236,208,141495,1,2,3:0:0:0:
464,68,141645,6,0,B|378:118|255:59|255:59|138:4|43:58,1,439.999980926514,4|8,1:2|0:0,0:0:0:0:
256,60,142545,1,2,3:2:0:0:
256,60,142845,5,2,3:2:0:0:
236,220,142995,1,0,3:0:0:0:
246,140,143145,1,0,1:0:0:0:
406,160,143295,5,2,0:0:0:0:
246,140,143445,1,8,3:2:0:0:
326,150,143595,1,0,1:0:0:0:
216,380,143745,5,2,3:2:0:0:
236,220,143895,1,2,3:0:0:0:
226,300,144045,2,0,P|310:261|226:227,1,219.999990463257,2|2,1:2|0:0,0:0:0:0:
83,242,144495,1,2,1:2:0:0:
83,242,144645,2,0,P|9:193|93:163,1,219.999990463257,10|2,0:0|3:2,0:0:0:0:
243,226,145095,1,0,1:0:0:0:
243,226,145245,2,0,P|323:188|420:75,1,219.999990463257,2|0,0:0|1:0,0:0:0:0:
462,159,145695,5,2,0:0:0:0:
378,173,145845,1,8,0:0:0:0:
327,104,145995,1,2,1:2:0:0:
358,25,146145,1,0,0:0:0:0:
442,11,146295,1,2,3:0:0:0:
412,92,146445,6,0,B|326:142|217:71|217:71|119:1|59:50|59:50|82:95|136:92,1,439.999980926514,4|8,1:0|0:0,0:0:0:0:
103,89,147345,1,2,3:2:0:0:
70,11,147645,5,2,3:2:0:0:
134,173,147795,1,0,0:0:0:0:
154,25,147945,1,0,1:0:0:0:
50,159,148095,5,2,0:0:0:0:
134,173,148245,1,8,3:2:0:0:
185,104,148395,1,0,1:0:0:0:
154,25,148545,1,2,3:2:0:0:
70,11,148695,1,2,3:0:0:0:
100,92,148845,6,0,B|186:142|295:71|295:71|393:1|453:50|453:50|430:95|376:92,1,439.999980926514,0|10,1:0|0:0,0:0:0:0:
462,159,149745,5,2,0:0:0:0:
378,173,150045,1,2,0:0:0:0:
327,104,150345,1,0,1:0:0:0:
358,25,150495,1,2,0:0:0:0:
442,11,150795,1,0,1:0:0:0:
327,104,150945,1,2,3:0:0:0:
358,25,151095,1,0,3:0:0:0:
415,294,151245,6,0,B|329:237|220:308|220:308|122:378|62:338|62:338|93:279|139:287,1,439.999980926514,4|8,1:2|0:0,0:0:0:0:
414,294,152145,1,2,0:0:0:0:
101,293,152445,6,0,B|186:236|295:307|295:307|393:377|455:336|455:336|420:279|376:290,1,439.999980926514,2|8,3:0|0:0,0:0:0:0:
256,44,153345,1,2,3:0:0:0:
256,44,153645,6,0,L|338:51,1,54.9999976158142,12|0,0:0|0:0,0:0:0:0:
190,162,153945,1,0,3:0:0:0:
256,44,154095,2,0,L|174:51,1,54.9999976158142,4|0,1:2|0:0,0:0:0:0:
321,260,154395,1,2,3:0:0:0:
256,44,154545,6,2,L|256:166,1,109.999995231628,6|0,1:2|0:0,0:0:0:0:
256,44,155445,6,0,L|310:48,1,54.9999976158142,4|0,1:3|0:0,0:0:0:0:
190,162,155595,2,0,L|108:169,1,54.9999976158142,0|0,3:0|0:0,0:0:0:0:
256,44,155745,2,0,L|201:48,1,54.9999976158142,8|0,0:0|0:0,0:0:0:0:
321,260,155895,2,0,L|403:267,1,54.9999976158142,8|0,0:0|0:0,0:0:0:0:
464,68,156045,6,0,B|378:118|255:59|255:59|138:4|43:58,1,439.999980926514,4|8,1:0|0:0,0:0:0:0:
256,60,156945,1,2,3:2:0:0:
256,60,157245,5,2,3:2:0:0:
289,198,157395,1,0,3:0:0:0:
369,180,157545,1,0,1:0:0:0:
233,139,157695,5,2,0:0:0:0:
336,42,157845,1,8,3:2:0:0:
369,180,157995,1,0,1:0:0:0:
392,101,158145,5,2,3:2:0:0:
392,101,158295,1,2,3:0:0:0:
233,139,158445,2,0,B|367:180|367:180|290:198,1,219.999990463257,0|2,1:0|3:0,0:0:0:0:
210,218,159045,5,10,0:0:0:0:
233,139,159345,1,2,3:2:0:0:
289,198,159645,1,2,0:2:0:0:
233,139,159945,5,2,1:2:0:0:
150,156,160095,1,0,0:0:0:0:
129,236,160245,1,8,3:2:0:0:
187,294,160395,1,0,1:0:0:0:
266,277,160545,1,2,3:0:0:0:
289,198,160695,1,2,3:0:0:0:
43,58,160845,6,0,B|138:4|255:59|255:59|378:118|464:68,1,439.999980926514,4|8,1:0|0:0,0:0:0:0:
256,60,161745,1,2,3:0:0:0:
315,0,162045,5,6,0:3:0:0:
256,60,162195,1,2,0:3:0:0:
315,0,162345,5,0,1:0:0:0:
395,18,162495,1,2,0:0:0:0:
416,98,162645,1,8,3:2:0:0:
358,156,162795,1,0,1:0:0:0:
279,139,162945,1,2,3:0:0:0:
256,60,163095,1,2,3:0:0:0:
279,139,163245,6,0,P|366:162|335:78,1,219.999990463257,0|2,1:0|3:0,0:0:0:0:
101,164,163695,1,0,3:0:0:0:
182,181,163845,6,0,P|158:95|101:164,1,219.999990463257,10|2,0:0|0:0,0:0:0:0:
293,321,164295,1,0,1:0:0:0:
267,243,164445,6,0,P|204:306|293:322,1,219.999990463257,2|0,0:0|1:0,0:0:0:0:
335,78,164895,1,2,3:0:0:0:
279,139,165045,6,0,P|366:162|335:78,1,219.999990463257,8|2,0:0|3:0,0:0:0:0:
61,59,165645,6,0,B|158:77|260:34|260:34|249:65|249:65|356:29|449:59,1,439.999980926514,4|8,1:2|0:0,0:0:0:0:
255,49,166545,1,2,3:0:0:0:
255,49,166845,5,10,3:3:0:0:
277,128,166995,1,0,3:0:0:0:
299,207,167145,1,0,1:0:0:0:
198,150,167295,5,2,0:0:0:0:
277,128,167445,1,8,3:2:0:0:
356,106,167595,1,0,1:0:0:0:
299,207,167745,5,0,3:2:0:0:
255,49,167895,1,2,3:0:0:0:
451,59,168045,6,0,B|354:77|252:34|252:34|263:65|263:65|156:29|63:59,1,439.999980926514,0|10,1:0|0:0,0:0:0:0:
63,58,168945,1,2,3:2:0:0:
107,216,169245,1,2,0:0:0:0:
221,14,169545,1,0,1:0:0:0:
63,58,169695,1,2,0:0:0:0:
265,172,169995,1,0,1:0:0:0:
221,14,170145,1,2,3:0:0:0:
62,324,170445,6,0,B|159:306|261:349|261:349|250:318|250:318|357:354|450:324,1,439.999980926514,4|8,1:0|0:0,0:0:0:0:
450,324,171345,1,2,3:2:0:0:
450,324,171645,6,0,B|353:306|251:349|251:349|262:318|262:318|155:354|62:324,1,439.999980926514,4|8,0:0|0:0,0:0:0:0:
256,44,172545,5,2,3:0:0:0:
256,44,172845,5,6,1:2:0:0:
190,162,173145,1,2,3:2:0:0:
256,44,173445,1,10,0:0:0:0:
321,260,173745,1,2,3:2:0:0:
321,260,174045,1,2,0:0:0:0:
190,162,174195,2,0,P|215:218|175:282,1,109.999995231628,0|2,1:0|3:0,0:0:0:0:
190,162,174645,2,0,P|152:172|106:157,1,82.4999995708466,12|8,1:2|1:2,0:0:0:0:
256,44,174945,6,0,L|338:51,1,54.9999976158142,4|0,1:0|0:0,0:0:0:0:
190,162,175245,2,0,L|108:169,1,54.9999976158142,2|0,3:2|3:0,0:0:0:0:
256,44,175545,1,10,0:0:0:0:
190,162,175695,1,2,3:0:0:0:
321,260,175845,1,2,3:2:0:0:
321,260,176145,1,2,0:0:0:0:
190,162,176295,2,0,P|215:218|175:282,1,109.999995231628,0|2,1:0|3:0,0:0:0:0:
190,162,176745,2,0,P|152:172|106:157,1,82.4999995708466,12|8,1:2|1:2,0:0:0:0:
256,44,177045,6,0,L|310:48,1,54.9999976158142,4|0,1:0|0:0,0:0:0:0:
190,162,177345,2,0,L|108:169,1,54.9999976158142,2|0,3:2|3:0,0:0:0:0:
256,44,177645,2,0,L|201:48,1,54.9999976158142,10|0,0:0|0:0,0:0:0:0:
321,260,177945,2,0,L|403:267,1,54.9999976158142,2|0,0:2|0:0,0:0:0:0:
190,162,178245,1,0,0:0:0:0:
190,162,178395,2,0,P|215:218|175:282,1,109.999995231628
