osu file format v14

[General]
AudioFilename: audio.mp3
AudioLeadIn: 0
PreviewTime: 87512
Countdown: 0
SampleSet: Soft
StackLeniency: 0.5
Mode: 0
LetterboxInBreaks: 0
WidescreenStoryboard: 0

[Editor]
Bookmarks: 9887,19787,29387,39587,49187,58787,68387,77987,87587,97187
DistanceSpacing: 0.5
BeatDivisor: 8
GridSize: 8
TimelineZoom: 3.500004

[Metadata]
Title:Knep Smerten Vaek
TitleUnicode:Knep Smerten Væk
Artist:Thomas Holm
ArtistUnicode:Thomas Holm
Creator:Spork Lover
Version:Climax
Source:
Tags:18+ R18 Danish Denmark Pop waefwerf YokesPai Cerkie Hanori Striderin fuck the pain away
BeatmapID:1869732
BeatmapSetID:894768

[Difficulty]
HPDrainRate:5
CircleSize:4
OverallDifficulty:9
ApproachRate:9.3
SliderMultiplier:3.59999990463257
SliderTickRate:1

[Events]
//Background and Video events
0,0,"58103072_p0.jpg",0,0
//Break Periods
//Storyboard Layer 0 (Background)
//Storyboard Layer 1 (Fail)
//Storyboard Layer 2 (Pass)
//Storyboard Layer 3 (Foreground)
//Storyboard Layer 4 (Overlay)
//Storyboard Sound Samples

[TimingPoints]
45,600,4,2,1,50,1,0
5145,-100,4,2,1,60,0,0
10245,-66.6666666666667,4,2,1,70,0,0
11145,-200,4,2,1,70,0,0
11745,-100,4,2,1,70,0,0
12645,-66.6666666666667,4,2,1,70,0,0
13245,-200,4,2,1,70,0,0
14145,-100,4,2,1,70,0,0
15045,-66.6666666666667,4,2,1,70,0,0
15945,-200,4,2,1,70,0,0
16545,-100,4,2,1,70,0,0
17445,-66.6666666666667,4,2,1,70,0,0
18045,-100,4,2,1,70,0,0
18945,-100,4,2,1,70,0,0
19845,-66.6666666666667,4,2,1,70,0,0
20745,-200,4,2,1,70,0,0
21345,-100,4,2,1,70,0,0
22245,-66.6666666666667,4,2,1,70,0,0
22845,-200,4,2,1,70,0,0
23745,-100,4,2,1,70,0,0
24645,-66.6666666666667,4,2,1,70,0,0
25545,-200,4,2,1,70,0,0
27045,-66.6666666666667,4,2,1,70,0,0
27645,-200,4,2,1,70,0,0
28245,-66.6666666666667,4,2,1,70,0,0
28545,-100,4,2,1,70,0,0
29445,-83.3333333333333,4,2,1,70,0,0
31845,-66.6666666666667,4,2,1,70,0,0
32445,-83.3333333333333,4,2,1,70,0,0
36645,600,5,2,1,70,1,0
36645,-66.6666666666667,5,2,1,70,0,0
37095,-83.3333333333333,5,2,1,70,0,0
38145,-83.3333333333333,5,2,1,40,0,0
39195,-83.3333333333333,5,2,1,80,0,0
39645,600,4,2,1,100,1,1
39645,-50,4,2,1,100,0,1
55245,-66.6666666666667,4,2,1,100,0,1
56445,-40,4,2,1,100,0,1
56745,-50,4,2,1,100,0,1
57045,-66.6666666666667,4,2,1,100,0,1
57345,-100,4,2,1,100,0,1
58245,-50,4,2,1,100,0,1
58845,-66.6666666666667,4,2,1,70,0,0
59745,-200,4,2,1,70,0,0
60345,-100,4,2,1,70,0,0
61245,-66.6666666666667,4,2,1,70,0,0
61845,-200,4,2,1,70,0,0
62745,-100,4,2,1,70,0,0
63645,-66.6666666666667,4,2,1,70,0,0
64545,-200,4,2,1,70,0,0
65145,-100,4,2,1,70,0,0
66045,-66.6666666666667,4,2,1,70,0,0
66645,-100,4,2,1,70,0,0
67545,-100,4,2,1,70,0,0
68445,-66.6666666666667,4,2,1,70,0,0
69345,-200,4,2,1,70,0,0
69945,-100,4,2,1,70,0,0
70845,-66.6666666666667,4,2,1,70,0,0
71445,-200,4,2,1,70,0,0
72345,-100,4,2,1,70,0,0
73245,-66.6666666666667,4,2,1,70,0,0
74145,-200,4,2,1,70,0,0
75345,-100,4,2,1,70,0,0
75645,-66.6666666666667,4,2,1,70,0,0
76245,-200,4,2,1,70,0,0
76845,-66.6666666666667,4,2,1,70,0,0
77145,-100,4,2,1,70,0,0
78045,-83.3333333333333,4,2,1,70,0,0
80445,-66.6666666666667,4,2,1,70,0,0
81045,-83.3333333333333,4,2,1,70,0,0
85245,-66.6666666666667,5,2,1,70,0,0
85695,-83.3333333333333,5,2,1,70,0,0
86145,-83.3333333333333,5,2,1,80,0,0
86745,-83.3333333333333,5,2,1,40,0,0
87195,-83.3333333333333,5,2,1,80,0,0
87645,-50,4,2,1,100,0,1
103245,-66.6666666666667,4,2,1,100,0,1
104445,-40,4,2,1,60,0,1
104745,-50,4,2,1,60,0,1
105045,-66.6666666666667,4,2,1,60,0,1
105345,-100,4,2,1,60,0,1
105795,-400,4,2,1,60,0,1
106245,-50,4,2,1,100,0,1
106845,-50,4,2,1,90,0,0
107295,-200,4,2,1,90,0,0
107745,-200,4,2,1,60,0,0
108345,-400,4,2,1,60,0,0
109245,-50,4,2,1,90,0,0
109695,-303.030303030303,4,2,1,90,0,0
110445,-303.030303030303,4,2,1,60,0,0
110745,-400,4,2,1,60,0,0
111645,-50,4,2,1,90,0,0
112095,-200,4,2,1,90,0,0
112545,-200,4,2,1,60,0,0
113145,-400,4,2,1,60,0,0
113745,-33.3333333333333,4,2,1,60,0,0
114045,-50,4,2,1,90,0,0
114945,-100,4,2,1,90,0,0
115245,-50,4,2,1,90,0,0
117045,-200,4,2,1,90,0,0
117345,-200,4,2,1,60,0,0
118245,-100,4,2,1,60,0,0
118845,-50,4,2,1,90,0,0
119295,-303.030303030303,4,2,1,90,0,0
119745,-303.030303030303,4,2,1,60,0,0
120495,-100,4,2,1,60,0,0
120945,-66.6666666666667,4,2,1,60,0,0
121245,-50,4,2,1,90,0,0
121695,-303.030303030303,4,2,1,90,0,0
122145,-303.030303030303,4,2,1,60,0,0
122745,-200,4,2,1,60,0,0
123345,-33.3333333333333,4,2,1,90,0,0
123645,-50,4,2,1,90,0,0
124545,-100,4,2,1,90,0,0
124845,-50,4,2,1,100,0,0
125445,-500,4,2,1,100,0,0
126045,-50,4,2,1,100,0,0
127845,-200,4,2,1,100,0,0
128445,-40,4,2,1,100,0,0
130245,-200,4,2,1,100,0,0
130845,-33.3333333333333,4,2,1,100,0,0
132045,-28.5714285714286,4,2,1,100,0,0
133245,-25,4,2,1,100,0,0
133845,-40,4,2,1,100,0,0
133995,-40,4,2,1,100,0,0
134145,-80,4,2,1,100,0,0
134295,-80,4,2,1,100,0,0
134445,-1000,4,2,1,60,0,0
135045,-1000,4,2,1,5,0,0
135645,-1000,4,2,1,20,0,0
136845,600,4,2,1,100,1,1
136845,-50,4,2,1,100,0,1
154545,-1000,4,2,1,100,0,1
155445,-100,4,2,1,100,0,0
155520,-100,4,2,1,5,0,0
155595,-66.6666666666667,4,2,1,100,0,0
155670,-100,4,2,1,5,0,0
155745,-50,4,2,1,100,0,0
155820,-100,4,2,1,5,0,0
155895,-40,4,2,1,100,0,0
155970,-100,4,2,1,5,0,0
156045,-50,4,2,1,100,0,1
172845,-100,4,2,1,100,0,0
173145,-66.6666666666667,4,2,1,100,0,0
173445,-44.4444444444445,4,2,1,100,0,0
173745,-33.3333333333333,4,2,1,100,0,0
174195,-1000,4,2,1,100,0,0
174645,-33.3333333333333,4,2,1,100,0,1
174945,600,4,2,1,100,1,0
175245,-66.6666666666667,4,2,1,100,0,0
175545,-44.4444444444445,4,2,1,100,0,0
175845,-33.3333333333333,4,2,1,100,0,0
176295,-1000,4,2,1,100,0,0
176745,-33.3333333333333,4,2,1,100,0,1
177045,600,4,2,1,100,1,0
177345,-66.6666666666667,4,2,1,100,0,0
177645,-44.4444444444445,4,2,1,100,0,0
177945,-33.3333333333333,4,2,1,100,0,0
178245,-33.3333333333333,4,2,1,100,0,0
178395,-1000,4,2,1,100,0,0

[Colours]
Combo1 : 0,255,64
Combo2 : 191,0,0
Combo3 : 125,0,125
Combo4 : 0,128,255

[HitObjects]
173,166,9945,5,8,3:2:0:0:
156,273,10095,1,8,3:2:0:0:
309,19,10245,6,0,B|299:68|257:72|257:72|167:21|73:84,1,270.000003147125,4|0,1:2|0:0,0:0:0:0:
5,134,10695,1,0,3:0:0:0:
344,197,10845,1,8,0:0:0:0:
369,204,11145,2,0,L|305:223,1,44.9999988079071,2|0,0:0|1:0,0:0:0:0:
193,204,11445,2,0,L|257:223,1,44.9999988079071,2|0,0:0|0:0,0:0:0:0:
284,381,11745,2,0,B|282:292,1,89.9999976158143,2|0,1:2|0:0,0:0:0:0:
283,92,12045,1,8,0:0:0:0:
368,152,12195,1,0,1:0:0:0:
368,152,12645,6,0,B|427:240|376:330|376:330|380:372|429:382,1,270.000003147125,4|0,1:2|0:0,0:0:0:0:
492,309,13095,1,0,0:0:0:0:
210,309,13245,1,8,0:0:0:0:
293,311,13545,2,0,L|266:252,1,44.9999988079071,2|0,0:0|1:0,0:0:0:0:
168,238,13845,2,0,L|228:234,1,44.9999988079071,2|0,0:0|0:0,0:0:0:0:
280,198,14145,2,0,P|301:158|305:114,1,89.9999976158143,0|0,1:0|0:0,0:0:0:0:
51,80,14445,1,8,0:0:0:0:
130,63,14595,1,0,1:0:0:0:
130,63,15045,6,0,B|106:131|106:131|139:248|139:248|85:243|54:289,1,270.000003147125,4|0,1:2|0:0,0:0:0:0:
123,327,15495,1,0,3:0:0:0:
356,114,15645,1,8,0:0:0:0:
437,103,15945,2,0,L|432:148,1,44.9999988079071,2|0,0:0|1:0,0:0:0:0:
280,89,16245,2,0,L|276:142,1,44.9999988079071,2|0,0:0|0:0,0:0:0:0:
335,279,16545,2,0,L|351:149,1,89.9999976158143,2|0,1:2|0:0,0:0:0:0:
319,17,16845,1,8,0:0:0:0:
411,22,16995,1,0,1:0:0:0:
411,22,17445,6,0,B|395:50|407:83|407:83|419:118|418:161|418:161|409:213|371:225|371:225|330:184|344:137,1,270.000003147125,4|0,1:2|0:0,0:0:0:0:
468,152,17895,1,0,0:0:0:0:
182,367,18045,2,0,P|229:266|307:283,1,179.999995231629,8|0,0:0|0:0,0:0:0:0:
254,339,18495,1,2,1:2:0:0:
12,72,18645,2,0,B|52:94|52:94|75:51,2,89.9999976158143,2|2|0,0:0|0:0|1:0,0:0:0:0:
12,72,19545,5,0,0:0:0:0:
65,194,19695,1,0,0:0:0:0:
382,29,19845,6,0,B|314:35|299:101|299:101|217:145|148:83,1,270.000003147125,4|2,1:2|3:0,0:0:0:0:
93,27,20295,1,0,3:0:0:0:
360,227,20445,1,8,3:2:0:0:
360,227,20595,1,2,3:0:0:0:
421,131,20745,2,0,L|377:143,1,44.9999988079071,2|0,3:2|1:0,0:0:0:0:
254,177,21045,2,0,L|297:164,1,44.9999988079071,2|0,3:2|0:0,0:0:0:0:
388,313,21345,2,0,L|350:195,1,89.9999976158143,0|0,1:0|0:0,0:0:0:0:
294,11,21645,1,8,0:0:0:0:
315,87,21795,1,0,1:0:0:0:
315,87,21945,1,2,3:0:0:0:
368,29,22095,1,2,3:0:0:0:
36,79,22245,6,0,B|100:54|146:121|146:121|91:198|174:300,1,270.000003147125,4|2,1:2|3:0,0:0:0:0:
214,320,22695,1,0,0:0:0:0:
319,87,22845,1,8,0:0:0:0:
319,87,22995,1,2,3:0:0:0:
199,53,23145,2,0,L|242:65,1,44.9999988079071,2|0,0:0|1:0,0:0:0:0:
440,122,23445,2,0,L|396:109,1,44.9999988079071,2|0,0:2|0:0,0:0:0:0:
319,87,23745,1,0,1:0:0:0:
319,87,23895,1,2,0:3:0:0:
256,282,24045,1,8,0:0:0:0:
329,238,24195,1,0,1:0:0:0:
256,282,24345,1,0,3:0:0:0:
329,238,24495,1,2,3:0:0:0:
67,173,24645,6,0,B|163:140|251:199|251:199|196:206|155:277,1,270.000003147125,4|2,1:2|3:0,0:0:0:0:
256,282,25095,1,0,0:0:0:0:
78,56,25245,1,8,0:0:0:0:
78,56,25395,1,2,3:0:0:0:
67,173,25545,2,0,L|46:123,1,44.9999988079071,2|0,3:2|1:0,0:0:0:0:
155,71,25845,2,0,L|134:121,1,44.9999988079071,2|0,3:2|0:0,0:0:0:0:
78,56,26145,1,0,1:0:0:0:
78,56,26295,1,0,3:0:0:0:
347,64,26445,1,8,0:0:0:0:
289,141,26595,1,0,1:0:0:0:
267,169,26745,1,2,3:0:0:0:
242,199,26895,1,0,3:0:0:0:
427,109,27045,6,0,B|328:45|238:96|238:96|256:139|326:151,1,270.000003147125,0|2,1:0|3:0,0:0:0:0:
365,158,27495,1,0,3:0:0:0:
73,86,27645,1,8,0:0:0:0:
73,86,27795,1,2,3:0:0:0:
150,0,27945,2,0,L|138:52,1,44.9999988079071,2|0,0:0|1:0,0:0:0:0:
44,278,28245,6,0,B|143:214|233:265|233:265|215:308|145:320,1,270.000003147125,2|0,3:0|1:0,0:0:0:0:
106,327,28695,1,2,3:0:0:0:
399,255,28845,1,8,0:0:0:0:
106,327,28995,1,0,1:0:0:0:
258,294,29145,1,2,3:0:0:0:
258,294,29295,1,0,3:0:0:0:
87,123,29445,6,0,L|72:233,2,107.999993843079,4|0|2,1:2|0:0|3:0,0:0:0:0:
99,38,29895,1,0,3:0:0:0:
118,214,30045,2,0,L|234:195,1,107.999993843079,8|2,0:0|3:0,0:0:0:0:
321,177,30345,1,0,3:2:0:0:
453,158,30645,1,2,3:2:0:0:
453,158,30945,1,0,1:0:0:0:
410,164,31095,1,2,3:0:0:0:
474,361,31245,2,0,L|452:255,1,107.999993843079,8|0,0:0|1:0,0:0:0:0:
411,64,31544,1,2,3:0:0:0:
411,64,31845,6,0,B|322:78|322:78|234:52|234:52|117:71,1,270.000003147125,0|2,1:0|3:0,0:0:0:0:
56,84,32295,1,0,3:0:0:0:
101,324,32445,1,8,0:0:0:0:
101,324,32745,2,0,L|207:306,1,107.999993843079,2|0,3:2|1:0,0:0:0:0:
334,353,33045,2,0,L|440:335,1,107.999993843079,2|0,3:2|0:0,0:0:0:0:
207,306,33345,2,0,L|189:199,1,107.999993843079,0|0,1:0|0:0,0:0:0:0:
157,34,33645,1,8,0:0:0:0:
157,34,33945,1,2,3:0:0:0:
189,199,34095,1,0,3:0:0:0:
425,123,34245,6,0,L|440:233,2,107.999993843079,4|0|2,1:2|0:0|3:0,0:0:0:0:
413,38,34695,1,0,0:0:0:0:
394,214,34845,2,0,L|278:195,1,107.999993843079,8|2,0:0|3:0,0:0:0:0:
191,177,35145,1,0,3:0:0:0:
59,158,35445,1,2,0:0:0:0:
59,158,35745,1,0,1:0:0:0:
102,164,35895,1,2,3:0:0:0:
38,361,36045,2,0,L|60:255,1,107.999993843079,8|0,0:0|1:0,0:0:0:0:
101,64,36344,1,2,3:0:0:0:
101,64,36645,6,0,B|190:78|190:78|278:52|278:52|395:71,1,270.000003147125,0|2,1:0|3:0,0:0:0:0:
456,84,37095,1,0,3:0:0:0:
411,324,37245,1,8,0:0:0:0:
411,324,37545,2,0,L|304:306,1,107.999993843079,2|0,3:2|1:0,0:0:0:0:
178,353,37845,2,0,L|71:335,1,107.999993843079,2|0,0:0|0:0,0:0:0:0:
304,306,38145,5,0,3:0:0:0:
329,271,38295,1,0,0:0:0:0:
304,236,38445,1,0,3:0:0:0:
262,249,38595,1,0,3:0:0:0:
262,292,38745,1,0,3:0:0:0:
262,292,39195,1,0,1:0:0:0:
188,43,39345,5,8,0:0:0:0:
39,192,39495,1,8,0:0:0:0:
480,192,39645,6,0,B|361:214|328:119|328:119|295:32|186:44,1,359.999990463257,4|2,1:0|3:0,0:0:0:0:
39,192,40095,1,0,3:0:0:0:
480,192,40245,2,0,B|373:180|340:268|340:268|307:363|189:341,1,359.999990463257,8|0,0:0|0:0,0:0:0:0:
39,192,40695,1,0,1:0:0:0:
319,52,40845,5,2,3:2:0:0:
298,229,40995,1,0,0:0:0:0:
271,134,41145,1,0,1:0:0:0:
344,312,41295,1,2,0:0:0:0:
202,204,41445,1,8,3:2:0:0:
298,229,41595,1,0,1:0:0:0:
107,203,41745,1,2,3:2:0:0:
271,134,41895,1,0,3:0:0:0:
65,378,42045,6,0,L|113:176,1,179.999995231629,2|0,1:2|0:0,0:0:0:0:
147,44,42345,1,0,3:0:0:0:
147,44,42495,1,0,3:0:0:0:
447,378,42645,6,0,L|399:176,1,179.999995231629,10|0,0:0|0:0,0:0:0:0:
65,378,42945,2,0,L|113:176,1,179.999995231629,2|0,0:0|1:0,0:0:0:0:
256,12,43245,2,0,L|256:192,2,179.999995231629,2|0|0,0:0|0:0|1:0,0:0:0:0:
179,331,43695,2,0,P|256:369|348:316,1,179.999995231629,2|8,0:0|0:0,0:0:0:0:
256,192,43995,1,0,1:0:0:0:
425,192,44145,1,2,3:0:0:0:
447,192,44295,1,2,3:0:0:0:
32,192,44445,6,0,B|151:214|184:119|184:119|217:32|326:44,1,359.999990463257,4|2,1:0|3:0,0:0:0:0:
473,192,44895,1,0,3:0:0:0:
32,192,45045,2,0,B|139:180|172:268|172:268|205:363|323:341,1,359.999990463257,8|0,0:0|3:0,0:0:0:0:
473,192,45495,1,0,1:0:0:0:
91,126,45645,5,2,3:2:0:0:
256,254,45795,1,0,0:0:0:0:
199,152,45945,1,0,1:0:0:0:
421,126,46095,1,2,0:0:0:0:
256,254,46245,1,8,3:2:0:0:
313,152,46395,1,0,1:0:0:0:
255,362,46545,1,2,3:2:0:0:
256,49,46695,1,2,3:0:0:0:
0,240,46845,6,0,L|188:310,1,179.999995231629,0|2,1:0|0:0,0:0:0:0:
259,196,47145,1,2,0:0:0:0:
259,196,47295,1,2,0:0:0:0:
436,26,47445,6,0,L|352:208,1,179.999995231629,8|0,0:0|0:0,0:0:0:0:
76,26,47745,2,0,L|159:208,1,179.999995231629,2|0,0:0|1:0,0:0:0:0:
512,240,48045,2,0,L|324:310,2,179.999995231629,2|0|0,0:0|0:0|1:0,0:0:0:0:
175,51,48495,2,0,P|254:14|333:53,1,179.999995231629,2|8,0:0|0:0,0:0:0:0:
256,192,48795,1,0,1:0:0:0:
418,192,48945,1,2,3:0:0:0:
95,190,49095,1,2,3:0:0:0:
357,0,49245,6,0,B|357:103|357:103|448:235|448:235|448:341,1,359.999990463257,4|2,1:0|3:0,0:0:0:0:
256,383,49695,1,0,3:0:0:0:
156,0,49845,2,0,B|156:103|156:103|65:235|65:235|65:341,1,359.999990463257,8|0,0:0|3:0,0:0:0:0:
256,383,50295,1,0,1:0:0:0:
330,36,50445,5,2,3:2:0:0:
302,234,50595,1,0,0:0:0:0:
274,126,50745,1,0,1:0:0:0:
352,328,50895,1,2,0:0:0:0:
194,204,51045,1,8,3:2:0:0:
302,234,51195,1,0,1:0:0:0:
88,201,51345,1,2,3:2:0:0:
274,126,51495,1,0,3:0:0:0:
130,27,51645,6,0,L|85:214,1,179.999995231629,2|0,1:2|0:0,0:0:0:0:
259,377,51945,1,0,3:0:0:0:
259,377,52095,1,0,3:0:0:0:
130,27,52245,6,0,L|85:214,1,179.999995231629,10|0,0:0|0:0,0:0:0:0:
382,27,52545,2,0,L|427:214,1,179.999995231629,2|0,3:2|1:0,0:0:0:0:
256,372,52845,2,0,L|256:192,2,179.999995231629,2|0|0,0:0|0:0|1:0,0:0:0:0:
197,84,53295,2,0,B|256:16|256:16|316:84,1,179.999995231629,2|8,0:0|0:0,0:0:0:0:
257,191,53595,1,0,1:0:0:0:
256,32,53745,1,2,3:0:0:0:
256,1,53895,1,2,3:0:0:0:
357,384,54045,6,0,B|357:281|357:281|448:149|448:149|448:43,1,359.999990463257,4|2,1:0|3:0,0:0:0:0:
256,1,54495,1,0,3:0:0:0:
156,384,54645,2,0,B|156:281|156:281|65:149|65:149|65:43,1,359.999990463257,8|2,0:0|0:0,0:0:0:0:
256,1,55095,1,0,1:0:0:0:
256,384,55245,6,0,B|256:93,1,270.000003147125,2|0,3:0|1:0,0:0:0:0:
256,1,55695,1,0,0:0:0:0:
292,210,55845,5,8,3:2:0:0:
222,168,55995,1,0,1:0:0:0:
197,292,56145,1,2,3:0:0:0:
321,84,56295,1,0,3:0:0:0:
424,338,56445,6,0,L|383:75,1,224.999994039536,4|0,1:2|0:0,0:0:0:0:
278,8,56745,2,0,L|305:185,1,179.999995231629,2|2,0:0|3:0,0:0:0:0:
220,270,57045,2,0,L|195:113,1,135.000001573563,10|0,0:2|0:0,0:0:0:0:
98,111,57345,2,0,L|111:199,1,89.9999976158143,2|0,3:2|1:0,0:0:0:0:
32,255,57645,1,2,0:0:0:0:
198,136,57795,2,0,B|266:94|322:130|322:130|314:149|289:166,1,179.999995231629,0|0,1:3|0:0,0:0:0:0:
52,45,58245,6,0,P|176:134|323:90,1,179.999995231629,8|0,0:0|1:0,0:0:0:0:
430,119,58545,1,8,0:0:0:0:
341,332,58695,1,8,0:0:0:0:
136,196,58845,6,0,B|201:226|273:179|273:179|349:167|377:230,1,270.000003147125,4|2,1:2|0:0,0:0:0:0:
341,332,59295,1,0,0:0:0:0:
201,35,59445,1,8,0:0:0:0:
314,61,59745,2,0,L|250:80,1,44.9999988079071,2|0,0:0|1:0,0:0:0:0:
87,61,60045,2,0,L|151:80,1,44.9999988079071,2|0,0:0|0:0,0:0:0:0:
201,35,60345,2,0,B|201:124,1,89.9999976158143,2|0,1:2|0:0,0:0:0:0:
201,321,60645,1,8,0:0:0:0:
153,251,60795,1,0,1:0:0:0:
153,251,61245,6,0,B|219:224|261:268|261:268|307:325|349:314|349:314|330:286|336:237,1,270.000003147125,4|0,1:2|0:0,0:0:0:0:
414,266,61695,1,0,0:0:0:0:
356,60,61845,1,8,0:0:0:0:
409,169,62145,2,0,L|382:110,1,44.9999988079071,2|0,0:0|1:0,0:0:0:0:
233,66,62445,2,0,L|293:62,1,44.9999988079071,2|0,0:0|0:0,0:0:0:0:
356,60,62745,2,0,P|396:39|440:35,1,89.9999976158143,2|0,1:2|0:0,0:0:0:0:
414,266,63045,1,8,0:0:0:0:
488,220,63195,1,0,1:0:0:0:
488,220,63645,6,0,B|420:156|340:213|340:213|277:245|216:191,1,270.000003147125,4|0,1:2|0:0,0:0:0:0:
294,130,64095,1,0,0:0:0:0:
70,243,64245,1,8,0:0:0:0:
145,156,64545,2,0,L|140:201,1,44.9999988079071,2|0,0:0|1:0,0:0:0:0:
143,333,64845,2,0,L|139:280,1,44.9999988079071,2|0,0:0|0:0,0:0:0:0:
212,240,65145,2,0,L|282:240,1,89.9999976158143,2|0,1:2|0:0,0:0:0:0:
478,100,65445,1,8,0:0:0:0:
478,100,65745,1,0,3:3:0:0:
462,135,65895,1,2,0:3:0:0:
446,163,66045,6,0,B|419:147|386:159|386:159|351:171|308:170|308:170|256:161|244:123|244:123|258:100|280:99,1,270.000003147125,4|0,1:2|0:0,0:0:0:0:
368,114,66495,1,2,0:0:0:0:
413,340,66645,2,0,L|446:163,1,179.999995231629,8|0,0:0|0:0,0:0:0:0:
452,76,67095,1,2,1:2:0:0:
234,155,67245,2,0,B|248:196|209:234|209:234|234:253|246:287|246:287|259:259|287:248|287:248|295:283|322:288|322:288|296:336|316:377,1,359.999990463257,2|0,0:0|0:0,0:0:0:0:
316,376,67995,1,2,3:2:0:0:
79,101,68145,5,2,3:2:0:0:
85,213,68295,1,2,3:2:0:0:
284,69,68445,6,0,B|247:12|159:51|159:51|111:-6|37:17,1,270.000003147125,4|2,1:2|3:0,0:0:0:0:
79,101,68895,1,0,3:0:0:0:
384,18,69045,1,10,0:0:0:0:
384,18,69195,1,2,3:0:0:0:
254,102,69345,2,0,L|285:69,1,44.9999988079071,2|0,3:2|1:0,0:0:0:0:
444,162,69645,2,0,L|437:118,1,44.9999988079071,2|0,3:2|0:0,0:0:0:0:
384,18,69945,2,0,L|355:105,1,89.9999976158143,0|0,1:0|3:0,0:0:0:0:
280,292,70245,1,8,0:0:0:0:
255,216,70395,2,0,L|231:125,1,89.9999976158143,2|0,1:2|3:0,0:0:0:0:
207,48,70695,1,2,3:0:0:0:
456,282,70845,6,0,B|404:221|458:143|458:143|413:81|349:106,1,270.000003147125,4|2,1:2|3:0,0:0:0:0:
512,217,71295,1,0,3:0:0:0:
247,247,71445,1,8,0:0:0:0:
247,247,71595,1,2,3:0:0:0:
127,213,71745,2,0,L|170:225,1,44.9999988079071,2|0,3:2|1:0,0:0:0:0:
368,281,72045,2,0,L|324:268,1,44.9999988079071,2|0,3:2|0:0,0:0:0:0:
252,255,72345,1,2,1:2:0:0:
252,255,72495,1,2,3:0:0:0:
315,60,72645,5,8,0:0:0:0:
242,104,72795,1,0,1:0:0:0:
315,60,72945,1,2,3:0:0:0:
242,104,73095,1,2,3:0:0:0:
445,282,73245,6,0,B|491:169|419:98|419:98|360:130|386:200,1,270.000003147125,4|2,1:2|3:0,0:0:0:0:
256,282,73695,1,0,3:0:0:0:
315,60,73845,1,8,0:0:0:0:
315,60,73995,1,2,3:0:0:0:
242,102,74145,2,0,L|277:141,1,44.9999988079071,2|0,3:2|1:0,0:0:0:0:
386,22,74445,2,0,L|403:69,1,44.9999988079071,2|0,3:2|0:0,0:2:0:0:
315,60,74745,1,0,1:0:0:0:
315,60,74895,1,2,3:0:0:0:
338,338,75045,1,8,0:0:0:0:
379,248,75195,1,0,1:0:0:0:
394,276,75345,2,0,L|302:264,1,89.9999976158143,2|2,3:0|3:0,0:0:0:0:
123,277,75645,6,0,B|121:309|78:327|78:327|27:237|91:138,1,270.000003147125,0|2,1:0|3:0,0:0:0:0:
165,64,76095,1,2,3:2:0:0:
347,64,76245,1,8,0:0:0:0:
165,64,76395,1,2,0:0:0:0:
347,64,76545,2,0,L|336:117,1,44.9999988079071,2|0,0:3|1:0,0:0:0:0:
389,277,76845,6,0,B|390:309|433:327|433:327|484:237|420:138,1,270.000003147125,2|0,3:2|1:0,0:0:0:0:
347,64,77295,1,2,3:0:0:0:
256,313,77445,1,8,0:0:0:0:
258,196,77745,1,2,3:0:0:0:
258,196,77895,1,2,3:0:0:0:
341,325,78045,6,0,L|451:340,2,107.999993843079,4|0|2,0:0|0:0|3:0,0:0:0:0:
256,313,78495,1,0,0:0:0:0:
341,325,78645,2,0,L|322:209,1,107.999993843079,8|2,0:0|3:2,0:0:0:0:
305,128,78945,1,2,3:2:0:0:
280,0,79245,1,2,3:2:0:0:
218,165,79545,1,0,1:0:0:0:
210,122,79695,1,2,0:3:0:0:
13,186,79845,2,0,L|119:164,1,107.999993843079,8|0,0:0|1:0,0:0:0:0:
344,116,80144,1,2,3:0:0:0:
344,116,80445,6,0,L|387:390,1,270.000003147125,0|2,1:0|3:0,0:0:0:0:
385,382,80895,1,0,3:0:0:0:
145,337,81045,1,8,0:0:0:0:
145,337,81345,2,0,L|127:231,1,107.999993843079,2|0,3:2|1:0,0:0:0:0:
107,141,81645,2,0,L|89:35,1,107.999993843079,2|0,3:2|0:0,0:0:0:0:
126,230,81945,2,0,L|233:212,1,107.999993843079,2|0,1:2|0:0,0:0:0:0:
89,35,82245,1,8,0:0:0:0:
89,35,82545,1,2,3:0:0:0:
107,141,82695,1,2,3:0:0:0:
171,325,82845,6,0,L|61:340,2,107.999993843079,4|0|2,1:2|0:0|3:0,0:0:0:0:
256,313,83295,1,2,0:0:0:0:
171,325,83445,2,0,L|190:209,1,107.999993843079,8|2,0:0|3:0,0:0:0:0:
207,128,83745,1,2,0:2:0:0:
232,0,84045,1,2,3:2:0:0:
294,165,84345,1,0,1:0:0:0:
302,122,84495,1,2,3:0:0:0:
499,186,84645,2,0,L|393:164,1,107.999993843079,8|0,0:0|1:0,0:0:0:0:
168,116,84944,1,2,3:0:0:0:
168,116,85245,6,0,L|125:390,1,270.000003147125,0|2,1:0|3:0,0:0:0:0:
127,382,85695,1,0,3:0:0:0:
364,352,85845,1,8,0:0:0:0:
270,282,85995,1,0,0:0:0:0:
364,352,86145,2,0,L|382:246,1,107.999993843079,2|0,3:2|0:0,0:0:0:0:
185,9,86445,2,0,L|167:116,1,107.999993843079,2|2,0:2|3:0,0:0:0:0:
383,246,86745,5,0,3:0:0:0:
408,281,86895,1,0,3:0:0:0:
383,316,87045,1,0,3:0:0:0:
341,303,87195,1,0,3:0:0:0:
423,38,87345,5,8,0:0:0:0:
341,303,87495,1,8,0:0:0:0:
423,38,87645,6,0,B|304:16|271:111|271:111|238:198|130:192,1,359.999990463257,4|2,1:0|3:0,0:0:0:0:
142,46,88095,1,0,0:0:0:0:
423,346,88245,2,0,B|304:368|271:273|271:273|238:186|130:192,1,359.999990463257,8|0,0:0|0:0,0:0:0:0:
142,338,88695,1,0,1:0:0:0:
320,124,88845,5,2,3:2:0:0:
320,297,88995,1,0,0:0:0:0:
422,157,89145,1,0,1:0:0:0:
218,264,89295,1,2,0:0:0:0:
218,91,89445,1,8,3:2:0:0:
117,231,89595,1,0,1:0:0:0:
422,157,89745,1,2,3:2:0:0:
117,231,89895,1,0,3:0:0:0:
437,61,90045,6,0,B|437:156|437:156|395:230,1,179.999995231629,0|0,1:0|0:0,0:0:0:0:
258,378,90345,1,0,3:0:0:0:
258,378,90495,1,0,3:0:0:0:
75,61,90645,6,0,B|75:156|75:156|116:230,1,179.999995231629,10|0,0:0|0:0,0:0:0:0:
437,61,90945,2,0,B|437:156|437:156|395:230,1,179.999995231629,2|0,0:0|1:0,0:0:0:0:
172,316,91245,2,0,B|256:280|256:280|337:317,2,179.999995231629,2|0|0,0:0|0:0|1:0,0:0:0:0:
256,1,91695,2,0,L|256:193,1,179.999995231629,2|8,0:0|0:0,0:0:0:0:
256,381,91995,1,0,1:0:0:0:
512,112,92145,2,0,P|433:78|334:86,1,179.999995231629,2|0,3:0|0:0,0:0:0:0:
89,346,92445,6,0,B|208:368|241:273|241:273|274:186|382:192,1,359.999990463257,4|2,1:0|3:0,0:0:0:0:
370,338,92895,1,2,0:0:0:0:
89,38,93045,2,0,B|208:16|241:111|241:111|274:198|382:192,1,359.999990463257,8|0,0:0|3:0,0:0:0:0:
370,46,93495,1,0,1:0:0:0:
256,366,93645,5,2,3:2:0:0:
256,193,93795,1,0,0:0:0:0:
154,333,93945,1,0,1:0:0:0:
358,53,94095,1,2,0:0:0:0:
256,193,94245,1,8,3:2:0:0:
256,20,94395,1,0,1:0:0:0:
422,236,94545,1,2,3:2:0:0:
87,146,94695,1,2,0:0:0:0:
496,65,94845,6,0,B|401:65|401:65|326:106,1,179.999995231629,0|2,1:0|0:0,0:0:0:0:
258,270,95145,1,2,0:0:0:0:
258,270,95295,1,2,0:0:0:0:
16,65,95445,6,0,B|111:65|111:65|185:106,1,179.999995231629,8|0,0:0|0:0,0:0:0:0:
496,65,95745,2,0,B|401:65|401:65|326:106,1,179.999995231629,2|0,0:0|1:0,0:0:0:0:
256,373,96045,2,0,L|256:193,2,179.999995231629,2|0|0,0:0|0:0|1:0,0:0:0:0:
350,0,96495,2,0,B|258:20|258:20|175:1,1,179.999995231629,2|8,0:0|0:0,0:0:0:0:
86,48,96795,1,0,1:0:0:0:
425,146,96945,1,2,3:0:0:0:
87,146,97095,1,2,3:0:0:0:
426,48,97245,6,0,B|426:144|426:144|335:276|335:276|335:379,1,359.999990463257,4|2,1:0|3:0,0:0:0:0:
469,319,97695,1,0,3:0:0:0:
86,48,97845,2,0,B|86:144|86:144|177:276|177:276|177:379,1,359.999990463257,8|2,0:0|3:0,0:0:0:0:
43,319,98295,1,0,1:0:0:0:
363,181,98445,5,2,3:2:0:0:
190,181,98595,1,0,0:0:0:0:
330,79,98745,1,0,1:0:0:0:
223,283,98895,1,2,0:0:0:0:
396,283,99045,1,8,3:2:0:0:
256,384,99195,1,0,1:0:0:0:
330,79,99345,1,2,3:2:0:0:
256,384,99495,1,2,3:0:0:0:
29,38,99645,6,0,P|131:55|210:132,1,179.999995231629,0|0,1:0|0:0,0:0:0:0:
256,384,99945,1,2,3:0:0:0:
256,384,100095,1,0,3:0:0:0:
483,38,100245,6,0,P|381:55|302:132,1,179.999995231629,10|0,0:0|0:0,0:0:0:0:
29,38,100545,2,0,P|131:55|210:132,1,179.999995231629,2|0,0:0|1:0,0:0:0:0:
256,384,100845,2,0,L|256:179,2,179.999995231629,2|0|0,0:0|0:0|1:0,0:0:0:0:
483,38,101295,2,0,P|430:110|419:198,1,179.999995231629,2|8,0:0|0:0,0:0:0:0:
256,384,101595,1,0,1:0:0:0:
29,38,101745,2,0,P|81:110|92:198,1,179.999995231629,2|2,3:0|3:0,0:0:0:0:
426,336,102045,6,0,B|426:239|426:239|335:107|335:107|335:4,1,359.999990463257,4|2,1:0|3:0,0:0:0:0:
469,65,102495,1,0,3:0:0:0:
86,336,102645,2,0,B|86:239|86:239|177:107|177:107|177:4,1,359.999990463257,8|2,0:0|0:0,0:0:0:0:
43,65,103095,1,0,1:0:0:0:
256,383,103245,6,0,L|256:94,1,270.000003147125,2|0,0:0|1:0,0:0:0:0:
256,0,103695,1,0,0:0:0:0:
220,210,103845,5,8,0:0:0:0:
290,168,103995,1,0,1:0:0:0:
315,292,104145,1,2,3:0:0:0:
191,84,104295,1,0,3:0:0:0:
88,338,104445,5,0,0:0:0:0:
234,8,104745,5,0,0:0:0:0:
292,270,105045,5,0,0:0:0:0:
414,111,105345,5,0,0:0:0:0:
480,255,105645,5,0,0:0:0:0:
512,223,105795,2,0,B|455:228,1,44.9999988079071,0|0,0:0|1:0,0:0:0:0:
414,111,106245,6,0,P|342:165|343:283,1,179.999995231629,8|0,0:0|1:0,0:0:0:0:
292,270,106545,1,8,0:0:0:0:
234,8,106695,1,8,0:0:0:0:
88,338,106845,6,0,L|129:126,1,179.999995231629,0|0,1:3|0:0,0:0:0:0:
142,55,107145,1,0,0:0:0:0:
88,338,107295,6,0,L|69:241,1,89.9999976158143,8|0,1:3|0:0,0:0:0:0:
65,151,107745,1,2,0:0:0:0:
59,125,107895,1,0,0:0:0:0:
32,129,108045,1,2,0:0:0:0:
39,158,108195,1,2,0:0:0:0:
65,151,108345,2,0,L|129:138,1,44.9999988079071,0|8,3:0|0:0,0:0:0:0:
424,338,109245,6,0,L|383:126,1,179.999995231629,0|0,1:3|0:0,0:0:0:0:
370,55,109545,1,0,0:0:0:0:
424,338,109695,6,0,L|443:243,1,89.0999973677445,0|0,1:3|0:0,0:0:0:0:
493,129,110445,1,2,0:0:0:0:
486,158,110595,1,2,0:0:0:0:
460,151,110745,2,0,L|396:138,1,44.9999988079071,0|8,3:0|0:0,0:0:0:0:
486,158,111195,1,0,1:0:0:0:
88,338,111645,6,0,L|129:126,1,179.999995231629,0|0,1:3|0:0,0:0:0:0:
142,55,111945,1,0,0:0:0:0:
88,338,112095,6,0,L|69:241,1,89.9999976158143,0|0,1:3|0:0,0:0:0:0:
65,151,112545,1,0,0:0:0:0:
32,129,112845,1,2,0:0:0:0:
39,158,112995,1,2,0:0:0:0:
65,151,113145,2,0,L|129:138,1,44.9999988079071,0|8,3:0|0:0,0:0:0:0:
255,44,113745,6,0,B|274:127|274:127|237:224|237:224|257:304,1,270.000003147125,2|0,0:1|0:0,0:0:0:0:
427,339,114045,2,0,P|405:280|426:146,1,179.999995231629,2|0,1:2|0:0,0:0:0:0:
88,338,114345,2,0,P|110:279|89:145,1,179.999995231629,2|0,0:0|1:0,0:0:0:0:
416,165,114645,1,10,0:0:0:0:
98,164,114795,1,2,0:0:0:0:
427,339,114945,6,0,P|451:294|452:240,1,89.9999976158143,0|0,1:0|0:0,0:0:0:0:
454,255,115245,6,0,P|326:246|274:16,1,359.999990463257,8|0,1:3|1:0,0:0:0:0:
454,53,115695,1,2,0:3:0:0:
294,345,115845,1,8,0:0:0:0:
271,263,115995,1,0,1:0:0:0:
88,338,116445,6,0,L|129:126,2,179.999995231629,2|0|0,1:2|0:0|0:0,0:0:0:0:
142,55,116895,1,2,1:2:0:0:
88,338,117045,6,0,L|69:241,1,89.9999976158143,8|0,0:0|0:0,0:0:0:0:
32,129,117645,1,2,3:0:0:0:
39,158,117795,1,0,0:0:0:0:
70,155,117945,1,0,0:0:0:0:
66,123,118095,2,0,L|110:114,1,44.9999988079071,2|8,3:0|0:0,0:0:0:0:
39,158,118395,1,0,0:0:0:0:
188,31,118545,2,0,L|296:55,1,89.9999976158143,6|2,3:0|3:0,0:0:0:0:
424,338,118845,6,0,L|383:126,1,179.999995231629,2|0,1:2|0:0,0:0:0:0:
370,55,119145,1,0,0:0:0:0:
424,338,119295,6,0,L|445:248,1,89.0999973677445,2|0,1:2|0:0,0:0:0:0:
478,128,120045,1,2,3:0:0:0:
473,158,120195,1,0,0:0:0:0:
442,155,120345,1,0,0:0:0:0:
446,123,120495,2,0,L|345:111,1,89.9999976158143,2|8,3:0|0:0,0:0:0:0:
478,128,120795,1,0,0:0:0:0:
256,20,120945,6,0,L|230:153,1,135.000001573563,2|0,3:0|3:0,0:0:0:0:
88,338,121245,6,0,L|129:126,1,179.999995231629,2|0,1:2|0:0,0:0:0:0:
142,55,121545,1,0,0:0:0:0:
88,338,121695,6,0,L|70:247,1,89.0999973677445,2|0,1:2|0:0,0:0:0:0:
32,129,122445,1,2,3:0:0:0:
39,158,122595,1,0,0:0:0:0:
74,153,122745,2,0,L|171:137,1,89.9999976158143,2|8,3:0|0:0,0:0:0:0:
257,56,123345,6,0,B|276:139|276:139|239:236|239:236|258:314,1,270.000003147125,2|0,3:0|0:0,0:0:0:0:
427,339,123645,2,0,P|405:280|426:146,1,179.999995231629,2|0,1:2|0:0,0:0:0:0:
88,338,123945,2,0,P|110:279|89:145,1,179.999995231629,2|0,0:0|1:0,0:0:0:0:
416,165,124245,1,10,0:0:0:0:
98,164,124395,1,2,0:0:0:0:
416,165,124545,6,0,L|331:107,1,89.9999976158143,2|0,3:0|0:0,0:0:0:0:
341,114,124845,6,0,P|305:352|78:285,1,539.999985694885,6|0,1:3|0:0,0:0:0:0:
78,285,125445,6,0,L|89:338,1,53.9999985694885,8|0,0:0|0:0,0:0:0:0:
88,338,126045,6,0,L|129:126,2,179.999995231629,0|0|0,1:3|3:0|3:0,0:0:0:0:
140,68,126495,1,0,1:0:0:0:
424,338,126645,6,0,L|383:126,2,179.999995231629,8|0|8,0:0|0:0|3:3,0:0:0:0:
372,68,127095,1,0,0:0:0:0:
88,338,127245,6,0,L|129:126,2,179.999995231629,2|0|0,3:0|0:0|1:0,0:0:0:0:
122,161,127845,6,0,L|135:205,2,44.9999988079071,8|0|2,0:0|1:0|3:0,0:0:0:0:
424,338,128445,6,0,B|408:256|408:256|359:188|359:188|351:131,2,224.999994039536,4|0|2,1:2|0:0|3:0,0:0:0:0:
450,33,128895,1,0,1:0:0:0:
88,338,129045,6,0,B|104:256|104:256|152:188|152:188|161:131,2,224.999994039536,8|0|8,0:0|0:0|3:0,0:0:0:0:
62,33,129495,1,0,0:0:0:0:
424,338,129645,6,0,B|408:256|408:256|359:188|359:188|351:131,1,224.999994039536,4|0,1:2|0:0,0:0:0:0:
88,338,129945,2,0,B|104:256|104:256|152:188|152:188|161:131,1,224.999994039536,0|2,1:0|3:0,0:0:0:0:
255,0,130245,6,0,L|256:57,2,44.9999988079071,8|0|2,0:0|1:0|3:0,0:0:0:0:
424,338,130845,6,0,B|374:260|374:260|428:127|428:127|492:107,2,270.000003147125,4|0|2,1:2|0:0|3:0,0:0:0:0:
255,44,131295,1,0,1:0:0:0:
88,338,131445,6,0,B|138:260|138:260|84:127|84:127|20:107,2,270.000003147125,8|0|8,0:0|0:0|3:0,0:0:0:0:
255,22,131895,1,0,0:0:0:0:
424,338,132045,2,0,B|452:207|452:207|380:121|380:121|452:25,1,314.999994659424,2|0,1:3|0:0,0:0:0:0:
90,65,132345,1,0,1:0:0:0:
421,66,132495,1,2,3:0:0:0:
88,338,132645,2,0,B|60:207|60:207|132:121|132:121|60:25,2,314.999994659424,8|0|2,0:0|1:0|3:0,0:0:0:0:
256,0,133095,1,0,0:0:0:0:
261,383,133245,6,0,B|240:312|240:312|275:240|275:240|324:256|324:256|355:165|355:165|231:22,1,359.999990463257,10|4,1:3|3:0,0:0:0:0:
256,0,133545,1,0,0:0:0:0:
28,65,133695,1,4,3:0:0:0:
484,65,133845,2,0,P|366:90|325:181,1,224.999994039536,2|0,3:2|0:0,0:0:0:0:
466,369,134145,2,0,P|433:323|384:297,1,112.499997019768,2|0,0:0|0:0,0:0:0:0:
64,341,134445,6,0,P|91:318|126:309,1,71.9999980926514,0|0,0:0|0:0,0:0:0:0:
256,192,135720,12,0,136695,0:0:0:0:
496,340,136845,6,0,P|287:288|286:91,1,359.999990463257,4|2,1:0|3:0,0:0:0:0:
256,0,137295,1,2,3:0:0:0:
16,340,137445,2,0,P|225:288|226:91,1,359.999990463257,8|2,0:0|3:0,0:0:0:0:
256,0,137895,1,0,1:0:0:0:
278,344,138045,5,2,3:2:0:0:
256,168,138195,1,0,3:0:0:0:
229,263,138345,1,0,1:0:0:0:
302,85,138495,1,2,3:2:0:0:
65,194,138645,1,8,3:2:0:0:
447,194,138795,1,2,1:2:0:0:
210,85,138945,1,2,3:2:0:0:
256,168,139095,1,2,3:0:0:0:
106,369,139245,6,0,L|58:167,1,179.999995231629,0|0,1:0|0:0,0:0:0:0:
256,0,139545,1,2,3:0:0:0:
256,0,139695,1,2,3:0:0:0:
106,369,139845,6,0,L|58:167,1,179.999995231629,10|0,0:0|3:0,0:0:0:0:
406,369,140145,2,0,L|454:167,1,179.999995231629,2|0,0:0|1:0,0:0:0:0:
256,0,140445,2,0,L|256:180,2,179.999995231629,2|0|0,0:0|3:0|1:0,0:0:0:0:
302,263,140895,1,2,0:0:0:0:
65,154,141045,1,8,0:0:0:0:
447,154,141195,1,2,1:2:0:0:
210,263,141345,1,2,3:0:0:0:
256,180,141495,1,2,3:0:0:0:
16,8,141645,6,0,P|186:23|256:180,1,359.999990463257,4|2,1:2|3:0,0:0:0:0:
255,362,142095,1,0,0:0:0:0:
495,8,142246,2,0,P|325:23|255:180,1,359.999990463257,8|0,0:0|3:0,0:0:0:0:
255,362,142695,1,0,1:0:0:0:
91,134,142845,5,2,3:2:0:0:
256,262,142995,1,0,3:0:0:0:
199,160,143145,1,0,1:0:0:0:
421,134,143295,1,2,0:0:0:0:
256,262,143445,1,8,3:2:0:0:
313,160,143595,1,0,1:0:0:0:
255,362,143745,1,2,3:2:0:0:
256,57,143895,1,2,3:0:0:0:
0,376,144045,6,0,L|188:306,1,179.999995231629,2|0,1:2|0:0,0:0:0:0:
260,185,144345,1,2,0:0:0:0:
260,185,144495,1,2,1:2:0:0:
0,376,144645,6,0,L|188:306,1,179.999995231629,10|0,0:0|3:0,0:0:0:0:
512,376,144945,2,0,L|324:306,1,179.999995231629,2|0,3:2|1:0,0:0:0:0:
256,0,145245,2,0,L|256:192,2,179.999995231629,2|0|0,0:0|0:0|1:0,0:0:0:0:
396,94,145695,1,2,0:0:0:0:
116,94,145845,1,8,0:0:0:0:
256,350,145995,1,2,1:2:0:0:
256,0,146145,1,0,0:0:0:0:
256,383,146295,1,2,3:0:0:0:
356,0,146445,6,0,B|356:103|356:103|447:235|447:235|447:341,1,359.999990463257,4|2,1:0|3:0,0:0:0:0:
256,383,146895,1,0,3:0:0:0:
156,0,147045,2,0,B|156:103|156:103|65:235|65:235|65:341,1,359.999990463257,8|0,0:0|3:0,0:0:0:0:
256,383,147495,1,0,1:0:0:0:
396,94,147645,5,2,3:2:0:0:
256,234,147795,1,0,0:0:0:0:
358,192,147945,1,0,1:0:0:0:
116,94,148095,1,2,0:0:0:0:
396,94,148245,1,8,3:2:0:0:
256,350,148395,1,0,1:0:0:0:
256,0,148545,1,2,3:2:0:0:
256,383,148695,1,2,3:0:0:0:
1,42,148845,6,0,P|82:78|152:156,1,179.999995231629,0|0,1:0|3:0,0:0:0:0:
337,370,149145,1,2,3:0:0:0:
175,370,149295,1,0,3:0:0:0:
512,42,149445,6,0,P|431:78|361:156,1,179.999995231629,10|0,0:0|3:0,0:0:0:0:
0,42,149745,2,0,P|81:78|151:156,1,179.999995231629,2|0,0:0|1:0,0:0:0:0:
256,372,150045,2,0,L|256:192,2,179.999995231629,2|2|0,0:0|3:0|1:0,0:0:0:0:
256,0,150495,1,2,0:0:0:0:
357,204,150645,1,8,0:0:0:0:
220,126,150795,1,0,1:0:0:0:
357,384,150945,2,0,L|356:175,1,179.999995231629,2|0,3:0|3:0,0:0:0:0:
357,384,151245,6,0,B|357:281|357:281|448:149|448:149|448:43,1,359.999990463257,4|2,1:2|3:0,0:0:0:0:
256,0,151695,1,0,3:0:0:0:
155,204,151845,1,8,0:0:0:0:
292,126,151995,1,0,3:0:0:0:
155,384,152145,2,0,L|156:175,1,179.999995231629,2|0,0:0|1:0,0:0:0:0:
155,384,152445,6,0,B|155:281|155:281|64:149|64:149|64:43,1,359.999990463257,2|0,3:0|1:0,0:0:0:0:
256,0,152895,1,0,0:0:0:0:
220,210,153045,5,8,0:0:0:0:
290,168,153195,1,0,1:0:0:0:
315,292,153345,1,2,3:0:0:0:
191,84,153495,1,0,0:0:0:0:
395,384,153645,6,0,B|299:384|299:384|167:293|167:293|64:293,1,359.999990463257,12|0,0:0|3:0,0:0:0:0:
395,0,154095,2,0,B|299:0|299:0|167:91|167:91|64:91,1,359.999990463257,4|2,1:2|3:0,0:0:0:0:
512,192,154545,6,2,L|467:192,1,44.9999988079071,6|0,1:2|1:0,0:0:0:0:
479,231,155445,6,0,P|465:211|470:185,1,44.9999988079071,4|0,1:3|0:0,0:0:0:0:
371,78,155595,6,0,P|392:108|384:147,1,67.5000007867814,0|0,3:0|0:0,0:0:0:0:
304,332,155745,6,0,P|276:292|286:242,1,89.9999976158143,8|0,0:0|0:0,0:0:0:0:
150,0,155895,6,0,P|181:45|170:105,1,112.499997019768,8|0,0:0|0:0,0:0:0:0:
16,369,156045,6,0,P|186:354|256:197,1,359.999990463257,4|2,1:0|3:0,0:0:0:0:
256,0,156495,1,0,3:0:0:0:
496,369,156645,2,0,P|287:317|286:120,1,359.999990463257,8|0,0:0|3:0,0:0:0:0:
256,0,157095,1,0,1:0:0:0:
355,152,157245,5,2,3:2:0:0:
160,152,157395,1,0,3:0:0:0:
256,198,157545,1,0,1:0:0:0:
78,112,157695,1,2,0:0:0:0:
441,112,157845,1,8,3:2:0:0:
256,292,157995,1,0,1:0:0:0:
256,0,158145,1,2,3:2:0:0:
255,384,158295,1,2,3:0:0:0:
416,24,158445,6,0,L|481:248,1,179.999995231629,0|0,1:0|0:0,0:0:0:0:
183,340,158745,1,2,3:0:0:0:
329,340,158895,1,0,3:0:0:0:
96,24,159045,6,0,L|45:196,1,179.999995231629,10|2,0:0|3:0,0:0:0:0:
416,24,159345,2,0,L|466:196,1,179.999995231629,2|0,3:2|1:0,0:0:0:0:
255,384,159645,2,0,L|256:142,1,179.999995231629,2|0,0:2|3:0,0:0:0:0:
257,1,159945,5,2,1:2:0:0:
397,244,160095,1,0,0:0:0:0:
116,82,160245,1,8,3:2:0:0:
397,82,160395,1,0,1:0:0:0:
116,243,160545,1,2,3:0:0:0:
257,0,160695,1,2,3:0:0:0:
496,363,160845,6,0,P|325:348|255:191,1,359.999990463257,4|2,1:0|3:0,0:0:0:0:
256,0,161295,1,0,3:0:0:0:
16,363,161445,2,0,P|225:311|226:114,1,359.999990463257,8|2,0:0|3:0,0:0:0:0:
256,0,161895,1,0,1:0:0:0:
256,383,162045,1,6,0:3:0:0:
256,383,162195,1,2,0:3:0:0:
256,1,162345,5,0,1:0:0:0:
348,281,162495,1,2,0:0:0:0:
109,108,162645,1,8,3:2:0:0:
402,108,162795,1,0,1:0:0:0:
166,280,162945,1,2,3:0:0:0:
256,1,163095,1,2,3:0:0:0:
25,384,163245,6,0,L|94:164,1,179.999995231629,0|0,1:0|0:0,0:0:0:0:
329,44,163545,1,2,3:0:0:0:
183,44,163695,1,0,3:0:0:0:
487,384,163845,6,0,L|433:212,1,179.999995231629,10|0,0:0|0:0,0:0:0:0:
25,384,164145,2,0,L|78:212,1,179.999995231629,2|0,0:0|1:0,0:0:0:0:
256,0,164445,2,0,L|256:193,2,179.999995231629,2|0|0,0:0|0:0|1:0,0:0:0:0:
379,384,164895,2,0,L|432:212,1,179.999995231629,2|8,3:0|0:0,0:0:0:0:
256,0,165195,1,0,1:0:0:0:
132,384,165345,2,0,L|63:164,1,179.999995231629,2|2,3:0|3:0,0:0:0:0:
512,0,165645,6,0,B|415:0|415:0|283:91|283:91|180:91,1,359.999990463257,4|0,1:2|3:0,0:0:0:0:
0,192,166095,1,2,3:0:0:0:
512,384,166245,2,0,B|409:384|409:384|277:293|277:293|171:293,1,359.999990463257,8|2,0:0|3:0,0:0:0:0:
0,192,166695,1,0,1:0:0:0:
303,96,166845,5,10,3:3:0:0:
303,291,166995,1,0,3:0:0:0:
257,192,167145,1,0,1:0:0:0:
171,377,167295,1,2,0:0:0:0:
171,14,167445,1,8,3:2:0:0:
257,192,167595,1,0,1:0:0:0:
455,192,167745,1,0,3:2:0:0:
0,192,167895,1,2,3:0:0:0:
497,360,168045,6,0,P|492:257|403:149,1,179.999995231629,0|2,1:0|0:0,0:0:0:0:
259,0,168345,1,0,3:0:0:0:
259,0,168495,1,2,3:0:0:0:
497,360,168645,6,0,P|492:257|403:149,1,179.999995231629,10|2,0:0|3:0,0:0:0:0:
15,360,168945,2,0,P|20:257|109:149,1,179.999995231629,2|0,3:2|1:0,0:0:0:0:
256,0,169245,2,0,L|256:192,2,179.999995231629,2|0|0,0:0|0:0|1:0,0:0:0:0:
256,384,169695,1,2,0:0:0:0:
174,211,169845,1,8,0:0:0:0:
393,61,169995,1,0,1:0:0:0:
155,384,170145,2,0,P|185:295|156:175,1,179.999995231629,2|2,3:0|3:0,0:0:0:0:
155,384,170445,6,0,P|75:254|144:34,1,359.999990463257,4|2,1:0|3:0,0:0:0:0:
256,0,170895,1,0,3:0:0:0:
339,211,171045,1,8,0:0:0:0:
120,61,171195,1,0,0:0:0:0:
357,384,171345,2,0,P|327:295|356:175,1,179.999995231629,2|0,3:2|1:0,0:0:0:0:
357,384,171645,6,0,P|437:254|368:34,1,359.999990463257,4|0,0:0|1:0,0:0:0:0:
256,0,172095,1,2,3:0:0:0:
220,210,172245,5,8,0:0:0:0:
290,168,172395,1,0,1:0:0:0:
315,292,172545,1,2,3:0:0:0:
191,84,172695,1,2,3:0:0:0:
44,259,172845,6,0,P|39:303|16:341,1,89.9999976158143,6|0,1:2|0:0,0:0:0:0:
155,340,173145,2,0,P|150:274|113:218,1,135.000001573563,2|0,3:2|3:0,0:0:0:0:
112,136,173445,2,0,P|203:178|260:261,1,202.500002360344,10|0,0:0|0:0,0:0:0:0:
309,105,173745,2,0,P|187:50|56:73,1,270.000003147125,2|0,3:2|1:0,0:0:0:0:
155,340,174045,1,2,0:0:0:0:
56,91,174195,6,0,L|56:73,1,17.9999995231628,0|2,1:0|3:0,0:0:0:0:
56,73,174645,6,0,P|187:51|309:106,1,270.000003147125,12|8,1:2|1:2,0:0:0:0:
468,259,174945,6,0,P|473:303|496:341,1,89.9999976158143,4|0,1:0|0:0,0:0:0:0:
357,340,175245,2,0,P|361:274|398:218,1,135.000001573563,2|0,3:2|3:0,0:0:0:0:
399,135,175545,2,0,P|308:177|251:260,1,202.500002360344,10|2,0:0|3:0,0:0:0:0:
203,105,175845,2,0,P|324:50|455:73,1,270.000003147125,2|0,3:2|1:0,0:0:0:0:
357,340,176145,1,2,0:0:0:0:
456,91,176295,6,0,L|456:73,1,17.9999995231628,0|2,1:0|3:0,0:0:0:0:
456,73,176745,6,0,P|325:51|203:106,1,270.000003147125,12|8,1:2|1:2,0:0:0:0:
44,259,177045,6,0,P|39:303|16:341,1,89.9999976158143,4|0,1:0|0:0,0:0:0:0:
155,340,177345,2,0,P|150:274|113:218,1,135.000001573563,2|0,3:2|3:0,0:0:0:0:
112,135,177645,2,0,P|203:177|260:260,1,202.500002360344,10|0,0:0|0:0,0:0:0:0:
309,105,177945,2,0,P|187:50|56:73,1,270.000003147125,2|0,0:2|0:0,0:0:0:0:
255,384,178245,1,0,0:0:0:0:
256,310,178395,6,0,L|256:292,1,17.9999995231628,0|0,0:0|0:0,0:0:0:0:
