osu file format v14

[General]
AudioFilename: audio.mp3
AudioLeadIn: 0
PreviewTime: 31801
Countdown: 0
SampleSet: Soft
StackLeniency: 0.7
Mode: 0
LetterboxInBreaks: 0
WidescreenStoryboard: 1

[Editor]
Bookmarks: 31775,47135,62495
DistanceSpacing: 0.8
BeatDivisor: 4
GridSize: 8
TimelineZoom: 1

[Metadata]
Title:The Piano
TitleUnicode:The Piano
Artist:Thomas Bergersen
ArtistUnicode:Thomas Bergersen
Creator:octagonal
Version:Easy
Source:Dancing Line
Tags:empire of angels sun orchestral cheetah mobile
BeatmapID:1540317
BeatmapSetID:718299

[Difficulty]
HPDrainRate:3
CircleSize:2
OverallDifficulty:2
ApproachRate:4
SliderMultiplier:1.2
SliderTickRate:1

[Events]
//Background and Video events
0,0,"Vintage Piano_UHD.jpg",0,0
//Break Periods
//Storyboard Layer 0 (Background)
//Storyboard Layer 1 (Fail)
//Storyboard Layer 2 (Pass)
//Storyboard Layer 3 (Foreground)
//Storyboard Sound Samples

[TimingPoints]
1079,479.884827641366,4,2,0,65,1,0
1079,-125,4,2,0,65,0,0
31801,479.884827641366,4,1,0,75,1,0
31801,-125,4,1,0,75,0,0
62513,-166.666666666667,4,2,0,65,0,0
73070,530.973451327434,4,2,0,65,1,0
74342,612.244897959184,4,2,0,65,1,0
76178,821.917808219178,4,2,0,50,1,0
77636,1000,4,2,0,40,1,0

[Colours]
Combo1 : 255,192,0
Combo2 : 255,185,100

[HitObjects]
360,104,1079,6,0,P|267:82|174:101,1,192
152,296,2998,2,0,P|244:317|352:296,1,192
400,120,4918,1,0,0:0:0:0:
208,104,5877,1,0,0:0:0:0:
136,168,6357,1,0,0:0:0:0:
207,232,6837,2,0,P|122:265|48:210,1,192
192,88,8757,6,0,P|284:66|377:85,1,192
448,264,10676,2,0,P|355:285|262:266,1,192
144,112,12596,1,0,0:0:0:0:
216,176,13076,2,0,P|262:155|312:152,2,96
168,256,14515,2,0,P|124:160|170:95,1,192
257,312,16435,6,0,P|302:324|349:315,2,96
256,120,18354,2,0,P|207:111|164:123,2,96
400,248,20274,1,0,0:0:0:0:
304,80,21234,1,0,0:0:0:0:
232,144,21714,1,0,0:0:0:0:
168,72,22193,2,0,P|131:153|186:233,1,192
352,320,24113,6,0,P|398:332|445:323,2,96
352,127,26032,2,0,P|303:118|260:130,2,96
328,320,27952,2,0,P|244:348|138:322,1,192
72,264,29392,1,0,0:0:0:0:
144,200,29872,2,0,P|224:158|232:56,1,192
168,288,31801,6,0,L|280:264,1,96,4|0,0:0|0:0,0:0:0:0:
360,248,32760,1,0,0:0:0:0:
296,176,33240,1,0,0:0:0:0:
232,248,33720,2,0,P|192:168|224:112,1,144
248,88,34680,1,0,0:0:0:0:
328,144,35160,1,0,0:0:0:0:
408,88,35640,6,0,P|422:171|379:230,1,144
360,248,36599,1,0,0:0:0:0:
280,192,37079,1,0,0:0:0:0:
208,256,37559,2,0,P|184:152|256:96,1,192
392,216,39479,6,0,L|288:192,1,96,4|0,0:0|0:0,0:0:0:0:
208,168,40438,1,0,0:0:0:0:
280,104,40918,1,0,0:0:0:0:
192,72,41398,2,0,P|123:121|110:186,1,144
120,224,42358,1,0,0:0:0:0:
168,304,42838,1,0,0:0:0:0:
216,224,43318,6,0,P|293:221|305:147,1,144
289,124,44278,2,0,P|221:123|195:186,1,144
216,224,45237,2,0,P|293:221|305:147,1,144
289,124,46197,1,4,0:0:0:0:
221,56,46677,1,4,0:0:0:0:
153,123,47157,5,12,0:0:0:0:
220,190,47637,1,0,0:0:0:0:
287,122,48117,2,0,P|316:171|311:220,1,96
264,288,49076,2,0,P|190:289|127:249,1,144
96,216,50036,1,0,0:0:0:0:
176,160,50516,1,0,0:0:0:0:
248,224,50996,6,0,P|294:286|362:253,1,144
371,226,51956,2,0,P|332:169|266:185,1,144
248,224,52915,2,0,P|294:286|362:253,1,144
371,226,53875,1,0,0:0:0:0:
304,160,54355,1,0,0:0:0:0:
376,95,54835,6,0,P|327:66|280:66,1,96,4|0,0:0|0:0,0:0:0:0:
198,96,55795,1,0,0:0:0:0:
256,176,56275,1,0,0:0:0:0:
192,248,56755,2,0,P|263:275|333:238,1,144
352,216,57714,1,0,0:0:0:0:
280,152,58194,1,0,0:0:0:0:
360,96,58674,6,0,P|297:55|190:113,1,192
144,176,60114,1,0,0:0:0:0:
168,272,60594,2,0,P|248:316|336:272,1,192
280,112,62513,6,0,P|240:144|257:232,1,143.999995605469
360,272,64433,2,0,P|290:331|229:339,1,143.999995605469
136,288,66352,2,0,P|102:224|128:152,1,143.999995605469
223,103,68272,2,0,P|165:55|83:50,1,143.999995605469
120,160,70191,6,0,P|127:229|192:272,1,143.999995605469
296,248,72111,2,0,P|289:179|224:136,1,143.999995605469
256,192,74342,12,0,76588,0:0:0:0:
256,192,77636,12,0,80636,0:0:0:0:
