osu file format v14

[General]
AudioFilename: Thomas Bergersen - Creation of Earth (Sun).mp3
AudioLeadIn: 0
PreviewTime: 228503
Countdown: 0
SampleSet: None
StackLeniency: 0.5
Mode: 0
LetterboxInBreaks: 1
EpilepsyWarning: 1
WidescreenStoryboard: 0

[Editor]
Bookmarks: 47503,57169,58503,60503,67169,68503,76503,84503,91753,92503,124503,127503,156503,172503,188503,204503,220503,228503,236503,237003,237503,237836,238169,238503,238669,239003,239336,239836,240169,240503,241003,241503,241836,242169,245503,245836,246169,246503,246669,247003,247336,247503,247836,248169,248503,249003,249336,250503,250669,251003,251336,251503,255003,255336,255503,257002,257502,257836,258169,262503,262669,263003,263253,263419,264503,264836,265169,265336,265503,265753,266086,266253,266419,266503,266586,266753,273503,273836,274169,274503,284169,299503,299836,300003,300503,309669,310503,310586,313503
DistanceSpacing: 1.3
BeatDivisor: 3
GridSize: 4
TimelineZoom: 1.2

[Metadata]
Title:Creation of Earth
TitleUnicode:Creation of Earth
Artist:Thomas Bergersen
ArtistUnicode:Thomas Bergersen
Creator:Flanchan
Version:Extra
Source:
Tags:Sun Two Steps from Hell
BeatmapID:805767
BeatmapSetID:367377

[Difficulty]
HPDrainRate:7
CircleSize:4
OverallDifficulty:8
ApproachRate:9.2
SliderMultiplier:1.4
SliderTickRate:1

[Events]
//Background and Video events
0,0,"galaxy-wallpaper-1.jpg",0,0
//Break Periods
2,95703,107933
2,224703,227099
//Storyboard Layer 0 (Background)
//Storyboard Layer 1 (Fail)
//Storyboard Layer 2 (Pass)
//Storyboard Layer 3 (Foreground)
//Storyboard Sound Samples

[TimingPoints]
503,250,4,1,0,100,1,0
503,-133.333333333333,4,2,0,12,0,0
60503,-100,4,1,0,30,0,0
94503,-100,4,2,0,12,0,0
108503,-100,4,2,0,30,0,0
124503,-133.333333333333,4,3,1,20,0,0
125503,-133.333333333333,4,3,1,10,0,0
126503,-133.333333333333,4,3,1,8,0,0
127503,-133.333333333333,4,3,1,5,0,0
156503,-133.333333333333,4,1,0,8,0,0
156669,-133.333333333333,4,3,1,8,0,0
172503,-133.333333333333,4,1,0,10,0,0
172669,-133.333333333333,4,2,0,10,0,0
188503,-133.333333333333,4,1,0,20,0,0
188669,-133.333333333333,4,2,0,20,0,0
204503,-133.333333333333,4,1,0,20,0,0
204669,-133.333333333333,4,2,0,30,0,0
221503,-133.333333333333,4,2,0,12,0,0
222503,-133.333333333333,4,2,0,9,0,0
223503,-133.333333333333,4,2,0,6,0,0
224503,-133.333333333333,4,2,0,5,0,0
227836,-133.333333333333,4,1,0,10,0,0
228003,-133.333333333333,4,1,0,20,0,0
228169,-133.333333333333,4,1,0,40,0,0
228336,-133.333333333333,4,1,0,80,0,0
228503,-100,4,2,1,100,0,1
228836,-100,4,2,2,100,0,1
244503,-100,4,2,1,100,0,1
244836,-100,4,2,2,100,0,1
260502,-100,4,2,1,100,0,0
260836,-100,4,2,2,100,0,0
292503,-133.333333333333,4,1,0,100,0,0
292836,-133.333333333333,4,2,2,100,0,0
301003,-133.333333333333,4,2,2,75,0,0
301503,-133.333333333333,4,2,2,50,0,0
302003,-133.333333333333,4,2,2,25,0,0
302419,-133.333333333333,4,2,2,5,0,0
302503,-100,4,1,0,100,0,1
302669,-100,4,1,0,100,0,1
310336,-133.333333333333,4,1,0,100,0,1
310586,-100,4,1,0,100,0,0
311503,-100,4,1,0,67,0,0
312503,-100,4,1,0,33,0,0
313503,-100,4,1,0,5,0,0

[Colours]
Combo1 : 192,192,192
Combo2 : 128,128,255

[HitObjects]
212,228,503,5,0,0:0:0:0:
212,228,1503,5,0,0:0:0:0:
212,228,2503,5,0,0:0:0:0:
212,228,3503,5,0,0:0:0:0:
212,228,4503,6,0,P|196:192|164:164,1,70.0000026702882
128,120,4836,1,0,0:0:0:0:
176,68,5003,1,0,0:0:0:0:
240,96,5169,1,0,0:0:0:0:
308,80,5336,1,2,0:0:0:0:
376,64,5503,6,0,P|420:72|460:104,1,70.0000026702882
444,156,5836,1,0,0:0:0:0:
392,200,6003,1,0,0:0:0:0:
324,196,6169,1,0,0:0:0:0:
292,132,6336,1,2,0:0:0:0:
236,92,6503,6,0,P|184:68|144:76,2,70.0000026702882
272,200,7003,1,0,0:0:0:0:
212,296,7169,2,0,P|168:296|128:260,1,70.0000026702882,0|2,0:0|0:0,0:0:0:0:
116,220,7503,6,0,L|80:144,1,70.0000026702882
108,90,7836,1,0,0:0:0:0:
156,39,8003,1,0,0:0:0:0:
225,24,8169,1,0,0:0:0:0:
244,91,8336,1,2,0:0:0:0:
312,92,8503,6,0,L|376:140,2,70.0000026702882
200,292,9003,2,0,L|136:244,2,70.0000026702882,0|0|2,0:0|0:0|0:0,0:0:0:0:
268,272,9503,5,0,0:0:0:0:
332,240,9669,1,0,0:0:0:0:
360,176,9836,2,0,P|364:112|352:88,1,70.0000026702882
296,80,10169,1,0,0:0:0:0:
296,80,10336,1,2,0:0:0:0:
228,104,10503,6,0,P|184:128|156:128,1,70.0000026702882
128,72,10836,1,0,0:0:0:0:
172,192,11003,1,0,0:0:0:0:
136,320,11169,1,0,0:0:0:0:
256,276,11336,1,2,0:0:0:0:
348,276,11503,6,0,P|388:236|416:224,2,70.0000026702882
256,192,12003,1,0,0:0:0:0:
164,276,12169,2,0,P|124:236|96:224,1,70.0000026702882,0|2,0:0|0:0,0:0:0:0:
48,120,12503,5,0,0:0:0:0:
160,40,12669,2,0,L|240:16,1,70.0000026702882
80,192,13003,1,0,0:0:0:0:
192,112,13169,2,0,L|272:88,1,70.0000026702882,0|2,0:0|0:0,0:0:0:0:
400,192,13503,5,0,0:0:0:0:
256,216,13669,2,0,L|256:304,1,70.0000026702882
112,192,14003,1,0,0:0:0:0:
256,216,14169,2,0,L|256:128,1,70.0000026702882,0|2,0:0|0:0,0:0:0:0:
256,146,14503,5,0,0:0:0:0:
309,55,14669,1,0,0:0:0:0:
204,55,14836,1,0,0:0:0:0:
344,176,15003,2,0,B|368:206|368:206|416:218,1,70.0000026702882
168,176,15336,2,0,B|144:206|144:206|96:218,1,70.0000026702882,2|0,0:0|0:0,0:0:0:0:
68,152,15669,5,0,0:0:0:0:
184,254,15836,2,0,L|248:294,1,70.0000026702882
184,110,16169,2,0,L|248:70,1,70.0000026702882,0|2,0:0|0:0,0:0:0:0:
184,108,16503,6,0,P|152:144|140:184,2,70.0000026702882
328,108,17003,2,0,P|360:144|372:184,2,70.0000026702882,0|0|2,0:0|0:0|0:0,0:0:0:0:
272,184,17503,5,0,0:0:0:0:
204,200,17669,1,0,0:0:0:0:
144,164,17836,1,0,0:0:0:0:
265,208,18003,1,0,0:0:0:0:
195,210,18169,1,0,0:0:0:0:
143,163,18336,1,2,0:0:0:0:
152,92,18503,5,0,0:0:0:0:
152,92,18669,1,0,0:0:0:0:
72,272,18836,1,2,0:0:0:0:
72,272,19003,1,2,0:0:0:0:
44,208,19169,1,0,0:0:0:0:
180,272,19336,1,2,0:0:0:0:
220,216,19503,6,0,P|252:172|284:168,2,70.0000026702882
244,348,20003,1,2,0:0:0:0:
220,216,20169,1,2,0:0:0:0:
244,348,20336,1,0,0:0:0:0:
360,332,20503,5,12,0:0:0:0:
436,224,20669,1,2,0:0:0:0:
416,92,20836,1,2,0:0:0:0:
312,176,21002,1,0,0:0:0:0:
240,64,21169,1,2,0:0:0:0:
108,80,21335,1,0,0:0:0:0:
116,212,21503,6,0,P|144:268|104:352,1,140.000005340576,4|0,0:0|0:0,0:0:0:0:
56,276,22003,2,0,P|40:228|28:180,2,70.0000026702882,0|2|2,0:0|0:0|0:0,0:0:0:0:
120,337,22503,6,0,P|204:361|256:325,1,140.000005340576,4|0,0:0|0:0,0:0:0:0:
192,216,23003,1,0,0:0:0:0:
136,96,23169,1,2,0:0:0:0:
136,96,23336,1,2,0:0:0:0:
200,132,23503,6,0,P|232:176|212:256,1,140.000005340576,4|0,0:0|0:0,0:0:0:0:
150,200,24003,1,0,0:0:0:0:
88,328,24169,1,2,0:0:0:0:
88,328,24336,1,2,0:0:0:0:
62,262,24503,6,0,P|38:218|70:110,1,140.000005340576,4|2,0:0|0:0,0:0:0:0:
66,63,25003,1,0,0:0:0:0:
135,61,25169,1,2,0:0:0:0:
185,109,25336,1,2,0:0:0:0:
180,176,25503,6,0,L|136:248,1,70.0000026702882,4|0,0:0|0:0,0:0:0:0:
332,208,25836,2,0,L|376:136,1,70.0000026702882
320,96,26169,1,2,0:0:0:0:
320,96,26336,1,2,0:0:0:0:
176,264,26503,6,0,P|204:312|240:320,1,70.0000026702882,4|0,0:0|0:0,0:0:0:0:
352,296,26836,1,0,0:0:0:0:
214,317,27003,1,0,0:0:0:0:
80,296,27169,1,2,0:0:0:0:
80,296,27336,1,2,0:0:0:0:
108,232,27503,6,0,P|128:180|96:92,1,140.000005340576,4|0,0:0|0:0,0:0:0:0:
40,124,28003,1,0,0:0:0:0:
173,84,28169,1,2,0:0:0:0:
173,84,28336,1,2,0:0:0:0:
232,120,28503,6,0,P|293:150|361:138,2,140.000005340576,4|0|2,0:0|0:0|0:0,0:0:0:0:
361,137,29336,1,2,0:0:0:0:
152,124,29503,1,4,0:0:0:0:
172,220,29669,1,0,0:0:0:0:
192,316,29836,1,0,0:0:0:0:
320,316,30003,1,0,0:0:0:0:
340,220,30170,1,2,0:0:0:0:
360,124,30336,1,2,0:0:0:0:
422,150,30503,6,0,P|382:126|330:130,1,70.0000026702882,4|0,0:0|0:0,0:0:0:0:
229,129,30836,2,0,P|257:149|292:156,1,70.0000026702882
348,48,31169,1,2,0:0:0:0:
348,48,31336,1,2,0:0:0:0:
164,40,31503,6,0,B|132:48|100:92,1,70.0000026702882,4|0,0:0|0:0,0:0:0:0:
96,144,31836,1,0,0:0:0:0:
96,144,32002,1,0,0:0:0:0:
116,284,32169,1,2,0:0:0:0:
116,284,32336,1,2,0:0:0:0:
240,320,32502,5,4,0:0:0:0:
172,328,32669,1,0,0:0:0:0:
216,184,32836,2,0,L|288:168,1,70.0000026702882
272,280,33169,2,2,L|203:295,1,70.0000026702882
120,216,33503,6,0,P|84:188|40:188,2,70.0000026702882,4|0|0,0:0|0:0|0:0,0:0:0:0:
156,156,34003,1,0,0:0:0:0:
208,112,34169,2,0,P|256:96|292:104,2,70.0000026702882,2|2|4,0:0|0:0|0:0,0:0:0:0:
148,76,34669,5,0,0:0:0:0:
80,84,34836,1,0,0:0:0:0:
140,176,35003,1,0,0:0:0:0:
208,168,35170,1,2,0:0:0:0:
172,104,35336,1,2,0:0:0:0:
104,112,35503,5,4,0:0:0:0:
164,204,35670,1,0,0:0:0:0:
232,196,35837,1,0,0:0:0:0:
256,88,36003,1,0,0:0:0:0:
224,212,36169,1,2,0:0:0:0:
256,88,36336,1,2,0:0:0:0:
324,112,36503,6,0,P|368:128|396:164,1,70.0000026702882,4|0,0:0|0:0,0:0:0:0:
188,272,36836,2,0,P|144:256|116:220,1,70.0000026702882
200,188,37169,1,2,0:0:0:0:
312,188,37336,1,2,0:0:0:0:
364,260,37503,6,0,L|312:324,1,70.0000026702882,4|0,0:0|0:0,0:0:0:0:
192,314,37836,2,0,L|148:260,1,70.0000026702882
172,192,38169,1,2,0:0:0:0:
340,192,38336,1,2,0:0:0:0:
256,108,38503,5,4,0:0:0:0:
256,276,38670,1,0,0:0:0:0:
315,132,38836,1,0,0:0:0:0:
196,251,39003,1,0,0:0:0:0:
196,132,39169,1,2,0:0:0:0:
315,251,39336,1,2,0:0:0:0:
360,304,39503,6,0,P|396:328|424:332,1,70.0000026702882,4|0,0:0|0:0,0:0:0:0:
152,304,39836,2,0,P|116:328|88:332,1,70.0000026702882
36,204,40169,1,2,0:0:0:0:
36,204,40336,1,2,0:0:0:0:
75,129,40503,6,0,P|123:85|195:94,1,140.000005340576,4|0,0:0|0:0,0:0:0:0:
148,160,41003,1,0,0:0:0:0:
231,25,41169,1,2,0:0:0:0:
231,25,41336,1,2,0:0:0:0:
148,160,41503,6,0,B|117:205|148:240|102:291,1,140.000005340576,4|0,0:0|0:0,0:0:0:0:
44,252,42003,1,0,0:0:0:0:
216,188,42169,1,2,0:0:0:0:
44,252,42336,1,2,0:0:0:0:
103,289,42503,6,0,B|159:309|159:309|167:321|179:305|179:305|215:273|239:273,1,140.000005340576,4|0,0:0|0:0,0:0:0:0:
284,248,43003,1,0,0:0:0:0:
352,236,43169,1,2,0:0:0:0:
420,248,43336,1,2,0:0:0:0:
476,288,43503,6,0,L|492:200,1,70.0000026702882
428,184,43836,2,0,L|444:96,1,70.0000026702882
184,88,44169,2,0,L|168:176,1,70.0000026702882
116,200,44503,6,0,P|140:240|144:284,2,70.0000026702882,4|0|0,0:0|0:0|0:0,0:0:0:0:
76,144,45003,1,0,0:0:0:0:
60,76,45169,1,2,0:0:0:0:
60,76,45336,1,2,0:0:0:0:
128,60,45503,6,0,B|200:44|200:96|268:56,1,140.000005340576,4|0,0:0|0:0,0:0:0:0:
128,60,46003,1,0,0:0:0:0:
263,58,46169,1,2,0:0:0:0:
196,60,46336,1,2,0:0:0:0:
176,160,46503,6,0,B|248:144|248:196|316:156,1,140.000005340576,4|0,0:0|0:0,0:0:0:0:
176,160,47003,1,0,0:0:0:0:
311,158,47169,1,2,0:0:0:0:
244,160,47336,1,2,0:0:0:0:
232,260,47503,6,0,B|304:244|304:296|372:256,1,140.000005340576,4|0,0:0|0:0,0:0:0:0:
232,260,48003,1,0,0:0:0:0:
367,258,48169,1,2,0:0:0:0:
300,260,48336,1,2,0:0:0:0:
232,260,48503,6,0,L|172:204,1,70.0000026702882,4|0,0:0|0:0,0:0:0:0:
367,258,48836,2,0,L|427:314,1,70.0000026702882
298,191,49169,2,2,L|354:131,1,70.0000026702882
300,326,49502,2,0,L|244:386,1,70.0000026702882,4|0,0:0|0:0,0:0:0:0:
196,332,49836,1,0,0:0:0:0:
152,276,50003,1,0,0:0:0:0:
88,252,50169,1,2,0:0:0:0:
88,252,50336,1,2,0:0:0:0:
68,184,50503,6,0,P|72:136|156:80,1,140.000005340576,4|0,0:0|0:0,0:0:0:0:
191,193,51003,1,0,0:0:0:0:
68,184,51169,1,2,0:0:0:0:
139,81,51336,1,2,0:0:0:0:
191,193,51503,6,0,P|147:213|56:168,1,140.000005340576,4|0,0:0|0:0,0:0:0:0:
137,81,52003,1,0,0:0:0:0:
191,193,52169,1,2,0:0:0:0:
66,183,52336,1,2,0:0:0:0:
224,32,52503,5,0,0:0:0:0:
268,104,52669,1,0,0:0:0:0:
184,176,52836,1,0,0:0:0:0:
140,248,53002,1,0,0:0:0:0:
312,260,53169,1,2,0:0:0:0:
356,188,53335,1,2,0:0:0:0:
300,144,53503,6,0,L|360:192,1,70.0000026702882,4|0,0:0|0:0,0:0:0:0:
138,274,53836,2,0,L|78:226,1,70.0000026702882
216,208,54169,1,2,0:0:0:0:
216,208,54336,1,2,0:0:0:0:
153,128,54503,6,0,P|196:84|232:76,1,70.0000026702882,4|0,0:0|0:0,0:0:0:0:
309,81,54836,2,0,P|338:99|359:128,1,70.0000026702882
256,236,55169,1,2,0:0:0:0:
256,236,55336,1,2,0:0:0:0:
192,276,55503,2,0,P|164:308|132:320,2,70.0000026702882,4|0|0,0:0|0:0|0:0,0:0:0:0:
320,276,56003,2,0,P|348:308|380:320,2,70.0000026702882,0|2|2,0:0|0:0|0:0,0:0:0:0:
256,236,56503,6,0,B|296:169|219:171|256:96,1,140.000005340576,4|0,0:0|0:0,0:0:0:0:
320,84,57003,1,0,0:0:0:0:
192,84,57169,1,2,0:0:0:0:
256,20,57336,1,2,0:0:0:0:
352,24,57503,6,0,P|388:40|408:76,1,70.0000026702882,4|0,0:0|0:0,0:0:0:0:
160,24,57836,2,0,P|124:40|104:76,1,70.0000026702882
144,124,58169,1,2,0:0:0:0:
144,124,58336,1,2,0:0:0:0:
256,192,58503,12,0,60503,0:0:0:0:
204,256,61503,6,0,P|148:248|104:128,1,186.666666666667,4|0,0:0|0:0,0:0:0:0:
168,48,62003,1,0,0:0:0:0:
268,128,62169,1,0,0:0:0:0:
156,40,62336,1,0,0:0:0:0:
268,128,62503,2,0,B|268:184|400:184|400:244,1,186.666666666667
244,336,63169,1,0,0:0:0:0:
84,236,63503,6,0,B|92:176|40:168|124:88|124:88|152:88|172:116,1,186.666666666667,4|0,0:0|0:0,0:0:0:0:
236,72,64002,1,0,0:0:0:0:
328,72,64169,2,0,L|380:160,1,93.3333333333333
340,240,64502,6,0,P|280:288|168:276,1,186.666666666667
104,220,65002,1,0,0:0:0:0:
40,44,65169,1,0,0:0:0:0:
40,44,65336,1,0,0:0:0:0:
128,48,65503,6,0,B|208:48|208:128|304:128,1,186.666666666667
128,48,66003,1,0,0:0:0:0:
291,127,66169,2,0,P|292:204|312:244,1,93.3333333333333
376,300,66503,6,0,L|464:340,2,93.3333333333333
328,220,67003,1,0,0:0:0:0:
240,248,67169,2,0,L|152:288,1,93.3333333333333
76,240,67503,2,8,P|36:176|88:56,2,186.666666666667
87,257,68253,1,0,0:0:0:0:
99,276,68336,1,0,0:0:0:0:
111,295,68419,1,0,0:0:0:0:
123,314,68503,5,0,0:0:0:0:
212,340,68669,1,0,0:0:0:0:
282,278,68836,1,0,0:0:0:0:
357,333,69003,2,0,P|414:347|453:337,2,93.3333333333333
282,278,69503,2,0,P|312:215|428:183,1,186.666666666667
406,87,70003,2,0,L|440:43,2,46.6666666666667
318,54,70336,1,0,0:0:0:0:
244,112,70503,6,8,B|216:156|184:136|176:192|176:192|124:188|116:136,1,186.666666666667
24,152,71003,1,0,0:0:0:0:
118,148,71169,2,0,P|156:108|168:72,1,93.3333333333333
184,264,71503,6,0,L|276:320,2,93.3333333333333,8|0|8,0:0|0:0|0:0,0:0:0:0:
92,256,72003,1,0,0:0:0:0:
92,256,72169,2,0,P|56:300|8:324,1,93.3333333333333
64,72,72503,6,0,B|44:156|44:156|123:216,1,186.666666666667,8|0,0:0|0:0,0:0:0:0:
212,188,73003,1,0,0:0:0:0:
284,128,73169,1,0,0:0:0:0:
292,80,73253,1,0,0:0:0:0:
288,32,73336,1,0,0:0:0:0:
196,48,73503,6,8,B|112:48|112:128|32:128,3,186.666666666667,8|8|0|8,0:0|0:0|0:0|0:0,0:0:0:0:
336,232,74836,5,0,0:0:0:0:
256,184,75003,1,0,0:0:0:0:
256,184,75169,1,0,0:0:0:0:
212,104,75335,1,0,0:0:0:0:
168,88,75419,1,0,0:0:0:0:
124,80,75503,6,8,B|48:68|48:72|48:72|36:124|96:180,1,186.666666666667
128,284,76003,1,0,0:0:0:0:
240,328,76169,1,8,0:0:0:0:
372,260,76336,1,8,0:0:0:0:
360,96,76503,5,12,0:0:0:0:
272,60,76669,1,0,0:0:0:0:
184,96,76836,1,0,0:0:0:0:
92,100,77003,1,0,0:0:0:0:
92,100,77169,1,0,0:0:0:0:
60,188,77336,1,0,0:0:0:0:
60,280,77503,6,0,P|92:328|188:272,1,186.666666666667,4|0,0:0|0:0,0:0:0:0:
124,208,78003,1,0,0:0:0:0:
264,132,78169,1,0,0:0:0:0:
216,56,78336,1,0,0:0:0:0:
72,140,78503,6,0,P|64:88|24:32,2,93.3333333333333
96,300,79003,1,0,0:0:0:0:
96,300,79086,1,0,0:0:0:0:
96,300,79169,1,0,0:0:0:0:
240,320,79336,1,0,0:0:0:0:
240,320,79419,1,0,0:0:0:0:
240,320,79503,6,0,B|336:340|336:340|452:328,1,186.666666666667,4|0,0:0|0:0,0:0:0:0:
436,240,80003,1,0,0:0:0:0:
392,160,80169,1,0,0:0:0:0:
420,72,80336,1,0,0:0:0:0:
328,80,80503,6,0,P|268:64|216:80,1,93.3333333333333
148,58,80836,2,0,P|208:74|260:58,1,93.3333333333333
228,160,81169,1,0,0:0:0:0:
296,228,81336,1,0,0:0:0:0:
216,284,81503,6,0,P|128:268|68:184,1,186.666666666667,4|0,0:0|0:0,0:0:0:0:
88,104,82003,1,0,0:0:0:0:
64,292,82169,1,0,0:0:0:0:
144,340,82336,1,0,0:0:0:0:
236,352,82503,6,0,P|304:328|328:288,1,93.3333333333333
312,220,82836,1,0,0:0:0:0:
312,220,83003,1,0,0:0:0:0:
188,80,83169,1,0,0:0:0:0:
188,80,83336,1,0,0:0:0:0:
188,80,83503,6,0,L|316:228,1,186.666666666667,4|0,0:0|0:0,0:0:0:0:
188,80,84003,1,0,0:0:0:0:
310,221,84169,1,0,0:0:0:0:
220,236,84336,1,0,0:0:0:0:
276,60,84503,5,8,0:0:0:0:
364,84,84669,1,0,0:0:0:0:
404,108,84753,1,0,0:0:0:0:
432,144,84836,1,0,0:0:0:0:
340,156,85003,1,0,0:0:0:0:
248,168,85169,2,0,P|192:140|160:96,1,93.3333333333333
84,84,85503,6,0,L|24:48,2,46.6666666666667,4|0|0,0:0|0:0|0:0,0:0:0:0:
104,164,85836,2,0,P|128:216|248:276,2,186.666666666667,0|0|4,0:0|0:0|0:0,0:0:0:0:
172,100,86669,1,0,0:0:0:0:
104,164,86836,5,0,0:0:0:0:
80,204,86919,1,0,0:0:0:0:
68,248,87003,1,0,0:0:0:0:
204,332,87169,1,0,0:0:0:0:
376,324,87336,1,0,0:0:0:0:
452,196,87503,6,0,P|429:155|433:109,1,93.3333333333333,4|0,0:0|0:0,0:0:0:0:
284,224,87836,2,0,P|308:276|300:316,1,93.3333333333333
244,96,88169,1,0,0:0:0:0:
122,65,88336,1,0,0:0:0:0:
122,65,88503,6,0,B|154:107|93:125|154:171|154:171|137:226|101:234,1,186.666666666667,4|0,0:0|0:0,0:0:0:0:
256,192,89003,1,0,0:0:0:0:
390,319,89169,2,0,B|358:277|419:259|358:213|358:213|375:158|411:150,2,186.666666666667,0|4|0,0:0|0:0|0:0,0:0:0:0:
152,320,90169,5,0,0:0:0:0:
84,252,90336,1,0,0:0:0:0:
48,164,90503,2,0,P|56:88|152:52,1,186.666666666667,4|0,0:0|0:0,0:0:0:0:
140,144,91003,2,0,L|224:200,1,93.3333333333333
252,284,91336,1,0,0:0:0:0:
340,320,91503,6,0,L|424:272,1,93.3333333333333,4|0,0:0|0:0,0:0:0:0:
444,184,91836,1,0,0:0:0:0:
288,256,92003,2,0,L|372:208,1,93.3333333333333,4|0,0:0|0:0,0:0:0:0:
392,120,92336,1,0,0:0:0:0:
224,48,92503,1,4,0:0:0:0:
256,192,92586,12,0,95503,0:0:0:0:
135,209,108503,5,2,0:0:0:0:
62,267,108669,1,0,0:0:0:0:
41,175,108836,2,0,P|48:116|84:80,1,93.3333333333333
160,84,109169,2,2,P|244:68|272:48,1,93.3333333333333
308,140,109503,5,0,0:0:0:0:
324,232,109669,1,0,0:0:0:0:
268,308,109836,2,0,P|224:332|172:340,2,93.3333333333333,0|0|2,0:0|0:0|0:0,0:0:0:0:
400,168,110336,1,2,0:0:0:0:
360,84,110503,6,0,P|292:48|184:120,1,186.666666666667,4|0,0:0|0:0,0:0:0:0:
108,120,111003,1,0,0:0:0:0:
188,168,111169,2,2,L|152:256,1,93.3333333333333
60,236,111503,1,0,0:0:0:0:
240,288,111669,1,0,0:0:0:0:
352,208,111836,1,0,0:0:0:0:
272,96,112003,1,0,0:0:0:0:
160,176,112169,2,2,P|139:219|190:349,1,186.666666666667
302,325,112836,5,0,0:0:0:0:
396,256,113003,1,0,0:0:0:0:
312,220,113169,2,2,P|264:196|232:160,1,93.3333333333333
188,88,113503,5,0,0:0:0:0:
96,96,113669,1,0,0:0:0:0:
200,64,113836,1,0,0:0:0:0:
81,74,114002,1,0,0:0:0:0:
136,32,114169,1,2,0:0:0:0:
146,152,114335,1,2,0:0:0:0:
96,208,114503,6,0,B|132:228|160:276|160:276|172:228|224:180,1,186.666666666667,4|0,0:0|0:0,0:0:0:0:
276,132,115003,1,0,0:0:0:0:
368,116,115169,2,2,P|424:136|464:172,1,93.3333333333333
400,236,115503,5,0,0:0:0:0:
172,128,115669,1,0,0:0:0:0:
292,288,115836,1,0,0:0:0:0:
288,80,116003,1,0,0:0:0:0:
152,288,116169,1,2,0:0:0:0:
92,216,116503,6,0,B|72:160|40:144|40:144|56:112|56:16,1,186.666666666667,6|0,0:0|0:0,0:0:0:0:
148,52,117003,1,0,0:0:0:0:
239,138,117169,1,2,0:0:0:0:
296,268,117336,1,2,0:0:0:0:
208,300,117503,6,0,P|148:312|112:336,1,93.3333333333333
304,84,117836,2,0,P|364:72|400:48,1,93.3333333333333
256,192,118169,1,2,0:0:0:0:
256,192,118336,1,2,0:0:0:0:
108,148,118503,6,0,P|152:108|152:48,1,93.3333333333333
404,236,118836,2,0,P|360:276|360:336,1,93.3333333333333
256,280,119169,1,2,0:0:0:0:
256,90,119336,1,2,0:0:0:0:
183,120,119503,6,0,P|267:169|330:119,1,186.666666666667,4|0,0:0|0:0,0:0:0:0:
164,82,120003,1,0,0:0:0:0:
347,82,120169,1,2,0:0:0:0:
256,216,120336,1,2,0:0:0:0:
330,190,120503,6,0,P|246:141|183:191,2,186.666666666667,4|0|2,0:0|0:0|0:0,0:0:0:0:
256,312,121336,1,2,0:0:0:0:
172,272,121503,6,0,P|120:232|80:244,1,93.3333333333333,4|0,0:0|0:0,0:0:0:0:
340,272,121836,2,0,P|392:232|432:244,1,93.3333333333333
256,192,122169,1,2,0:0:0:0:
256,100,122336,1,2,0:0:0:0:
176,52,122503,6,0,P|156:92|104:120,1,93.3333333333333,4|0,0:0|0:0,0:0:0:0:
336,52,122836,2,0,P|356:92|408:120,1,93.3333333333333
352,200,123169,1,2,0:0:0:0:
160,200,123336,1,2,0:0:0:0:
313,260,123503,1,4,0:0:0:0:
187,134,123670,1,0,0:0:0:0:
96,156,123836,6,0,P|80:200|100:248,1,93.3333333333333
248,148,124169,1,2,0:0:0:0:
248,148,124336,1,2,0:0:0:0:
177,273,124503,6,0,L|107:221,2,70.0000026702882,4|0|0,0:0|0:0|0:0,0:0:0:0:
256,224,125003,1,0,0:0:0:0:
335,273,125169,2,0,L|405:221,1,70.0000026702882,2|0,0:0|0:0,0:0:0:0:
392,160,125503,6,0,P|376:104|340:80,1,70.0000026702882
120,160,125836,2,0,P|136:104|172:80,1,70.0000026702882
204,128,126169,1,2,0:0:0:0:
308,128,126336,1,0,0:0:0:0:
300,196,126503,6,0,P|296:232|304:280,1,70.0000026702882
212,196,126836,2,0,P|216:232|208:280,1,70.0000026702882
140,144,127169,1,2,0:0:0:0:
372,144,127336,1,0,0:0:0:0:
316,64,127503,6,0,L|232:64,1,70.0000026702882
196,320,127836,2,0,L|280:320,1,70.0000026702882
316,272,128169,1,2,0:0:0:0:
272,216,128336,1,0,0:0:0:0:
340,196,128502,2,0,P|396:196|440:208,2,70.0000026702882
292,144,129002,1,0,0:0:0:0:
176,52,129169,1,2,0:0:0:0:
80,164,129336,1,0,0:0:0:0:
76,232,129502,6,0,P|96:264|148:304,2,70.0000026702882
64,88,130002,1,0,0:0:0:0:
192,160,130169,1,2,0:0:0:0:
76,232,130336,1,0,0:0:0:0:
136,112,130502,6,0,P|144:72|136:28,2,70.0000026702882
204,126,131003,1,0,0:0:0:0:
265,159,131169,1,2,0:0:0:0:
333,146,131336,1,0,0:0:0:0:
372,200,131503,6,2,L|412:280,1,70.0000026702882
273,178,131836,2,2,L|304:240,1,70.0000026702882
174,157,132169,2,2,L|214:237,1,70.0000026702882,2|0,0:0|0:0,0:0:0:0:
74,135,132503,6,0,L|114:215,2,70.0000026702882,4|0|0,0:0|0:0|0:0,0:0:0:0:
30,207,133003,1,0,0:0:0:0:
49,288,133169,1,2,0:0:0:0:
107,348,133336,1,0,0:0:0:0:
190,353,133503,6,0,P|242:369|282:361,2,70.0000026702882
196,284,134003,1,0,0:0:0:0:
180,216,134169,1,2,0:0:0:0:
132,164,134336,1,0,0:0:0:0:
64,144,134503,6,0,P|28:124|12:76,1,70.0000026702882
121,63,134836,2,0,P|157:83|173:131,1,70.0000026702882
186,201,135169,2,0,L|276:249,1,70.0000026702882,2|0,0:0|0:0,0:0:0:0:
248,328,135503,6,0,P|204:340|160:336,1,70.0000026702882
124,296,135836,1,0,0:0:0:0:
252,328,136003,1,0,0:0:0:0:
131,345,136169,1,2,0:0:0:0:
244,278,136336,1,0,0:0:0:0:
224,212,136503,6,0,P|184:156|160:144,1,70.0000026702882
116,160,136836,1,0,0:0:0:0:
248,128,137003,1,0,0:0:0:0:
166,78,137169,1,2,0:0:0:0:
198,209,137336,1,0,0:0:0:0:
264,232,137503,6,0,P|312:248|344:248,1,70.0000026702882
336,180,137836,1,0,0:0:0:0:
336,320,138003,1,0,0:0:0:0:
216,332,138169,2,0,P|170:328|136:305,1,70.0000026702882,2|0,0:0|0:0,0:0:0:0:
88,248,138503,5,0,0:0:0:0:
68,180,138669,1,0,0:0:0:0:
148,100,138836,1,0,0:0:0:0:
168,168,139002,1,0,0:0:0:0:
36,116,139169,2,0,P|48:72|68:52,1,70.0000026702882,2|0,0:0|0:0,0:0:0:0:
120,96,139503,5,2,0:0:0:0:
200,112,139669,1,2,0:0:0:0:
404,156,139836,5,2,0:0:0:0:
324,172,140002,1,2,0:0:0:0:
96,240,140169,5,2,0:0:0:0:
176,256,140335,1,0,0:0:0:0:
296,332,140503,6,0,P|336:336|408:264,1,140.000005340576,4|0,0:0|0:0,0:0:0:0:
380,208,141003,1,0,0:0:0:0:
368,140,141169,1,2,0:0:0:0:
392,72,141336,1,0,0:0:0:0:
324,84,141503,6,0,L|240:124,1,70.0000026702882
188,300,141836,2,0,L|272:260,1,70.0000026702882
204,216,142169,1,2,0:0:0:0:
308,168,142336,1,0,0:0:0:0:
202,172,142503,5,0,0:0:0:0:
309,211,142670,1,0,0:0:0:0:
194,118,142836,1,0,0:0:0:0:
317,264,143003,1,0,0:0:0:0:
288,102,143169,1,2,0:0:0:0:
223,281,143336,1,0,0:0:0:0:
152,292,143503,5,0,0:0:0:0:
56,228,143669,1,0,0:0:0:0:
60,112,143836,1,2,0:0:0:0:
56,248,144003,1,0,0:0:0:0:
112,328,144169,1,2,0:0:0:0:
212,328,144336,1,0,0:0:0:0:
260,244,144503,6,0,P|300:256|328:296,2,70.0000026702882
260,244,145003,1,0,0:0:0:0:
188,120,145169,1,2,0:0:0:0:
104,240,145336,1,0,0:0:0:0:
184,308,145503,6,0,P|208:336|248:352,2,70.0000026702882
184,176,146003,1,0,0:0:0:0:
328,112,146169,1,2,0:0:0:0:
384,256,146336,1,0,0:0:0:0:
384,256,146503,6,0,L|384:332,2,70.0000026702882
312,144,147003,1,0,0:0:0:0:
384,256,147169,1,2,0:0:0:0:
284,340,147336,1,0,0:0:0:0:
216,224,147503,6,2,B|192:236|192:236|184:248|184:248|152:264,1,70.0000026702882
32,224,147836,2,2,B|56:212|56:212|64:200|64:200|89:187,1,70.0000026702882
176,68,148169,2,2,B|152:80|152:80|144:92|144:92|112:108,1,70.0000026702882,2|0,0:0|0:0,0:0:0:0:
89,186,148503,5,4,0:0:0:0:
77,78,148669,1,0,0:0:0:0:
150,132,148836,1,0,0:0:0:0:
173,50,149003,1,0,0:0:0:0:
229,134,149169,1,2,0:0:0:0:
229,134,149336,1,0,0:0:0:0:
244,220,149503,6,0,P|224:280|204:296,2,70.0000026702882
176,224,150003,1,0,0:0:0:0:
336,160,150169,1,2,0:0:0:0:
176,224,150336,1,0,0:0:0:0:
336,160,150503,6,0,L|416:124,2,70.0000026702882
276,128,151003,1,0,0:0:0:0:
336,160,151169,1,2,0:0:0:0:
400,188,151336,1,0,0:0:0:0:
208,276,151503,6,2,P|193:304|192:356,1,70.0000026702882
108,268,151836,1,2,0:0:0:0:
189,341,152003,1,2,0:0:0:0:
165,198,152169,1,2,0:0:0:0:
189,341,152336,1,0,0:0:0:0:
112,124,152503,6,0,P|120:84|120:48,2,70.0000026702882,4|0|0,0:0|0:0|0:0,0:0:0:0:
171,160,153003,1,0,0:0:0:0:
341,224,153169,1,2,0:0:0:0:
272,308,153336,1,0,0:0:0:0:
272,308,153503,6,0,L|192:352,1,70.0000026702882
144,320,153836,1,0,0:0:0:0:
144,320,154003,1,0,0:0:0:0:
172,155,154169,1,2,0:0:0:0:
299,259,154336,1,0,0:0:0:0:
144,320,154503,6,0,P|100:332|60:332,2,70.0000026702882
172,236,155003,1,0,0:0:0:0:
212,160,155169,2,0,P|256:148|296:148,1,70.0000026702882,2|0,0:0|0:0,0:0:0:0:
206,277,155503,5,0,0:0:0:0:
206,106,155669,1,0,0:0:0:0:
355,192,155836,1,2,0:0:0:0:
305,277,156003,1,0,0:0:0:0:
305,106,156170,1,2,0:0:0:0:
156,191,156336,1,0,0:0:0:0:
104,144,156503,6,0,P|72:104|36:80,1,70.0000026702882,4|0,0:0|0:0,0:0:0:0:
44,180,156836,1,0,0:0:0:0:
64,248,157002,1,0,0:0:0:0:
192,256,157169,1,2,0:0:0:0:
64,248,157336,1,0,0:0:0:0:
208,280,157503,6,0,L|284:304,1,70.0000026702882
372,212,157836,1,0,0:0:0:0:
272,324,158003,1,0,0:0:0:0:
372,212,158169,1,2,0:0:0:0:
248,132,158336,1,0,0:0:0:0:
152,88,158503,6,0,B|139:114|139:114|139:155,1,70.0000026702882
59,306,158835,1,0,0:0:0:0:
212,229,159002,1,0,0:0:0:0:
44,202,159169,1,2,0:0:0:0:
163,322,159335,1,0,0:0:0:0:
272,324,159503,6,0,B|308:304|308:304|336:268,1,70.0000026702882
434,150,159836,1,0,0:0:0:0:
269,191,160002,1,0,0:0:0:0:
426,255,160169,1,2,0:0:0:0:
336,111,160336,1,0,0:0:0:0:
276,76,160503,6,0,B|248:96|248:96|212:92,1,70.0000026702882
212,92,160836,1,0,0:0:0:0:
144,212,161003,1,0,0:0:0:0:
144,212,161169,1,2,0:0:0:0:
224,104,161336,1,0,0:0:0:0:
124,212,161503,6,0,P|90:202|56:180,2,70.0000026702882
112,128,162003,1,0,0:0:0:0:
251,198,162169,1,2,0:0:0:0:
272,348,162336,1,0,0:0:0:0:
212,312,162503,6,0,P|176:292|136:292,2,70.0000026702882
264,264,163003,1,0,0:0:0:0:
191,136,163169,1,2,0:0:0:0:
280,272,163336,1,0,0:0:0:0:
336,172,163503,6,2,L|404:156,1,70.0000026702882
260,120,163836,2,2,L|192:136,1,70.0000026702882
280,32,164169,2,2,L|348:16,1,70.0000026702882,2|0,0:0|0:0,0:0:0:0:
460,156,164503,6,0,P|448:208|356:236,1,140.000005340576,4|0,0:0|0:0,0:0:0:0:
312,204,165003,1,0,0:0:0:0:
413,300,165169,1,2,0:0:0:0:
312,204,165336,1,0,0:0:0:0:
176,168,165503,6,0,P|140:148|112:120,1,70.0000026702882
164,76,165836,1,0,0:0:0:0:
65,173,166003,1,0,0:0:0:0:
162,270,166169,1,2,0:0:0:0:
261,173,166336,1,0,0:0:0:0:
168,104,166503,6,0,P|116:108|92:124,1,70.0000026702882
162,270,166836,1,0,0:0:0:0:
143,166,167003,1,0,0:0:0:0:
124,48,167169,1,2,0:0:0:0:
162,270,167336,1,0,0:0:0:0:
224,304,167503,5,0,0:0:0:0:
284,336,167669,1,0,0:0:0:0:
368,163,167836,1,0,0:0:0:0:
366,95,168002,1,0,0:0:0:0:
175,108,168169,1,2,0:0:0:0:
117,144,168335,1,0,0:0:0:0:
60,184,168503,6,0,P|48:224|60:280,2,70.0000026702882
116,224,169003,1,0,0:0:0:0:
180,252,169169,2,0,P|168:292|180:348,1,70.0000026702882,2|0,0:0|0:0,0:0:0:0:
248,292,169503,6,0,P|304:304|332:320,1,70.0000026702882
352,220,169836,1,0,0:0:0:0:
236,292,170003,1,0,0:0:0:0:
343,207,170169,1,2,0:0:0:0:
212,161,170336,1,0,0:0:0:0:
144,140,170503,6,0,B|104:120|104:120|88:136|72:112,1,70.0000026702882
368,140,170836,2,0,B|408:120|408:120|424:136|440:112,1,70.0000026702882
256,32,171169,1,2,0:0:0:0:
256,152,171336,1,0,0:0:0:0:
256,280,171503,5,2,0:0:0:0:
224,128,171669,1,2,0:0:0:0:
88,52,171836,5,2,0:0:0:0:
56,204,172003,1,2,0:0:0:0:
360,316,172169,5,2,0:0:0:0:
368,152,172335,1,0,0:0:0:0:
160,252,172503,6,0,P|220:288|288:260,1,140.000005340576,4|0,0:0|0:0,0:0:0:0:
300,204,173003,1,0,0:0:0:0:
176,260,173169,1,2,0:0:0:0:
300,204,173336,1,0,0:0:0:0:
300,204,173503,6,0,P|340:172|352:136,2,70.0000026702882
188,112,174003,1,0,0:0:0:0:
160,252,174169,1,2,0:0:0:0:
316,288,174336,1,0,0:0:0:0:
336,144,174503,6,0,P|380:136|424:140,2,70.0000026702882
188,112,175003,1,0,0:0:0:0:
80,168,175169,1,2,0:0:0:0:
160,252,175336,1,0,0:0:0:0:
196,320,175503,6,2,L|280:328,1,70.0000026702882
332,192,175836,2,2,L|248:184,1,70.0000026702882
228,256,176169,2,2,L|312:264,1,70.0000026702882,2|0,0:0|0:0,0:0:0:0:
420,220,176503,6,0,P|448:160|424:76,1,140.000005340576,4|0,0:0|0:0,0:0:0:0:
365,105,177003,1,0,0:0:0:0:
433,89,177169,1,2,0:0:0:0:
296,120,177336,1,0,0:0:0:0:
228,128,177503,5,0,0:0:0:0:
284,256,177669,1,0,0:0:0:0:
284,128,177836,1,0,0:0:0:0:
228,256,178002,1,0,0:0:0:0:
256,192,178169,1,2,0:0:0:0:
284,128,178336,1,0,0:0:0:0:
244,72,178503,6,0,P|200:52|168:56,1,70.0000026702882
365,241,178836,2,0,P|405:213|417:183,1,70.0000026702882
158,262,179169,2,0,P|162:310|182:336,1,70.0000026702882,2|0,0:0|0:0,0:0:0:0:
244,332,179503,6,2,L|320:332,1,70.0000026702882
348,272,179836,1,2,0:0:0:0:
348,272,180003,1,2,0:0:0:0:
276,152,180169,1,2,0:0:0:0:
276,152,180336,1,0,0:0:0:0:
212,120,180503,6,0,P|176:88|128:88,1,70.0000026702882,4|0,0:0|0:0,0:0:0:0:
108,212,180836,1,0,0:0:0:0:
152,328,181003,1,0,0:0:0:0:
96,196,181169,1,2,0:0:0:0:
212,120,181336,1,0,0:0:0:0:
364,68,181503,6,0,P|400:36|448:36,1,70.0000026702882,4|0,0:0|0:0,0:0:0:0:
404,212,181836,1,0,0:0:0:0:
360,328,182003,1,0,0:0:0:0:
416,196,182169,1,2,0:0:0:0:
364,68,182336,1,0,0:0:0:0:
292,68,182503,6,0,P|245:59|201:82,1,70.0000026702882,4|0,0:0|0:0,0:0:0:0:
336,168,182836,1,0,0:0:0:0:
248,256,183003,1,0,0:0:0:0:
216,196,183169,1,2,0:0:0:0:
216,196,183336,1,0,0:0:0:0:
156,160,183503,6,2,L|108:96,1,70.0000026702882
356,224,183836,2,2,L|404:288,1,70.0000026702882
256,192,184169,1,2,0:0:0:0:
256,192,184336,1,0,0:0:0:0:
212,116,184503,6,0,B|192:88|192:88|152:64,1,70.0000026702882,4|0,0:0|0:0,0:0:0:0:
300,116,184836,2,0,B|320:88|320:88|360:64,1,70.0000026702882
192,255,185169,1,2,0:0:0:0:
319,255,185336,1,0,0:0:0:0:
187,149,185503,5,0,0:0:0:0:
256,303,185669,1,0,0:0:0:0:
324,149,185836,1,0,0:0:0:0:
192,255,186003,1,0,0:0:0:0:
319,255,186169,1,2,0:0:0:0:
256,152,186336,1,0,0:0:0:0:
184,164,186503,6,0,P|144:212|120:216,2,70.0000026702882
132,80,187003,1,0,0:0:0:0:
184,164,187169,1,2,0:0:0:0:
160,288,187336,1,0,0:0:0:0:
220,232,187503,5,2,0:0:0:0:
244,128,187669,1,2,0:0:0:0:
376,228,187836,5,2,0:0:0:0:
352,332,188002,1,2,0:0:0:0:
88,152,188169,5,2,0:0:0:0:
112,48,188335,1,0,0:0:0:0:
224,68,188503,6,4,P|264:76|356:24,1,140.000005340576,4|0,0:0|0:0,0:0:0:0:
360,104,189003,1,0,0:0:0:0:
240,252,189169,1,2,0:0:0:0:
240,252,189336,1,2,0:0:0:0:
99,197,189503,6,0,P|67:137|63:113,2,70.0000026702882
128,64,190003,1,0,0:0:0:0:
108,224,190169,1,2,0:0:0:0:
108,224,190336,1,2,0:0:0:0:
200,320,190503,6,0,L|276:348,1,70.0000026702882
300,208,190836,1,0,0:0:0:0:
152,268,191003,1,0,0:0:0:0:
304,156,191169,1,2,0:0:0:0:
108,232,191336,1,2,0:0:0:0:
132,128,191503,6,0,L|72:72,2,70.0000026702882
380,128,192003,2,2,L|431:80,2,70.0000026702882,0|2|2,0:0|0:0|0:0,0:0:0:0:
256,192,192503,6,4,B|228:244|228:244|160:260|152:300,1,140.000005340576,4|0,0:0|0:0,0:0:0:0:
132,128,193003,1,0,0:0:0:0:
256,192,193169,1,2,0:0:0:0:
380,128,193336,1,2,0:0:0:0:
192,76,193503,6,0,P|136:56|52:104,1,140.000005340576,4|0,0:0|0:0,0:0:0:0:
56,156,194003,1,0,0:0:0:0:
256,24,194169,1,2,0:0:0:0:
256,24,194336,1,2,0:0:0:0:
192,76,194503,6,4,P|256:96|328:68,1,140.000005340576,4|0,0:0|0:0,0:0:0:0:
364,40,195003,1,0,0:0:0:0:
148,40,195169,1,2,0:0:0:0:
256,192,195336,1,2,0:0:0:0:
168,139,195503,5,2,0:0:0:0:
203,278,195669,1,0,0:0:0:0:
342,243,195836,1,2,0:0:0:0:
307,104,196003,1,2,0:0:0:0:
256,192,196169,1,2,0:0:0:0:
256,192,196336,1,0,0:0:0:0:
136,248,196503,5,4,0:0:0:0:
92,196,196669,2,0,P|64:164|32:144,2,70.0000026702882
180,100,197169,1,2,0:0:0:0:
180,100,197336,1,2,0:0:0:0:
336,168,197503,5,4,0:0:0:0:
328,236,197669,1,0,0:0:0:0:
176,216,197836,1,0,0:0:0:0:
184,148,198002,1,0,0:0:0:0:
256,192,198169,1,2,0:0:0:0:
256,192,198336,1,2,0:0:0:0:
204,236,198503,6,0,P|164:264|128:272,2,70.0000026702882,4|0|0,0:0|0:0|0:0,0:0:0:0:
308,148,199003,2,0,P|348:120|384:112,2,70.0000026702882,0|2|2,0:0|0:0|0:0,0:0:0:0:
333,303,199503,6,0,P|321:271|300:244,2,70.0000026702882,4|0|0,0:0|0:0|0:0,0:0:0:0:
178,80,200003,2,0,P|190:112|212:140,2,70.0000026702882,0|2|2,0:0|0:0|0:0,0:0:0:0:
112,104,200503,6,0,P|80:144|92:248,1,140.000005340576,4|0,0:0|0:0,0:0:0:0:
186,281,201003,1,0,0:0:0:0:
80,229,201169,1,2,0:0:0:0:
88,346,201336,1,2,0:0:0:0:
256,304,201503,6,0,P|352:264|360:224,1,140.000005340576,4|0,0:0|0:0,0:0:0:0:
312,188,202003,1,0,0:0:0:0:
424,268,202169,1,2,0:0:0:0:
296,176,202336,1,2,0:0:0:0:
160,76,202503,6,0,P|124:112|96:144,2,70.0000026702882,4|0|0,0:0|0:0|0:0,0:0:0:0:
352,76,203003,2,0,P|388:112|416:144,1,70.0000026702882,0|2,0:0|0:0,0:0:0:0:
256,160,203336,1,2,0:0:0:0:
181,216,203503,5,2,0:0:0:0:
133,289,203669,1,2,0:0:0:0:
271,114,203836,5,2,0:0:0:0:
232,37,204002,1,2,0:0:0:0:
315,244,204169,5,2,0:0:0:0:
401,249,204335,1,0,0:0:0:0:
108,208,204503,6,4,P|92:160|120:72,1,140.000005340576,4|0,0:0|0:0,0:0:0:0:
180,108,205003,1,0,0:0:0:0:
188,188,205169,1,2,0:0:0:0:
108,208,205336,1,2,0:0:0:0:
208,308,205503,6,0,P|268:288|284:256,2,70.0000026702882
96,200,206003,1,0,0:0:0:0:
224,320,206169,1,2,0:0:0:0:
224,320,206336,1,2,0:0:0:0:
332,264,206503,6,0,P|380:228|376:139,1,140.000005340576,4|0,0:0|0:0,0:0:0:0:
268,80,207003,1,0,0:0:0:0:
256,208,207169,1,0,0:0:0:0:
384,152,207336,1,0,0:0:0:0:
384,152,207419,1,0,0:0:0:0:
384,152,207503,6,2,L|328:232,1,70.0000026702882
128,232,207836,2,2,L|184:152,1,70.0000026702882
96,72,208169,1,2,0:0:0:0:
96,72,208253,1,0,0:0:0:0:
96,72,208336,1,0,0:0:0:0:
96,72,208419,1,0,0:0:0:0:
96,72,208503,6,0,B|64:152|120:128|84:216,1,140.000005340576,4|0,0:0|0:0,0:0:0:0:
28,172,209003,1,0,0:0:0:0:
148,244,209169,1,2,0:0:0:0:
240,136,209336,1,0,0:0:0:0:
148,244,209503,6,0,P|188:292|224:292,2,70.0000026702882
240,224,210003,1,0,0:0:0:0:
248,112,210169,1,2,0:0:0:0:
352,72,210336,1,0,0:0:0:0:
336,184,210503,6,0,P|316:240|296:272,2,70.0000026702882,4|0|0,0:0|0:0|0:0,0:0:0:0:
240,100,211003,1,0,0:0:0:0:
348,196,211169,1,2,0:0:0:0:
199,66,211336,1,0,0:0:0:0:
76,112,211503,5,2,0:0:0:0:
48,220,211669,1,2,0:0:0:0:
125,169,211836,5,2,0:0:0:0:
97,277,212002,1,2,0:0:0:0:
168,228,212169,5,2,0:0:0:0:
140,336,212335,1,0,0:0:0:0:
232,328,212503,6,0,B|276:332|272:308|312:328|312:328|356:320|364:272,1,140.000005340576,4|0,0:0|0:0,0:0:0:0:
312,216,213003,1,0,0:0:0:0:
340,128,213169,1,2,0:0:0:0:
264,76,213336,1,0,0:0:0:0:
184,124,213503,6,0,P|168:176|180:208,2,70.0000026702882
268,160,214003,1,0,0:0:0:0:
100,84,214169,1,2,0:0:0:0:
232,32,214336,1,0,0:0:0:0:
277,103,214503,5,4,0:0:0:0:
285,271,214669,1,0,0:0:0:0:
179,139,214836,1,0,0:0:0:0:
342,184,215003,1,0,0:0:0:0:
184,244,215169,1,2,0:0:0:0:
277,103,215336,1,0,0:0:0:0:
256,256,215503,6,2,L|320:312,1,70.0000026702882
256,256,215836,2,2,L|192:312,1,70.0000026702882
256,256,216169,2,2,L|256:176,1,70.0000026702882,2|0,0:0|0:0,0:0:0:0:
195,140,216503,6,0,P|256:113|320:144,1,140.000005340576,4|0,0:0|0:0,0:0:0:0:
176,248,217003,1,0,0:0:0:0:
336,248,217169,1,2,0:0:0:0:
176,248,217336,1,0,0:0:0:0:
336,248,217503,6,0,P|400:200|408:144,1,140.000005340576,4|0,0:0|0:0,0:0:0:0:
256,192,218003,1,0,0:0:0:0:
103,144,218169,1,2,0:0:0:0:
256,184,218336,1,0,0:0:0:0:
408,144,218503,6,0,B|408:104|400:76|400:76|344:64|316:80,1,140.000005340576,4|0,0:0|0:0,0:0:0:0:
260,80,219003,1,0,0:0:0:0:
103,144,219169,1,2,0:0:0:0:
256,176,219336,1,0,0:0:0:0:
377,166,219503,5,12,0:0:0:0:
422,96,219669,1,0,0:0:0:0:
173,99,219836,5,2,0:0:0:0:
89,96,220002,1,2,0:0:0:0:
217,309,220169,5,0,0:0:0:0:
255,383,220335,1,2,0:0:0:0:
256,192,220503,5,4,0:0:0:0:
256,192,220586,12,0,224503,0:0:0:0:
208,244,227669,5,0,0:0:0:0:
304,140,227836,1,0,0:0:0:0:
191,107,228003,1,0,0:0:0:0:
320,276,228170,1,0,0:0:0:0:
397,118,228336,1,0,0:0:0:0:
200,288,228503,6,0,P|176:236|48:212,1,186.666666666667,4|0,0:0|0:0,0:0:0:0:
48,300,229003,1,0,0:0:0:0:
64,112,229169,1,0,0:0:0:0:
256,48,229336,1,0,0:0:0:0:
212,188,229503,6,0,P|136:212|60:136,1,186.666666666667,8|0,0:0|0:0,0:0:0:0:
128,80,230003,1,0,0:0:0:0:
311,34,230169,1,8,0:0:0:0:
391,181,230336,1,0,0:0:0:0:
173,262,230503,6,0,P|212:332|324:352,1,186.666666666667,8|0,0:0|0:0,0:0:0:0:
353,218,231003,1,0,0:0:0:0:
173,262,231169,1,8,0:0:0:0:
133,78,231336,1,0,0:0:0:0:
336,44,231503,6,0,L|444:64,2,93.3333333333333,8|0|0,0:0|0:0|0:0,0:0:0:0:
80,268,232169,1,8,0:0:0:0:
160,316,232335,1,0,0:0:0:0:
244,360,232503,6,0,B|312:328|312:328|328:296|304:256|232:248,1,186.666666666667,8|0,0:0|0:0,0:0:0:0:
176,204,233003,1,8,0:0:0:0:
40,96,233169,1,0,0:0:0:0:
208,56,233336,1,0,0:0:0:0:
296,92,233503,6,0,B|332:144|332:144|384:144|400:128|400:128|416:92|464:104,2,186.666666666667,8|0|0,0:0|0:0|0:0,0:0:0:0:
128,172,234503,6,0,L|80:264,1,93.3333333333333,8|0,0:0|0:0,0:0:0:0:
36,176,234836,1,0,0:0:0:0:
176,104,235003,1,8,0:0:0:0:
56,96,235169,1,0,0:0:0:0:
220,264,235336,1,0,0:0:0:0:
352,116,235503,5,8,0:0:0:0:
264,56,235669,1,0,0:0:0:0:
252,164,235836,1,8,0:0:0:0:
420,56,236003,1,0,0:0:0:0:
380,228,236169,2,8,P|368:288|344:316,1,93.3333333333333,8|0,0:0|0:0,0:0:0:0:
168,328,236503,6,0,B|148:260|148:260|108:256|68:172,1,186.666666666667,8|0,0:0|0:0,0:0:0:0:
156,56,237003,1,8,0:0:0:0:
60,104,237169,1,0,0:0:0:0:
168,176,237336,1,0,0:0:0:0:
320,84,237503,1,8,0:0:0:0:
296,328,237836,5,8,0:0:0:0:
216,276,238003,1,0,0:0:0:0:
124,260,238169,1,8,0:0:0:0:
124,260,238336,1,0,0:0:0:0:
112,168,238503,6,8,P|116:116|96:68,1,93.3333333333333
288,52,239003,1,8,0:0:0:0:
105,174,239169,1,0,0:0:0:0:
288,52,239336,1,8,0:0:0:0:
117,238,239503,5,8,0:0:0:0:
288,52,239836,1,8,0:0:0:0:
365,289,240169,1,8,0:0:0:0:
64,112,240503,6,0,P|88:53|204:92,1,186.666666666667,8|0,0:0|0:0,0:0:0:0:
56,144,241003,1,8,0:0:0:0:
184,176,241169,1,0,0:0:0:0:
32,148,241336,1,0,0:0:0:0:
128,248,241503,2,8,B|228:268|192:332|308:344,2,186.666666666667
326,232,242503,5,8,0:0:0:0:
185,151,242669,1,8,0:0:0:0:
304,276,242836,1,8,0:0:0:0:
206,107,243003,1,0,0:0:0:0:
255,308,243169,1,8,0:0:0:0:
256,74,243336,1,8,0:0:0:0:
185,312,243503,5,0,0:0:0:0:
325,70,243669,1,8,0:0:0:0:
109,275,243836,1,8,0:0:0:0:
401,106,244003,1,0,0:0:0:0:
53,190,244169,1,8,0:0:0:0:
457,192,244336,1,8,0:0:0:0:
256,192,244503,6,0,P|232:140|84:84,1,186.666666666667,12|0,0:0|0:0,0:0:0:0:
48,140,245003,1,8,0:0:0:0:
208,44,245169,1,8,0:0:0:0:
356,168,245503,1,8,0:0:0:0:
256,348,245836,1,8,0:0:0:0:
84,204,246169,1,8,0:0:0:0:
84,204,246503,6,8,P|57:269|69:313,1,93.3333333333333
152,295,246836,1,0,0:0:0:0:
280,229,247003,1,8,0:0:0:0:
230,76,247169,1,0,0:0:0:0:
109,37,247336,2,8,L|25:104,1,93.3333333333333
122,304,247836,1,8,0:0:0:0:
356,353,248169,1,8,0:0:0:0:
432,184,248503,6,0,P|408:91|290:45,1,186.666666666667,8|0,0:0|0:0,0:0:0:0:
164,60,249003,1,8,0:0:0:0:
176,208,249169,1,0,0:0:0:0:
256,164,249336,1,8,0:0:0:0:
288,76,249503,6,0,B|352:52|352:52|376:80|356:164|356:164|316:172,1,186.666666666667,8|0,0:0|0:0,0:0:0:0:
158,219,250003,1,0,0:0:0:0:
354,165,250169,1,8,0:0:0:0:
88,280,250503,6,8,L|164:352,1,93.3333333333333
324,320,250836,1,0,0:0:0:0:
156,344,251003,1,8,0:0:0:0:
220,128,251169,1,0,0:0:0:0:
399,212,251336,1,8,0:0:0:0:
180,236,251503,6,0,L|96:156,1,93.3333333333333,8|0,0:0|0:0,0:0:0:0:
332,148,251836,2,0,L|416:228,1,93.3333333333333,8|0,0:0|0:0,0:0:0:0:
240,256,252169,1,10,0:0:0:0:
112,171,252336,1,0,0:0:0:0:
248,72,252503,6,0,P|300:88|384:200,1,186.666666666667,12|0,0:0|0:0,0:0:0:0:
320,256,253003,1,8,0:0:0:0:
192,128,253169,1,8,0:0:0:0:
320,128,253336,1,0,0:0:0:0:
176,224,253503,6,8,B|124:224|124:378|73:378,2,186.666666666667
82,376,254336,1,0,0:0:0:0:
180,216,254503,6,8,P|232:208|284:240,1,93.3333333333333
216,292,254836,1,0,0:0:0:0:
240,136,255003,1,8,0:0:0:0:
200,312,255169,1,0,0:0:0:0:
164,144,255336,1,0,0:0:0:0:
208,64,255503,6,8,B|299:3|299:124|390:64,2,186.666666666667
380,70,256336,1,0,0:0:0:0:
208,64,256502,5,8,0:0:0:0:
112,160,256669,1,0,0:0:0:0:
232,208,257002,5,8,0:0:0:0:
136,304,257169,1,0,0:0:0:0:
232,208,257336,1,0,0:0:0:0:
136,304,257502,2,8,P|76:236|72:144,2,186.666666666667
136,304,258503,5,8,0:0:0:0:
331,297,258669,1,0,0:0:0:0:
325,101,258836,1,8,0:0:0:0:
129,108,259002,1,8,0:0:0:0:
255,356,259169,5,0,0:0:0:0:
372,75,259336,1,0,0:0:0:0:
91,191,259502,1,8,0:0:0:0:
372,308,259669,1,8,0:0:0:0:
256,27,259836,1,0,0:0:0:0:
139,308,260002,1,0,0:0:0:0:
420,192,260169,1,8,0:0:0:0:
139,75,260336,1,8,0:0:0:0:
255,356,260502,6,0,B|299:263|212:263|256:176,1,186.666666666667,4|0,0:0|0:0,0:0:0:0:
373,75,261002,1,0,0:0:0:0:
139,75,261169,1,8,0:0:0:0:
255,177,261336,1,8,0:0:0:0:
180,236,261502,6,0,P|144:268|96:264,2,93.3333333333333,8|0|0,0:0|0:0|0:0,0:0:0:0:
332,236,262003,2,0,P|368:268|416:264,2,93.3333333333333,8|0|8,0:0|0:0|0:0,0:0:0:0:
103,161,262503,5,8,0:0:0:0:
237,216,262669,1,8,0:0:0:0:
357,74,262836,5,8,0:0:0:0:
243,163,263002,1,0,0:0:0:0:
304,337,263169,5,8,0:0:0:0:
284,195,263335,1,0,0:0:0:0:
196,304,263503,6,0,B|136:288|104:356|56:248|56:248|92:212,1,186.666666666667,8|0,0:0|0:0,0:0:0:0:
100,152,264003,1,0,0:0:0:0:
84,60,264169,2,0,L|192:28,1,93.3333333333333,8|0,0:0|0:0,0:0:0:0:
264,52,264503,6,8,P|344:96|444:56,1,186.666666666667
344,172,265003,1,0,0:0:0:0:
352,296,265169,1,0,0:0:0:0:
155,278,265336,1,0,0:0:0:0:
172,81,265503,1,8,0:0:0:0:
367,108,265669,1,0,0:0:0:0:
382,279,265836,5,8,0:0:0:0:
480,228,266003,1,0,0:0:0:0:
284,330,266169,1,0,0:0:0:0:
125,213,266336,1,0,0:0:0:0:
241,53,266503,1,8,0:0:0:0:
395,177,266669,1,0,0:0:0:0:
395,177,266836,6,8,L|367:269,1,93.3333333333333
276,240,267169,1,0,0:0:0:0:
460,260,267336,1,0,0:0:0:0:
164,228,267503,1,10,0:0:0:0:
348,248,267670,1,2,0:0:0:0:
184,184,267836,6,10,P|160:128|116:96,1,93.3333333333333
328,200,268169,2,8,P|352:256|396:288,1,93.3333333333333,10|8,0:0|0:0,0:0:0:0:
293,335,268503,6,0,B|233:319|201:387|153:279|153:279|114:269,1,186.666666666667,8|0,0:0|0:0,0:0:0:0:
87,224,269003,1,8,0:0:0:0:
236,136,269169,1,0,0:0:0:0:
78,158,269336,1,0,0:0:0:0:
245,201,269503,6,0,P|312:248|416:252,1,186.666666666667,8|0,0:0|0:0,0:0:0:0:
380,92,270003,1,0,0:0:0:0:
380,92,270169,1,8,0:0:0:0:
224,52,270336,1,8,0:0:0:0:
388,104,270503,6,0,P|412:156|404:200,1,93.3333333333333,8|0,0:0|0:0,0:0:0:0:
124,280,270836,2,0,P|100:228|108:184,1,93.3333333333333,0|8,0:0|0:0,0:0:0:0:
128,64,271169,1,0,0:0:0:0:
192,196,271336,1,0,0:0:0:0:
72,200,271503,6,0,L|24:116,1,93.3333333333333,8|0,0:0|0:0,0:0:0:0:
440,184,271836,2,0,L|488:268,1,93.3333333333333,0|8,0:0|0:0,0:0:0:0:
328,348,272169,1,0,0:0:0:0:
184,348,272336,1,8,0:0:0:0:
76,236,272503,6,0,P|88:156|172:80,1,186.666666666667,8|0,0:0|0:0,0:0:0:0:
200,160,273003,1,8,0:0:0:0:
68,48,273169,1,0,0:0:0:0:
68,48,273336,1,0,0:0:0:0:
40,188,273503,5,8,0:0:0:0:
156,337,273669,1,0,0:0:0:0:
208,129,273836,1,8,0:0:0:0:
41,140,274003,1,0,0:0:0:0:
235,302,274169,1,8,0:0:0:0:
264,112,274336,1,0,0:0:0:0:
264,112,274503,5,8,0:0:0:0:
340,60,274669,1,0,0:0:0:0:
321,238,274836,1,8,0:0:0:0:
328,330,275002,1,0,0:0:0:0:
182,225,275169,1,8,0:0:0:0:
99,185,275335,1,0,0:0:0:0:
136,96,275503,6,2,P|200:64|216:40,1,93.3333333333333,10|2,0:0|0:0,0:0:0:0:
399,136,275836,2,2,P|394:207|407:233,1,93.3333333333333,10|2,0:0|0:0,0:0:0:0:
232,343,276169,2,2,P|173:304|144:302,1,93.3333333333333,10|0,0:0|0:0,0:0:0:0:
76,248,276503,6,0,B|52:164|16:212|44:136|44:136|68:108|116:120,1,186.666666666667,12|0,0:0|0:0,0:0:0:0:
290,204,277003,1,0,0:0:0:0:
76,248,277169,1,2,0:0:0:0:
136,60,277336,1,0,0:0:0:0:
136,60,277503,6,8,B|212:40|212:88|258:24|258:24|316:28,2,186.666666666667,12|8|2,0:1|0:0|0:0,0:0:0:0:
160,200,278336,1,0,0:0:0:0:
200,108,278503,6,0,P|172:52|136:36,1,93.3333333333333,8|0,0:0|0:0,0:0:0:0:
312,108,278836,2,0,P|340:52|376:36,1,93.3333333333333
184,248,279169,1,2,0:0:0:0:
328,248,279336,1,0,0:0:0:0:
184,248,279503,6,0,P|156:308|128:336,1,93.3333333333333,8|0,0:0|0:0,0:0:0:0:
328,248,279836,2,0,P|356:308|384:336,1,93.3333333333333,8|0,0:0|0:0,0:0:0:0:
137,326,280169,1,10,0:0:0:0:
374,327,280336,1,0,0:0:0:0:
319,151,280503,5,8,0:0:0:0:
319,35,280669,1,2,0:0:0:0:
418,93,280836,1,2,0:0:0:0:
259,266,281003,1,0,0:0:0:0:
360,324,281169,1,0,0:0:0:0:
259,382,281336,1,0,0:0:0:0:
189,157,281503,1,8,0:0:0:0:
88,215,281669,1,2,0:0:0:0:
89,100,281836,1,2,0:0:0:0:
284,64,282003,1,0,0:0:0:0:
88,215,282169,5,0,0:0:0:0:
304,296,282336,1,0,0:0:0:0:
284,64,282503,2,0,L|324:168,1,93.3333333333333,8|2,0:0|0:0,0:0:0:0:
116,208,282836,1,2,0:0:0:0:
194,232,283003,2,0,L|228:320,1,93.3333333333333
396,176,283336,1,0,0:0:0:0:
196,140,283503,5,10,0:0:0:0:
88,168,283669,1,2,0:0:0:0:
304,248,283836,5,2,0:0:0:0:
412,220,284002,1,2,0:0:0:0:
216,12,284169,5,2,0:0:0:0:
108,40,284335,1,0,0:0:0:0:
76,256,284503,6,0,P|128:268|164:320,2,93.3333333333333,12|0|0,0:0|0:0|0:0,0:0:0:0:
56,164,285003,1,0,0:0:0:0:
256,80,285169,1,2,0:0:0:0:
456,220,285336,1,0,0:0:0:0:
436,128,285503,6,0,P|384:116|348:64,2,93.3333333333333,8|0|0,0:0|0:0|0:0,0:0:0:0:
456,220,286003,1,0,0:0:0:0:
256,304,286169,1,2,0:0:0:0:
385,327,286336,1,0,0:0:0:0:
168,268,286503,6,0,B|112:232|104:180|104:188,1,93.3333333333333,8|0,0:0|0:0,0:0:0:0:
312,172,286836,1,0,0:0:0:0:
108,96,287003,2,0,L|12:115,2,93.3333333333333,0|2|0,0:0|0:0|0:0,0:0:0:0:
245,73,287503,6,0,P|297:97|366:99,2,93.3333333333333,8|0|0,0:0|0:0|0:0,0:0:0:0:
56,200,288003,1,0,0:0:0:0:
248,268,288169,1,10,0:0:0:0:
332,101,288336,1,0,0:0:0:0:
120,320,288503,6,0,L|112:200,1,93.3333333333333,8|0,0:0|0:0,0:0:0:0:
244,100,288836,1,0,0:0:0:0:
108,236,289003,1,0,0:0:0:0:
136,112,289169,2,0,P|160:52|184:28,1,93.3333333333333,2|0,0:0|0:0,0:0:0:0:
210,175,289503,6,0,P|172:231|130:236,1,93.3333333333333,8|0,0:0|0:0,0:0:0:0:
45,169,289836,1,0,0:0:0:0:
200,52,290003,1,0,0:0:0:0:
96,76,290169,1,2,0:0:0:0:
136,252,290336,1,0,0:0:0:0:
304,296,290503,6,0,B|328:324|328:324|384:324,1,93.3333333333333,8|0,0:0|0:0,0:0:0:0:
208,296,290836,2,0,B|184:324|184:324|128:324,1,93.3333333333333
92,240,291169,1,2,0:0:0:0:
68,148,291336,1,0,0:0:0:0:
256,192,291503,5,10,0:0:0:0:
296,80,291669,1,2,0:0:0:0:
356,152,291836,1,2,0:0:0:0:
256,192,292003,1,2,0:0:0:0:
216,304,292169,1,2,0:0:0:0:
156,232,292336,1,0,0:0:0:0:
148,104,292503,6,4,P|192:76|296:112,1,140.000005340576,8|0,0:0|0:0,0:0:0:0:
248,156,293003,1,0,0:0:0:0:
324,44,293169,1,2,0:0:0:0:
172,268,293336,1,0,0:0:0:0:
128,212,293503,6,8,P|84:152|4:148,2,140.000005340576,0|0|2,0:0|0:0|0:0,0:0:0:0:
84,264,294336,1,0,0:0:0:0:
200,320,294503,6,0,L|276:368,1,70.0000026702882
312,64,295003,2,0,L|236:16,1,70.0000026702882,0|2,0:0|0:0,0:0:0:0:
176,120,295336,1,0,0:0:0:0:
196,248,295503,6,0,B|260:256|260:256|292:240,1,70.0000026702882
316,136,295836,2,0,B|252:128|252:128|220:144,1,70.0000026702882
84,114,296169,1,2,0:0:0:0:
84,114,296336,1,0,0:0:0:0:
88,184,296503,6,8,B|68:248|116:248|88:320,2,140.000005340576,8|8|10,0:0|0:0|0:0,0:0:0:0:
87,320,297336,1,0,0:0:0:0:
424,200,297503,2,8,B|444:136|396:136|424:64,2,140.000005340576,8|8|10,0:0|0:0|0:0,0:0:0:0:
424,63,298336,1,0,0:0:0:0:
340,152,298503,6,4,P|264:96|172:164,2,210.000008010865,4|0|4,0:0|0:0|0:0,0:0:0:0:
256,290,299669,1,0,0:0:0:0:
157,191,299836,1,2,0:0:0:0:
256,93,300003,1,2,0:0:0:0:
354,192,300169,1,0,0:0:0:0:
256,290,300336,1,0,0:0:0:0:
256,192,300503,5,4,0:0:0:0:
256,192,300586,12,4,302502,0:0:0:0:
298,283,302669,5,0,0:0:0:0:
213,100,302836,1,0,0:0:0:0:
203,305,303003,1,0,0:0:0:0:
308,78,303169,2,0,P|354:77|399:88,1,93.3333333333333
308,306,303503,6,0,P|354:306|399:295,2,93.3333333333333,4|0|0,0:0|0:0|0:0,0:0:0:0:
160,112,304003,1,0,0:0:0:0:
300,296,304169,1,0,0:0:0:0:
332,160,304336,1,0,0:0:0:0:
176,248,304503,6,0,L|128:336,2,93.3333333333333,4|0|0,0:0|0:0|0:0,0:0:0:0:
88,92,305003,1,0,0:0:0:0:
112,264,305169,1,0,0:0:0:0:
256,148,305336,1,0,0:0:0:0:
192,56,305503,6,0,P|120:108|136:216,1,186.666666666667,4|4,0:0|0:0,0:0:0:0:
208,236,306003,1,0,0:0:0:0:
39,156,306169,1,0,0:0:0:0:
216,168,306336,1,0,0:0:0:0:
36,224,306503,5,4,0:0:0:0:
148,320,306669,1,0,0:0:0:0:
364,320,306836,1,0,0:0:0:0:
476,224,307003,1,4,0:0:0:0:
264,196,307169,2,2,L|192:128,1,93.3333333333333
324,332,307503,5,4,0:0:0:0:
368,248,307669,1,0,0:0:0:0:
188,332,307836,1,0,0:0:0:0:
144,248,308002,1,4,0:0:0:0:
184,68,308169,2,2,L|104:154,1,93.3333333333333
184,68,308503,5,4,0:0:0:0:
339,316,308669,1,0,0:0:0:0:
294,49,308836,1,0,0:0:0:0:
228,334,309003,1,4,0:0:0:0:
385,114,309169,1,0,0:0:0:0:
137,269,309336,1,0,0:0:0:0:
404,225,309503,1,4,0:0:0:0:
118,159,309669,1,0,0:0:0:0:
444,337,309836,5,6,0:0:0:0:
67,46,310086,1,6,0:0:0:0:
256,192,310336,6,0,L|256:104,1,70.0000026702882,0|4,0:0|0:0,0:0:0:0:
256,192,310586,12,0,313503,0:0:0:0:
