osu file format v14

[General]
AudioFilename: audio.mp3
AudioLeadIn: 0
PreviewTime: 140459
Countdown: 0
SampleSet: Soft
StackLeniency: 0.7
Mode: 0
LetterboxInBreaks: 0
WidescreenStoryboard: 0

[Editor]
Bookmarks: 140459,158920,199536,229074,243843,258613,288151,360151
DistanceSpacing: 1.7
BeatDivisor: 4
GridSize: 4
TimelineZoom: 1

[Metadata]
Title:Leaves
TitleUnicode:Leaves
Artist:This is Forever
ArtistUnicode:This is Forever
Creator:-Helium-
Version:Love is Forever
Source:
Tags:
BeatmapID:1244904
BeatmapSetID:587962

[Difficulty]
HPDrainRate:4
CircleSize:5
OverallDifficulty:7
ApproachRate:7
SliderMultiplier:1.1
SliderTickRate:1

[Events]
//Background and Video events
0,0,"maxresdefault.jpg",0,0
//Break Periods
2,17589,21086
2,84048,87860
2,244036,257706
//Storyboard Layer 0 (Background)
//Storyboard Layer 1 (Fail)
//Storyboard Layer 2 (Pass)
//Storyboard Layer 3 (Foreground)
//Storyboard Sound Samples

[TimingPoints]
14916,618.556701030928,4,1,0,5,1,0
29699,618.556701030928,4,1,0,5,1,0
37073,618.556701030928,4,1,0,5,1,0
51855,618.556701030928,4,1,0,5,1,0
59229,618.556701030928,4,1,0,5,1,0
73980,618.556701030928,4,1,0,5,1,0
81374,618.556701030928,4,1,0,5,1,0
88760,461.538461538462,4,1,0,5,1,0
88760,-83.3333333333333,4,1,0,5,0,0
140459,-83.3333333333333,4,1,0,15,0,0
182920,-66.6666666666667,4,1,0,5,0,0
185228,-83.3333333333333,4,1,0,5,0,0
199536,-100,4,1,0,25,0,1
229074,-111.111111111111,4,2,0,15,0,0
288151,-100,4,2,0,5,0,0

[HitObjects]
91,115,14916,6,0,P|144:120|176:176,1,110
113,177,15843,2,0,P|147:220|205:219,1,110
216,160,16771,2,0,P|261:204|248:268,1,110
381,59,22286,6,0,P|411:103|378:167,1,110
349,111,23213,2,0,P|334:162|381:214,1,110
348,265,24141,2,0,P|395:259|421:192,1,110
431,147,25069,2,0,P|487:205|475:244,1,110
266,69,29699,6,0,P|183:50|161:73,1,110
215,104,30626,2,0,P|211:148|139:186,1,110
116,145,31554,2,0,P|101:199|138:242,1,110
189,217,32482,2,0,P|184:271|122:299,1,110
116,358,33410,2,0,P|171:354|231:308,1,110
274,352,34338,2,0,P|279:309|220:263,1,110
178,287,35266,2,0,P|198:216|248:208,1,110
108,72,37073,6,0,P|122:134|168:155,1,110
206,114,38000,2,0,P|221:162|184:211,1,110
129,202,38928,2,0,P|139:244|201:269,1,110
221,214,39856,2,0,P|257:268|233:318,1,110
141,258,44495,6,0,P|199:213|243:217,1,110
208,282,45423,2,0,P|264:274|309:232,1,110
281,179,46351,2,0,P|344:187|371:245,1,110
384,282,47279,2,0,P|428:242|419:184,1,110
182,305,51855,6,0,P|248:268|249:217,1,110
174,224,52782,2,0,P|198:161|251:139,1,110
289,185,53710,2,0,P|295:115|258:77,1,110
204,64,54638,2,0,P|267:20|312:33,1,110
362,32,55566,2,0,P|327:83|263:83,1,110
221,110,56494,2,0,P|281:155|329:145,1,110
218,237,59229,6,0,P|197:311|148:319,1,110
153,257,60156,2,0,P|162:199|207:167,1,110
262,189,61084,2,0,P|259:139|206:103,1,110
333,48,66667,6,0,P|326:117|362:150,1,110
387,88,67595,2,0,P|418:140|391:200,1,110
347,211,68523,2,0,P|399:249|456:222,1,110
443,177,69450,2,0,P|498:219|490:274,1,110
432,242,70378,2,0,P|440:285|501:322,1,110
345,122,73980,6,0,P|281:97|236:126,1,110
265,174,74907,2,0,P|193:146|188:109,1,110
235,85,75835,2,0,P|182:60|130:104,1,110
124,141,76762,2,0,P|78:88|87:40,1,110
124,6,77691,2,0,B|221:-3|66:121|161:76|169:83,1,110
164,155,78619,2,0,P|215:135|222:66,1,110
231,160,81374,6,0,P|253:221|307:229,1,110
294,168,82302,2,0,P|352:204|350:256,1,110
293,248,83230,2,0,P|342:300|396:290,1,110
343,51,88760,6,0,P|401:91|408:148,1,131.99999597168
355,183,89683,2,0,P|374:212|475:183,1,131.99999597168
427,152,90606,2,0,P|482:146|525:213,1,131.99999597168
369,172,91529,2,0,B|371:182|413:303|496:131|457:244,1,131.99999597168
428,312,92452,5,0,0:0:0:0:
298,335,92913,1,0,0:0:0:0:
172,294,93375,1,0,0:0:0:0:
98,184,93836,1,0,0:0:0:0:
225,149,94298,1,0,0:0:0:0:
278,269,94760,1,0,0:0:0:0:
160,211,95221,1,0,0:0:0:0:
281,169,95683,1,0,0:0:0:0:
167,277,96144,6,0,P|102:243|103:174,1,131.99999597168
158,184,97067,2,0,P|138:137|55:143,1,131.99999597168
5,129,97990,2,0,P|46:195|101:182,1,131.99999597168
136,147,98913,2,0,P|136:236|83:255,1,131.99999597168
67,126,99836,5,0,0:0:0:0:
190,77,100298,1,0,0:0:0:0:
275,177,100760,1,0,0:0:0:0:
366,81,101221,1,0,0:0:0:0:
442,188,101683,1,0,0:0:0:0:
310,185,102144,1,0,0:0:0:0:
384,75,102606,1,0,0:0:0:0:
450,188,103067,1,0,0:0:0:0:
327,238,103529,6,0,P|349:184|291:130,1,131.99999597168
269,202,104452,2,0,P|252:270|312:303,1,131.99999597168
314,373,105375,2,0,P|346:363|366:264,1,131.99999597168
300,272,106298,2,0,P|321:217|408:222,1,131.99999597168
452,92,107221,5,0,0:0:0:0:
328,138,107683,1,0,0:0:0:0:
229,50,108144,1,0,0:0:0:0:
267,176,108606,1,0,0:0:0:0:
311,51,109067,1,0,0:0:0:0:
203,127,109529,1,0,0:0:0:0:
256,247,109990,1,0,0:0:0:0:
309,126,110452,1,0,0:0:0:0:
162,127,110913,6,0,P|185:196|246:191,1,131.99999597168
236,111,111836,2,0,P|307:146|306:222,1,131.99999597168
243,210,112760,2,0,P|276:271|352:263,1,131.99999597168
364,199,113683,2,0,P|409:298|384:327,1,131.99999597168
273,318,114606,5,0,0:0:0:0:
226,194,115067,1,0,0:0:0:0:
354,222,115529,1,0,0:0:0:0:
229,263,115990,1,0,0:0:0:0:
127,178,116452,1,0,0:0:0:0:
225,90,116913,1,0,0:0:0:0:
95,63,117375,1,0,0:0:0:0:
194,149,117836,1,0,0:0:0:0:
318,74,118298,6,0,P|240:35|195:61,1,131.99999597168
246,115,119221,2,0,P|187:130|130:87,1,131.99999597168
129,14,120144,2,0,P|74:29|73:113,1,131.99999597168
139,89,121067,2,0,P|130:144|65:173,1,131.99999597168
138,283,121990,5,0,0:0:0:0:
210,172,122452,1,0,0:0:0:0:
78,180,122913,1,0,0:0:0:0:
184,258,123375,1,0,0:0:0:0:
259,149,123836,1,0,0:0:0:0:
126,147,124298,1,0,0:0:0:0:
209,249,124760,1,0,0:0:0:0:
187,118,125221,1,0,0:0:0:0:
300,50,125683,6,0,P|358:110|344:175,1,131.99999597168
258,134,126606,2,0,P|252:207|310:244,1,131.99999597168
340,171,127529,2,0,P|387:232|362:293,1,131.99999597168
286,297,128452,2,0,P|331:359|404:361,1,131.99999597168
408,237,129375,5,0,0:0:0:0:
326,133,129836,1,0,0:0:0:0:
458,127,130298,1,0,0:0:0:0:
352,205,130760,1,0,0:0:0:0:
240,134,131221,1,0,0:0:0:0:
367,97,131683,1,0,0:0:0:0:
271,5,132144,1,0,0:0:0:0:
308,131,132606,1,0,0:0:0:0:
197,202,133067,6,0,P|254:253|321:230,1,131.99999597168
306,158,133990,2,0,P|382:189|388:237,1,131.99999597168
454,277,134913,2,0,P|401:321|347:303,1,131.99999597168
378,222,135836,2,0,P|306:210|265:275,1,131.99999597168
177,260,136760,1,0,0:0:0:0:
119,187,137221,1,0,0:0:0:0:
192,131,137683,1,0,0:0:0:0:
255,198,138144,1,0,0:0:0:0:
256,192,138606,12,0,140452,0:0:0:0:
301,84,140913,5,0,0:0:0:0:
384,31,141144,1,0,0:0:0:0:
398,129,141375,1,0,0:0:0:0:
344,245,141836,1,0,0:0:0:0:
146,257,142298,1,0,0:0:0:0:
68,194,142529,1,0,0:0:0:0:
154,144,142760,1,0,0:0:0:0:
255,20,143221,5,0,0:0:0:0:
425,121,143683,1,0,0:0:0:0:
496,188,143913,1,0,0:0:0:0:
400,215,144144,1,0,0:0:0:0:
204,250,144606,1,0,0:0:0:0:
126,188,144836,1,0,0:0:0:0:
211,137,145067,1,0,0:0:0:0:
390,221,145529,1,0,0:0:0:0:
196,261,145990,5,0,0:0:0:0:
121,195,146221,1,0,0:0:0:0:
212,155,146452,1,0,0:0:0:0:
385,249,146913,1,0,0:0:0:0:
316,62,147375,5,0,0:0:0:0:
178,203,147836,1,0,0:0:0:0:
338,319,148298,1,0,0:0:0:0:
433,291,148529,1,0,0:0:0:0:
363,220,148760,1,0,0:0:0:0:
166,243,149221,1,0,0:0:0:0:
344,156,149683,1,0,0:0:0:0:
335,57,149913,1,0,0:0:0:0:
244,96,150144,1,0,0:0:0:0:
217,292,150606,5,0,0:0:0:0:
125,116,151067,1,0,0:0:0:0:
56,187,151298,1,0,0:0:0:0:
146,228,151529,1,0,0:0:0:0:
249,59,151990,1,0,0:0:0:0:
343,28,152221,1,0,0:0:0:0:
353,126,152452,1,0,0:0:0:0:
194,243,152913,1,0,0:0:0:0:
375,163,153375,5,0,0:0:0:0:
453,223,153606,1,0,0:0:0:0:
364,267,153836,1,0,0:0:0:0:
118,237,154298,1,0,0:0:0:0:
262,101,154760,1,0,0:0:0:0:
365,269,155221,1,0,0:0:0:0:
168,241,155683,5,0,0:0:0:0:
176,142,155913,1,0,0:0:0:0:
263,188,156144,1,0,0:0:0:0:
338,371,156606,1,0,0:0:0:0:
336,173,157067,1,0,0:0:0:0:
410,108,157298,1,0,0:0:0:0:
435,203,157529,1,0,0:0:0:0:
291,338,157990,1,0,0:0:0:0:
157,191,158452,5,0,0:0:0:0:
75,135,158683,1,0,0:0:0:0:
162,92,158913,1,0,0:0:0:0:
358,67,159375,2,0,P|381:109|373:137,1,65.9999979858399
282,251,160067,5,0,0:0:0:0:
228,192,160298,1,0,0:0:0:0:
305,175,160529,1,0,0:0:0:0:
356,235,160760,1,0,0:0:0:0:
337,311,160990,1,0,0:0:0:0:
257,308,161221,1,0,0:0:0:0:
192,261,161452,1,0,0:0:0:0:
213,177,161683,1,0,0:0:0:0:
265,109,161913,1,0,0:0:0:0:
348,87,162144,1,0,0:0:0:0:
360,201,162375,5,0,0:0:0:0:
422,138,162606,1,0,0:0:0:0:
407,51,162836,1,0,0:0:0:0:
321,43,163067,1,0,0:0:0:0:
251,72,163298,1,0,0:0:0:0:
248,158,163529,1,0,0:0:0:0:
421,177,163990,1,0,0:0:0:0:
432,87,164452,5,0,0:0:0:0:
353,52,164683,1,0,0:0:0:0:
282,100,164913,1,0,0:0:0:0:
272,271,165375,1,0,0:0:0:0:
344,316,165606,1,0,0:0:0:0:
418,273,165836,1,0,0:0:0:0:
391,103,166298,5,0,0:0:0:0:
318,57,166529,1,0,0:0:0:0:
235,32,166760,1,0,0:0:0:0:
193,106,166990,2,0,P|205:190|266:217,1,131.99999597168
302,154,167683,2,0,P|302:101|282:82,1,65.9999979858399
210,80,168144,1,0,0:0:0:0:
128,108,168375,1,0,0:0:0:0:
111,192,168606,1,0,0:0:0:0:
252,289,169067,5,0,0:0:0:0:
328,248,169298,1,0,0:0:0:0:
339,162,169529,1,0,0:0:0:0:
178,102,169990,1,0,0:0:0:0:
113,158,170221,1,0,0:0:0:0:
141,238,170452,1,0,0:0:0:0:
207,183,170683,1,0,0:0:0:0:
35,191,171144,2,0,P|40:252|66:267,1,65.9999979858399
125,261,171606,5,0,0:0:0:0:
207,239,171836,1,0,0:0:0:0:
270,180,172067,1,0,0:0:0:0:
279,94,172298,1,0,0:0:0:0:
210,41,172529,1,0,0:0:0:0:
130,72,172760,1,0,0:0:0:0:
101,240,173221,1,0,0:0:0:0:
270,270,173683,5,0,0:0:0:0:
338,218,173913,1,0,0:0:0:0:
344,132,174144,1,0,0:0:0:0:
272,84,174375,2,0,P|206:42|133:119,1,197.99999395752
147,205,175298,5,0,0:0:0:0:
217,253,175529,1,0,0:0:0:0:
301,265,175760,1,0,0:0:0:0:
372,217,175990,1,0,0:0:0:0:
391,133,176221,1,0,0:0:0:0:
348,58,176452,1,0,0:0:0:0:
176,56,176913,5,0,0:0:0:0:
322,145,177375,1,0,0:0:0:0:
254,198,177606,1,0,0:0:0:0:
332,233,177836,1,0,0:0:0:0:
264,286,178067,2,0,P|337:317|405:228,1,197.99999395752
278,121,179221,2,0,P|277:182|298:197,1,65.9999979858399
358,153,179683,1,0,0:0:0:0:
340,69,179913,1,0,0:0:0:0:
207,100,180144,1,0,0:0:0:0:
156,221,180606,1,0,0:0:0:0:
325,207,181067,1,0,0:0:0:0:
387,148,181298,5,0,0:0:0:0:
302,135,181529,1,0,0:0:0:0:
356,68,181760,2,0,P|283:44|170:106,1,197.99999395752
327,178,182913,6,0,P|331:241|308:267,1,82.5000031471254
249,211,183375,2,0,P|269:149|293:125,1,82.5000031471254
384,134,183836,2,0,P|416:173|417:224,1,82.5000031471254
305,314,184298,2,0,P|289:276|314:222,1,82.5000031471254
438,262,184760,2,0,P|431:292|392:329,1,82.5000031471254
228,287,185452,2,0,P|232:176|297:108,1,197.99999395752
429,140,186606,5,0,0:0:0:0:
393,210,186836,1,0,0:0:0:0:
320,178,187067,1,0,0:0:0:0:
345,21,187529,1,0,0:0:0:0:
372,176,187990,2,0,P|350:256|288:270,1,131.99999597168
151,278,188913,1,0,0:0:0:0:
164,163,189144,2,0,P|256:172|321:254,1,197.99999395752
376,343,190298,5,0,0:0:0:0:
435,282,190529,1,0,0:0:0:0:
386,218,190760,1,0,0:0:0:0:
306,267,191221,2,0,B|263:210|263:210|215:274,1,131.99999597168
167,77,192144,5,0,0:0:0:0:
294,188,192606,1,0,0:0:0:0:
399,53,193067,1,0,0:0:0:0:
294,188,193529,1,0,0:0:0:0:
166,76,193990,1,0,0:0:0:0:
294,188,194452,1,0,0:0:0:0:
165,277,194913,1,0,0:0:0:0:
294,188,195375,1,0,0:0:0:0:
414,312,195836,1,0,0:0:0:0:
294,188,196298,1,0,0:0:0:0:
444,152,196760,1,0,0:0:0:0:
291,53,197221,1,0,0:0:0:0:
284,206,197683,1,0,0:0:0:0:
466,301,198144,1,0,0:0:0:0:
403,178,198606,5,0,0:0:0:0:
275,218,198836,1,0,0:0:0:0:
311,98,199067,1,0,0:0:0:0:
360,244,199298,1,0,0:0:0:0:
203,114,199529,6,0,P|143:134|153:194,1,110
219,295,200452,2,0,P|272:279|248:219,1,110
73,195,201375,1,0,0:0:0:0:
270,190,201836,1,0,0:0:0:0:
171,321,202298,2,0,B|154:280|202:251|177:191,1,110
104,93,203221,5,0,0:0:0:0:
277,188,203683,1,0,0:0:0:0:
86,242,204144,1,0,0:0:0:0:
274,304,204606,1,0,0:0:0:0:
105,174,205067,5,0,0:0:0:0:
214,338,205529,1,0,0:0:0:0:
268,148,205990,1,0,0:0:0:0:
454,79,206452,1,0,0:0:0:0:
465,212,206913,2,0,B|424:281|351:233,1,110
380,98,207836,5,0,0:0:0:0:
394,295,208298,1,0,0:0:0:0:
251,156,208760,1,0,0:0:0:0:
445,189,209221,1,0,0:0:0:0:
277,295,209683,1,0,0:0:0:0:
198,113,210144,1,0,0:0:0:0:
395,98,210606,2,0,P|376:177|337:202,1,110
180,102,211529,5,0,0:0:0:0:
371,53,211990,1,0,0:0:0:0:
445,236,212452,2,0,P|381:272|339:258,1,110
196,138,213375,1,0,0:0:0:0:
385,80,213836,1,0,0:0:0:0:
300,259,214298,2,0,B|275:215|321:192|296:142,1,110
198,33,215221,2,0,B|172:77|218:100|193:150,1,110
186,227,216144,5,0,0:0:0:0:
367,147,216606,1,0,0:0:0:0:
197,43,217067,2,0,P|153:97|161:149,1,110
350,162,217990,2,0,P|371:93|339:51,1,110
154,134,218913,1,0,0:0:0:0:
350,157,219375,1,0,0:0:0:0:
161,210,219836,2,0,B|127:186|96:215|156:290,1,110
325,227,220760,5,0,0:0:0:0:
257,41,221221,1,0,0:0:0:0:
212,209,221683,2,0,B|240:185|271:214|210:288,1,110
91,335,222606,1,0,0:0:0:0:
173,155,223067,1,0,0:0:0:0:
367,118,223529,2,0,B|394:87|420:114|420:114|448:83|469:137,1,110
396,254,224452,5,0,0:0:0:0:
246,124,224913,1,0,0:0:0:0:
376,163,225375,2,0,B|417:200|417:200|470:157,1,110
337,60,226298,1,0,0:0:0:0:
173,171,226760,1,0,0:0:0:0:
368,203,227221,2,0,B|341:148|296:177|277:117,1,110
189,73,228144,5,0,0:0:0:0:
149,139,228375,1,0,0:0:0:0:
179,209,228606,1,0,0:0:0:0:
253,228,228836,1,0,0:0:0:0:
329,217,229067,2,0,P|377:190|366:137,1,98.9999969787599
338,98,229760,1,0,0:0:0:0:
273,72,229990,1,0,0:0:0:0:
141,116,230452,1,0,0:0:0:0:
151,248,232760,5,0,0:0:0:0:
83,91,233221,1,0,0:0:0:0:
158,54,233452,1,0,0:0:0:0:
227,101,233683,1,0,0:0:0:0:
155,253,234144,1,0,0:0:0:0:
391,270,236452,5,0,0:0:0:0:
325,105,236913,1,0,0:0:0:0:
405,79,237144,1,0,0:0:0:0:
475,124,237375,1,0,0:0:0:0:
391,270,237836,1,0,0:0:0:0:
84,276,240144,5,0,0:0:0:0:
237,207,240606,1,0,0:0:0:0:
280,278,240836,1,0,0:0:0:0:
235,349,241067,1,0,0:0:0:0:
84,272,241529,1,0,0:0:0:0:
284,43,242913,5,0,0:0:0:0:
434,119,243375,1,0,0:0:0:0:
289,204,243836,1,0,0:0:0:0:
60,65,258606,6,0,P|60:110|97:160,1,98.9999969787599
181,27,259529,2,0,P|200:52|204:124,1,98.9999969787599
331,27,260452,2,0,P|312:52|308:124,1,98.9999969787599
452,65,261375,2,0,P|452:110|415:160,1,98.9999969787599
324,233,262298,6,0,P|334:276|309:333,1,98.9999969787599
197,223,263221,2,0,P|184:251|196:322,1,98.9999969787599
192,140,265990,6,0,B|213:89|176:76|202:33,1,98.9999969787599
315,46,266913,2,0,B|294:97|331:110|305:153,1,98.9999969787599
163,219,269683,2,0,P|119:247|89:216,1,98.9999969787599
84,335,270606,2,0,P|128:307|158:338,1,98.9999969787599
417,308,273375,6,0,P|367:308|367:357,1,98.9999969787599
282,259,274298,2,0,P|332:259|332:210,1,98.9999969787599
192,140,275221,2,0,B|213:89|176:76|202:33,1,98.9999969787599
315,46,276144,2,0,B|294:97|331:110|305:153,1,98.9999969787599
163,219,277067,2,0,P|119:247|89:216,1,98.9999969787599
84,335,277990,2,0,P|128:307|158:338,1,98.9999969787599
146,178,280760,6,0,B|211:122|284:220|346:161,2,197.99999395752
270,82,284452,6,0,B|326:147|228:220|287:282,2,197.99999395752
160,92,288144,2,0,B|127:55|106:87|159:137|159:137|215:84|191:56|160:92,1,197.99999395752
291,63,290913,1,0,0:0:0:0:
388,71,291836,2,0,B|451:136|341:202|426:290,1,220
168,265,295529,2,0,P|102:191|181:127,1,220
344,119,299221,2,0,P|410:193|331:257,1,220
256,191,301067,1,0,0:0:0:0:
77,122,302913,2,0,B|84:57|84:57|119:13|162:47|162:47|192:122|192:122,1,220
254,191,305683,5,0,0:0:0:0:
328,254,306606,2,0,B|346:316|346:316|388:354|424:313|424:313|441:234|441:234,1,220
374,168,308452,2,0,B|344:73|232:171|187:67,1,220
81,55,310298,2,0,P|55:143|138:253,1,220
260,143,312144,1,0,0:0:0:0:
344,250,313990,2,0,P|404:176|349:71,1,220
261,142,315836,1,0,0:0:0:0:
205,278,317683,6,0,P|161:179|239:103,1,220
295,179,320452,2,0,P|362:166|390:290,1,220
321,203,325067,1,0,0:0:0:0:
284,151,328760,1,0,0:0:0:0:
151,124,330606,1,0,0:0:0:0:
288,90,332452,2,0,B|322:150|259:227|259:227|228:162|190:187,1,220
204,122,335221,2,0,B|99:128|89:141|89:141|115:197|87:250,1,220
205,220,337990,1,0,0:0:0:0:
255,191,339836,5,0,0:0:0:0:
225,155,341683,1,0,0:0:0:0:
286,151,343529,1,0,0:0:0:0:
255,191,345375,1,0,0:0:0:0:
275,227,347221,2,0,P|220:171|246:229,1,220
175,127,349990,2,0,P|231:90|357:161,1,220
262,168,354606,2,0,B|196:17|26:79|257:351|257:351|521:125|355:16|276:157,1,880
