osu file format v14

[General]
AudioFilename: audio.mp3
AudioLeadIn: 0
PreviewTime: 120398
Countdown: 0
SampleSet: None
StackLeniency: 0.7
Mode: 3
LetterboxInBreaks: 0
SpecialStyle: 0
WidescreenStoryboard: 1

[Editor]
DistanceSpacing: 1.7
BeatDivisor: 4
GridSize: 8
TimelineZoom: 3

[Metadata]
Title:Edge of the Earth
TitleUnicode:Edge of the Earth
Artist:Thirty Seconds to Mars
ArtistUnicode:Thirty Seconds to Mars
Creator:Rivals_7
Version:Hitsound
Source:
Tags:Need For Speed Hot Pursuit OP Opening theme jared leto bob ezrin 30 brian virtue shannon leto solon bixler ASCAP EA Electronic arts criterion games racing
BeatmapID:1222712
BeatmapSetID:577723

[Difficulty]
HPDrainRate:8
CircleSize:4
OverallDifficulty:8
ApproachRate:5
SliderMultiplier:1.4
SliderTickRate:1

[Events]
//Background and Video events
0,0,"Wallpapers-Mine-homuraakemi225-37788684-1600-895.jpg",0,0
//Break Periods
2,111753,117017
//Storyboard Layer 0 (Background)
//Storyboard Layer 1 (Fail)
//Storyboard Layer 2 (Pass)
//Storyboard Layer 3 (Foreground)
//Storyboard Sound Samples

[TimingPoints]
9230,272.727272727273,4,2,1,40,1,0
9230,-100,4,2,1,40,0,1
14411,-100,4,2,1,40,0,0
17957,-100,4,2,1,40,0,1
26684,-100,4,2,1,40,0,0
63758,272.727272727273,4,2,1,40,1,0
81144,272.727272727273,4,2,1,40,1,0
118217,272.727272727273,4,2,1,40,1,0
120398,-100,4,2,1,40,0,1
128853,-100,4,2,1,40,0,0
129126,-100,4,2,1,40,0,1
137580,-100,4,2,1,40,0,0
137853,-100,4,2,1,40,0,1
146307,-100,4,2,1,40,0,0
146580,-100,4,2,1,40,0,1
155307,-100,4,2,1,40,0,0

[HitObjects]
64,192,9230,5,0,0:0:0:60:drum-hitfinish.wav
448,192,9230,1,0,0:0:0:60:drum-hitwhistle.wav
320,192,9366,1,0,0:0:0:60:hithat.wav
320,192,9502,1,0,0:0:0:60:hithat.wav
320,192,9639,1,0,0:0:0:60:hithat.wav
320,192,9775,1,0,0:0:0:60:hithat.wav
320,192,9911,1,0,0:0:0:60:hithat.wav
64,192,10048,1,0,0:0:0:60:drum-hitclap.wav
320,192,10184,1,0,0:0:0:60:hithat.wav
448,192,10320,1,0,0:0:0:60:drum-hitfinish.wav
448,192,10457,1,0,0:0:0:60:drum-hitfinish.wav
448,192,10593,1,0,0:0:0:60:drum-hitfinish.wav
192,192,10730,1,0,0:0:0:60:drum-hitwhistle.wav
320,192,10866,1,0,0:0:0:60:drum-hitclap.wav
320,192,11002,1,0,0:0:0:60:drum-hitclap.wav
320,192,11139,1,0,0:0:0:60:drum-hitclap.wav
320,192,11275,1,0,0:0:0:60:drum-hitclap.wav
64,192,11411,1,0,0:0:0:60:drum-hitwhistle.wav
192,192,11548,1,0,0:0:0:60:hithat.wav
192,192,11684,1,0,0:0:0:60:hithat.wav
192,192,11820,1,0,0:0:0:60:hithat.wav
192,192,11957,1,0,0:0:0:60:hithat.wav
320,192,12093,1,0,0:0:0:60:drum-hitwhistle.wav
192,192,12093,1,0,0:0:0:60:hithat.wav
448,192,12230,1,0,0:0:0:60:drum-hitclap.wav
64,192,12230,1,0,0:0:0:60:hithat.wav
320,192,12366,1,0,0:0:0:60:hithat.wav
192,192,12502,1,0,0:0:0:60:drum-hitfinish.wav
192,192,12639,1,0,0:0:0:60:drum-hitfinish.wav
192,192,12775,1,0,0:0:0:60:drum-hitfinish.wav
320,192,12911,1,0,0:0:0:60:drum-hitwhistle.wav
448,192,13048,1,0,0:0:0:60:drum-hitclap.wav
192,192,13184,1,0,0:0:0:60:hithat.wav
192,192,13320,1,0,0:0:0:60:hithat.wav
192,192,13457,1,0,0:0:0:60:hithat.wav
448,192,13457,1,0,0:0:0:60:drum-hitclap.wav
192,192,13593,1,0,0:0:0:60:hithat.wav
320,192,13593,1,0,0:0:0:60:drum-hitwhistle.wav
192,192,13730,1,0,0:0:0:60:hithat.wav
192,192,13866,1,0,0:0:0:60:hithat.wav
192,192,14002,1,0,0:0:0:60:hithat.wav
192,192,14139,1,0,0:0:0:60:hithat.wav
192,192,14275,1,0,0:0:0:60:hithat.wav
320,192,14275,1,0,0:0:0:60:drum-hitwhistle.wav
192,192,14411,1,0,0:0:0:60:hithat.wav
448,192,14411,1,0,0:0:0:60:drum-hitclap.wav
192,192,14548,1,0,0:0:0:60:hithat.wav
192,192,14684,1,0,0:0:0:60:hithat.wav
192,192,14820,1,0,0:0:0:60:hithat.wav
192,192,14957,1,0,0:0:0:60:hithat.wav
192,192,15093,1,0,0:0:0:60:hithat.wav
192,192,15230,1,0,0:0:0:60:hithat.wav
192,192,15366,1,0,0:0:0:60:hithat.wav
192,192,15502,1,0,0:0:0:60:hithat.wav
192,192,15639,1,0,0:0:0:60:hithat.wav
192,192,15775,1,0,0:0:0:60:hithat.wav
192,192,15911,1,0,0:0:0:60:hithat.wav
192,192,16048,1,0,0:0:0:60:hithat.wav
192,192,16184,1,0,0:0:0:60:hithat.wav
192,192,16320,1,0,0:0:0:60:hithat.wav
192,192,16457,1,0,0:0:0:60:hithat.wav
192,192,16593,1,0,0:0:0:60:hithat.wav
192,192,16730,1,0,0:0:0:60:drum-hitclap.wav
192,192,16798,1,0,0:0:0:60:drum-hitclap.wav
192,192,16866,1,0,0:0:0:60:drum-hitclap.wav
192,192,17002,1,0,0:0:0:60:drum-hitclap.wav
192,192,17139,1,0,0:0:0:60:drum-hitclap.wav
192,192,17275,1,0,0:0:0:60:drum-hitclap.wav
192,192,17411,1,0,0:0:0:60:drum-hitclap.wav
192,192,17548,1,0,0:0:0:60:drum-hitclap.wav
192,192,17684,1,0,0:0:0:60:drum-hitclap.wav
192,192,17820,1,0,0:0:0:60:drum-hitclap.wav
192,192,17957,1,0,0:0:0:60:drum-hitclap.wav
320,192,17957,1,0,0:0:0:60:drum-hitfinish.wav
320,192,18093,1,0,0:0:0:60:hithat.wav
320,192,18230,1,0,0:0:0:60:hithat.wav
320,192,18366,1,0,0:0:0:60:hithat.wav
320,192,18502,1,0,0:0:0:60:hithat.wav
320,192,18639,1,0,0:0:0:60:hithat.wav
64,192,18775,1,0,0:0:0:60:drum-hitclap.wav
320,192,18911,1,0,0:0:0:60:hithat.wav
448,192,19048,1,0,0:0:0:60:drum-hitfinish.wav
448,192,19184,1,0,0:0:0:60:drum-hitfinish.wav
448,192,19320,1,0,0:0:0:60:drum-hitfinish.wav
192,192,19457,1,0,0:0:0:60:drum-hitwhistle.wav
320,192,19593,1,0,0:0:0:60:drum-hitclap.wav
320,192,19730,1,0,0:0:0:60:drum-hitclap.wav
320,192,19866,1,0,0:0:0:60:drum-hitclap.wav
320,192,20002,1,0,0:0:0:60:drum-hitclap.wav
64,192,20139,1,0,0:0:0:60:drum-hitwhistle.wav
192,192,20275,1,0,0:0:0:60:hithat.wav
192,192,20411,1,0,0:0:0:60:hithat.wav
192,192,20548,1,0,0:0:0:60:hithat.wav
192,192,20684,1,0,0:0:0:60:hithat.wav
192,192,20820,1,0,0:0:0:60:hithat.wav
320,192,20820,1,0,0:0:0:60:drum-hitwhistle.wav
64,192,20957,1,0,0:0:0:60:hithat.wav
448,192,20957,1,0,0:0:0:60:drum-hitclap.wav
320,192,21093,1,0,0:0:0:60:hithat.wav
192,192,21230,1,0,0:0:0:60:drum-hitfinish.wav
192,192,21366,1,0,0:0:0:60:drum-hitfinish.wav
192,192,21502,1,0,0:0:0:60:drum-hitfinish.wav
320,192,21639,1,0,0:0:0:60:drum-hitwhistle.wav
448,192,21775,1,0,0:0:0:60:drum-hitclap.wav
192,192,21911,1,0,0:0:0:60:hithat.wav
192,192,22048,1,0,0:0:0:60:hithat.wav
448,192,22184,1,0,0:0:0:60:drum-hitclap.wav
192,192,22184,1,0,0:0:0:60:hithat.wav
320,192,22320,1,0,0:0:0:60:drum-hitwhistle.wav
192,192,22320,1,0,0:0:0:60:hithat.wav
192,192,22457,1,0,0:0:0:60:hithat.wav
192,192,22593,1,0,0:0:0:60:hithat.wav
192,192,22730,1,0,0:0:0:60:hithat.wav
192,192,22866,1,0,0:0:0:60:hithat.wav
320,192,23002,1,0,0:0:0:60:drum-hitwhistle.wav
192,192,23002,1,0,0:0:0:60:hithat.wav
448,192,23139,1,0,0:0:0:60:drum-hitclap.wav
192,192,23139,1,0,0:0:0:60:hithat.wav
448,192,23275,1,0,0:0:0:60:drum-hitclap.wav
192,192,23275,1,0,0:0:0:60:hithat.wav
192,192,23411,1,0,0:0:0:60:hithat.wav
192,192,23548,1,0,0:0:0:60:hithat.wav
192,192,23684,1,0,0:0:0:60:hithat.wav
192,192,23820,1,0,0:0:0:60:hithat.wav
192,192,23957,1,0,0:0:0:60:hithat.wav
320,192,23957,1,0,0:0:0:60:drum-hitwhistle.wav
192,192,24093,1,0,0:0:0:60:hithat.wav
192,192,24230,1,0,0:0:0:60:hithat.wav
192,192,24366,1,0,0:0:0:60:hithat.wav
192,192,24502,1,0,0:0:0:60:hithat.wav
320,192,24502,1,0,0:0:0:60:drum-hitwhistle.wav
192,192,24639,1,0,0:0:0:60:hithat.wav
192,192,24775,1,0,0:0:0:60:hithat.wav
320,192,24775,1,0,0:0:0:60:drum-hitwhistle.wav
192,192,24911,1,0,0:0:0:60:hithat.wav
448,192,24911,1,0,0:0:0:60:drum-hitclap.wav
192,192,25048,1,0,0:0:0:60:hithat.wav
192,192,25184,1,0,0:0:0:60:hithat.wav
320,192,25184,1,0,0:0:0:60:drum-hitwhistle.wav
448,192,25252,1,0,0:0:0:60:drum-hitwhistle.wav
192,192,25320,1,0,0:0:0:60:hithat.wav
320,192,25320,1,0,0:0:0:60:drum-hitwhistle.wav
192,192,25457,1,0,0:0:0:60:hithat.wav
192,192,25593,1,0,0:0:0:60:hithat.wav
320,192,25593,1,0,0:0:0:60:drum-hitwhistle.wav
192,192,25730,1,0,0:0:0:60:hithat.wav
448,192,25730,1,0,0:0:0:60:drum-hitclap.wav
192,192,25866,1,0,0:0:0:60:hithat.wav
448,192,25866,1,0,0:0:0:60:drum-hitclap.wav
192,192,26002,1,0,0:0:0:60:hithat.wav
64,192,26139,1,0,0:0:0:60:LR_Tom Hit.wav
64,192,26275,1,0,0:0:0:60:LR_Tom Hit.wav
448,192,26411,1,0,0:0:0:60:LR_Tom Normal.wav
448,192,26548,1,0,0:0:0:60:LR_Tom Normal.wav
64,192,26684,1,0,0:0:0:60:drum-hitnormal.wav
192,192,26684,1,0,0:0:0:60:drum-hitfinish.wav
448,192,26957,1,0,0:0:0:60:hithat.wav
448,192,27230,1,0,0:0:0:60:hithat.wav
192,192,27366,1,0,0:0:0:60:drum-hitwhistle.wav
320,192,27502,1,0,0:0:0:60:drum-hitclap.wav
448,192,27775,1,0,0:0:0:60:hithat.wav
448,192,28048,1,0,0:0:0:60:hithat.wav
192,192,28184,1,0,0:0:0:60:drum-hitwhistle.wav
320,192,28320,1,0,0:0:0:60:drum-hitclap.wav
448,192,28593,1,0,0:0:0:60:hithat.wav
448,192,28866,1,0,0:0:0:60:hithat.wav
192,192,28866,1,0,0:0:0:60:drum-hitwhistle.wav
448,192,29139,1,0,0:0:0:60:hithat.wav
448,192,29411,1,0,0:0:0:60:hithat.wav
192,192,29548,1,0,0:0:0:60:drum-hitwhistle.wav
320,192,29684,1,0,0:0:0:60:drum-hitclap.wav
448,192,29957,1,0,0:0:0:60:hithat.wav
448,192,30230,1,0,0:0:0:60:hithat.wav
192,192,30366,1,0,0:0:0:60:drum-hitwhistle.wav
320,192,30502,1,0,0:0:0:60:drum-hitclap.wav
448,192,30775,1,0,0:0:0:60:hithat.wav
320,192,30911,1,0,0:0:0:60:drum-hitclap.wav
192,192,31048,1,0,0:0:0:60:drum-hitwhistle.wav
448,192,31320,1,0,0:0:0:60:hithat.wav
448,192,31593,1,0,0:0:0:60:hithat.wav
192,192,31730,1,0,0:0:0:60:drum-hitwhistle.wav
320,192,31866,1,0,0:0:0:60:drum-hitclap.wav
448,192,32139,1,0,0:0:0:60:hithat.wav
448,192,32275,1,0,0:0:0:60:hithat.wav
448,192,32411,1,0,0:0:0:60:hithat.wav
192,192,32548,1,0,0:0:0:60:drum-hitwhistle.wav
320,192,32684,1,0,0:0:0:60:drum-hitclap.wav
448,192,32957,1,0,0:0:0:60:hithat.wav
448,192,33093,1,0,0:0:0:60:hithat.wav
448,192,33230,1,0,0:0:0:60:hithat.wav
192,192,33230,1,0,0:0:0:60:drum-hitwhistle.wav
448,192,33366,1,0,0:0:0:60:hithat.wav
448,192,33502,1,0,0:0:0:60:hithat.wav
448,192,33639,1,0,0:0:0:60:hithat.wav
448,192,33775,1,0,0:0:0:60:hithat.wav
192,192,33911,1,0,0:0:0:60:drum-hitwhistle.wav
320,192,34048,1,0,0:0:0:60:drum-hitclap.wav
448,192,34320,1,0,0:0:0:60:hithat.wav
448,192,34457,1,0,0:0:0:60:hithat.wav
448,192,34593,1,0,0:0:0:60:hithat.wav
192,192,34730,1,0,0:0:0:60:drum-hitwhistle.wav
320,192,34866,1,0,0:0:0:60:drum-hitclap.wav
192,192,35002,1,0,0:0:0:60:drum-hitwhistle.wav
320,192,35139,1,0,0:0:0:60:drum-hitclap.wav
320,192,35275,1,0,0:0:0:60:drum-hitclap.wav
64,192,35411,1,0,0:0:0:60:drum-hitwhistle.wav
192,192,35411,1,0,0:0:0:60:drum-hitfinish.wav
448,192,35684,1,0,0:0:0:60:hithat.wav
448,192,35957,1,0,0:0:0:60:hithat.wav
192,192,36093,1,0,0:0:0:60:drum-hitwhistle.wav
320,192,36230,1,0,0:0:0:60:drum-hitclap.wav
448,192,36502,1,0,0:0:0:60:hithat.wav
448,192,36775,1,0,0:0:0:60:hithat.wav
192,192,36911,1,0,0:0:0:60:drum-hitwhistle.wav
320,192,37048,1,0,0:0:0:60:drum-hitclap.wav
448,192,37320,1,0,0:0:0:60:hithat.wav
448,192,37593,1,0,0:0:0:60:hithat.wav
192,192,37593,1,0,0:0:0:60:drum-hitwhistle.wav
448,192,37866,1,0,0:0:0:60:hithat.wav
448,192,38139,1,0,0:0:0:60:hithat.wav
192,192,38275,1,0,0:0:0:60:drum-hitwhistle.wav
320,192,38411,1,0,0:0:0:60:drum-hitclap.wav
448,192,38684,1,0,0:0:0:60:hithat.wav
448,192,38957,1,0,0:0:0:60:hithat.wav
192,192,39093,1,0,0:0:0:60:drum-hitwhistle.wav
320,192,39230,1,0,0:0:0:60:drum-hitclap.wav
448,192,39502,1,0,0:0:0:60:hithat.wav
320,192,39639,1,0,0:0:0:60:drum-hitclap.wav
192,192,39775,1,0,0:0:0:60:drum-hitwhistle.wav
448,192,40048,1,0,0:0:0:60:hithat.wav
448,192,40320,1,0,0:0:0:60:hithat.wav
192,192,40457,1,0,0:0:0:60:drum-hitwhistle.wav
320,192,40593,1,0,0:0:0:60:drum-hitclap.wav
448,192,40866,1,0,0:0:0:60:hithat.wav
448,192,41002,1,0,0:0:0:60:hithat.wav
448,192,41139,1,0,0:0:0:60:hithat.wav
192,192,41275,1,0,0:0:0:60:drum-hitwhistle.wav
320,192,41411,1,0,0:0:0:60:drum-hitclap.wav
448,192,41684,1,0,0:0:0:60:hithat.wav
448,192,41820,1,0,0:0:0:60:hithat.wav
448,192,41957,1,0,0:0:0:60:hithat.wav
192,192,41957,1,0,0:0:0:60:drum-hitwhistle.wav
448,192,42093,1,0,0:0:0:60:hithat.wav
448,192,42230,1,0,0:0:0:60:hithat.wav
448,192,42366,1,0,0:0:0:60:hithat.wav
448,192,42502,1,0,0:0:0:60:hithat.wav
192,192,42639,1,0,0:0:0:60:drum-hitwhistle.wav
320,192,42775,1,0,0:0:0:60:drum-hitclap.wav
448,192,43048,1,0,0:0:0:60:hithat.wav
448,192,43184,1,0,0:0:0:60:hithat.wav
448,192,43320,1,0,0:0:0:60:hithat.wav
192,192,43457,1,0,0:0:0:60:drum-hitwhistle.wav
320,192,43593,1,0,0:0:0:60:drum-hitclap.wav
192,192,43730,1,0,0:0:0:60:drum-hitwhistle.wav
320,192,43866,1,0,0:0:0:60:drum-hitclap.wav
320,192,44002,1,0,0:0:0:60:drum-hitclap.wav
64,192,44139,1,0,0:0:0:60:drum-hitwhistle.wav
192,192,44139,1,0,0:0:0:60:drum-hitfinish.wav
448,192,44411,1,0,0:0:0:60:hithat.wav
448,192,44684,1,0,0:0:0:60:hithat.wav
192,192,44820,1,0,0:0:0:60:drum-hitwhistle.wav
320,192,44957,1,0,0:0:0:60:drum-hitclap.wav
448,192,45230,1,0,0:0:0:60:hithat.wav
448,192,45502,1,0,0:0:0:60:hithat.wav
192,192,45639,1,0,0:0:0:60:drum-hitwhistle.wav
320,192,45775,1,0,0:0:0:60:drum-hitclap.wav
448,192,46048,1,0,0:0:0:60:hithat.wav
192,192,46320,1,0,0:0:0:60:drum-hitwhistle.wav
448,192,46320,1,0,0:0:0:60:hithat.wav
448,192,46593,1,0,0:0:0:60:hithat.wav
448,192,46866,1,0,0:0:0:60:hithat.wav
192,192,47002,1,0,0:0:0:60:drum-hitwhistle.wav
320,192,47139,1,0,0:0:0:60:drum-hitclap.wav
448,192,47411,1,0,0:0:0:60:hithat.wav
448,192,47684,1,0,0:0:0:60:hithat.wav
192,192,47820,1,0,0:0:0:60:drum-hitwhistle.wav
320,192,47957,1,0,0:0:0:60:drum-hitclap.wav
448,192,48230,1,0,0:0:0:60:hithat.wav
320,192,48366,1,0,0:0:0:60:drum-hitclap.wav
192,192,48502,1,0,0:0:0:60:drum-hitwhistle.wav
448,192,48775,1,0,0:0:0:60:hithat.wav
448,192,49048,1,0,0:0:0:60:hithat.wav
192,192,49184,1,0,0:0:0:60:drum-hitwhistle.wav
320,192,49320,1,0,0:0:0:60:drum-hitclap.wav
448,192,49593,1,0,0:0:0:60:hithat.wav
448,192,49730,1,0,0:0:0:60:hithat.wav
448,192,49866,1,0,0:0:0:60:hithat.wav
192,192,50002,1,0,0:0:0:60:drum-hitwhistle.wav
320,192,50139,1,0,0:0:0:60:drum-hitclap.wav
448,192,50411,1,0,0:0:0:60:hithat.wav
448,192,50548,1,0,0:0:0:60:hithat.wav
192,192,50684,1,0,0:0:0:60:drum-hitwhistle.wav
448,192,50684,1,0,0:0:0:60:hithat.wav
448,192,50820,1,0,0:0:0:60:hithat.wav
448,192,50957,1,0,0:0:0:60:hithat.wav
448,192,51093,1,0,0:0:0:60:hithat.wav
448,192,51230,1,0,0:0:0:60:hithat.wav
192,192,51366,1,0,0:0:0:60:drum-hitwhistle.wav
320,192,51502,1,0,0:0:0:60:drum-hitclap.wav
448,192,51775,1,0,0:0:0:60:hithat.wav
448,192,51911,1,0,0:0:0:60:hithat.wav
448,192,52048,1,0,0:0:0:60:hithat.wav
192,192,52184,1,0,0:0:0:60:drum-hitwhistle.wav
320,192,52320,1,0,0:0:0:60:drum-hitclap.wav
192,192,52457,1,0,0:0:0:60:drum-hitwhistle.wav
320,192,52593,1,0,0:0:0:60:drum-hitclap.wav
320,192,52730,1,0,0:0:0:60:drum-hitclap.wav
192,192,52866,1,0,0:0:0:60:drum-hitfinish.wav
64,192,52866,1,0,0:0:0:60:drum-hitwhistle.wav
448,192,53139,1,0,0:0:0:60:hithat.wav
448,192,53411,1,0,0:0:0:60:hithat.wav
192,192,53548,1,0,0:0:0:60:drum-hitwhistle.wav
320,192,53684,1,0,0:0:0:60:drum-hitclap.wav
448,192,53957,1,0,0:0:0:60:hithat.wav
448,192,54230,1,0,0:0:0:60:hithat.wav
192,192,54366,1,0,0:0:0:60:drum-hitwhistle.wav
320,192,54502,1,0,0:0:0:60:drum-hitclap.wav
448,192,54775,1,0,0:0:0:60:hithat.wav
448,192,55048,1,0,0:0:0:60:hithat.wav
192,192,55048,1,0,0:0:0:60:drum-hitwhistle.wav
448,192,55320,1,0,0:0:0:60:hithat.wav
448,192,55593,1,0,0:0:0:60:hithat.wav
192,192,55730,1,0,0:0:0:60:drum-hitwhistle.wav
320,192,55866,1,0,0:0:0:60:drum-hitclap.wav
448,192,56139,1,0,0:0:0:60:hithat.wav
448,192,56411,1,0,0:0:0:60:hithat.wav
192,192,56548,1,0,0:0:0:60:drum-hitwhistle.wav
320,192,56684,1,0,0:0:0:60:drum-hitclap.wav
448,192,56957,1,0,0:0:0:60:hithat.wav
320,192,57093,1,0,0:0:0:60:drum-hitclap.wav
192,192,57230,1,0,0:0:0:60:drum-hitwhistle.wav
448,192,57502,1,0,0:0:0:60:hithat.wav
448,192,57775,1,0,0:0:0:60:hithat.wav
192,192,57911,1,0,0:0:0:60:drum-hitwhistle.wav
320,192,58048,1,0,0:0:0:60:drum-hitclap.wav
448,192,58320,1,0,0:0:0:60:hithat.wav
448,192,58457,1,0,0:0:0:60:hithat.wav
448,192,58593,1,0,0:0:0:60:hithat.wav
192,192,58730,1,0,0:0:0:60:drum-hitwhistle.wav
320,192,58866,1,0,0:0:0:60:drum-hitclap.wav
448,192,59139,1,0,0:0:0:60:hithat.wav
448,192,59275,1,0,0:0:0:60:hithat.wav
448,192,59411,1,0,0:0:0:60:hithat.wav
192,192,59411,1,0,0:0:0:60:drum-hitwhistle.wav
448,192,59548,1,0,0:0:0:60:hithat.wav
448,192,59684,1,0,0:0:0:60:hithat.wav
448,192,59820,1,0,0:0:0:60:hithat.wav
448,192,59957,1,0,0:0:0:60:hithat.wav
192,192,60093,1,0,0:0:0:60:drum-hitwhistle.wav
320,192,60230,1,0,0:0:0:60:drum-hitclap.wav
448,192,60502,1,0,0:0:0:60:hithat.wav
448,192,60639,1,0,0:0:0:60:hithat.wav
448,192,60775,1,0,0:0:0:60:hithat.wav
192,192,60911,1,0,0:0:0:60:drum-hitwhistle.wav
320,192,61048,1,0,0:0:0:60:drum-hitclap.wav
192,192,61184,1,0,0:0:0:60:drum-hitwhistle.wav
320,192,61320,1,0,0:0:0:60:drum-hitclap.wav
320,192,61457,1,0,0:0:0:60:drum-hitclap.wav
64,192,61593,1,0,0:0:0:60:drum-hitwhistle.wav
192,192,61593,1,0,0:0:0:60:drum-hitfinish.wav
64,192,63758,1,0,0:0:0:60:drum-hitwhistle.wav
192,192,63758,1,0,0:0:0:60:drum-hitfinish.wav
448,192,64030,1,0,0:0:0:60:hithat.wav
448,192,64303,1,0,0:0:0:60:hithat.wav
192,192,64439,1,0,0:0:0:60:drum-hitwhistle.wav
320,192,64576,1,0,0:0:0:60:drum-hitclap.wav
448,192,64848,1,0,0:0:0:60:hithat.wav
448,192,65121,1,0,0:0:0:60:hithat.wav
192,192,65258,1,0,0:0:0:60:drum-hitwhistle.wav
320,192,65394,1,0,0:0:0:60:drum-hitclap.wav
448,192,65667,1,0,0:0:0:60:hithat.wav
192,192,65939,1,0,0:0:0:60:drum-hitwhistle.wav
448,192,65939,1,0,0:0:0:60:hithat.wav
448,192,66212,1,0,0:0:0:60:hithat.wav
448,192,66485,1,0,0:0:0:60:hithat.wav
192,192,66621,1,0,0:0:0:60:drum-hitwhistle.wav
320,192,66758,1,0,0:0:0:60:drum-hitclap.wav
448,192,67030,1,0,0:0:0:60:hithat.wav
448,192,67303,1,0,0:0:0:60:hithat.wav
192,192,67439,1,0,0:0:0:60:drum-hitwhistle.wav
320,192,67576,1,0,0:0:0:60:drum-hitclap.wav
192,192,67712,1,0,0:0:0:60:drum-hitwhistle.wav
448,192,67848,1,0,0:0:0:60:hithat.wav
320,192,67985,1,0,0:0:0:60:drum-hitclap.wav
192,192,68121,1,0,0:0:0:60:drum-hitwhistle.wav
448,192,68394,1,0,0:0:0:60:hithat.wav
448,192,68667,1,0,0:0:0:60:hithat.wav
192,192,68803,1,0,0:0:0:60:drum-hitwhistle.wav
320,192,68939,1,0,0:0:0:60:drum-hitclap.wav
448,192,69212,1,0,0:0:0:60:hithat.wav
448,192,69348,1,0,0:0:0:60:hithat.wav
448,192,69485,1,0,0:0:0:60:hithat.wav
192,192,69621,1,0,0:0:0:60:drum-hitwhistle.wav
320,192,69758,1,0,0:0:0:60:drum-hitclap.wav
448,192,70030,1,0,0:0:0:60:hithat.wav
448,192,70167,1,0,0:0:0:60:hithat.wav
192,192,70303,1,0,0:0:0:60:drum-hitwhistle.wav
448,192,70303,1,0,0:0:0:60:hithat.wav
448,192,70439,1,0,0:0:0:60:hithat.wav
448,192,70576,1,0,0:0:0:60:hithat.wav
448,192,70712,1,0,0:0:0:60:hithat.wav
448,192,70848,1,0,0:0:0:60:hithat.wav
192,192,70985,1,0,0:0:0:60:drum-hitwhistle.wav
320,192,71121,1,0,0:0:0:60:drum-hitclap.wav
192,192,71258,1,0,0:0:0:60:drum-hitwhistle.wav
448,192,71394,1,0,0:0:0:60:hithat.wav
448,192,71530,1,0,0:0:0:60:hithat.wav
448,192,71667,1,0,0:0:0:60:hithat.wav
192,192,71803,1,0,0:0:0:60:drum-hitwhistle.wav
320,192,71939,1,0,0:0:0:60:drum-hitclap.wav
192,192,72076,1,0,0:0:0:60:drum-hitwhistle.wav
320,192,72212,1,0,0:0:0:60:drum-hitclap.wav
320,192,72348,1,0,0:0:0:60:drum-hitclap.wav
192,192,72485,1,0,0:0:0:60:drum-hitfinish.wav
64,192,72485,1,0,0:0:0:60:drum-hitwhistle.wav
448,192,72758,1,0,0:0:0:60:hithat.wav
448,192,73030,1,0,0:0:0:60:hithat.wav
192,192,73167,1,0,0:0:0:60:drum-hitwhistle.wav
320,192,73303,1,0,0:0:0:60:drum-hitclap.wav
448,192,73576,1,0,0:0:0:60:hithat.wav
448,192,73848,1,0,0:0:0:60:hithat.wav
192,192,73985,1,0,0:0:0:60:drum-hitwhistle.wav
320,192,74121,1,0,0:0:0:60:drum-hitclap.wav
448,192,74394,1,0,0:0:0:60:hithat.wav
192,192,74667,1,0,0:0:0:60:drum-hitwhistle.wav
448,192,74667,1,0,0:0:0:60:hithat.wav
448,192,74939,1,0,0:0:0:60:hithat.wav
448,192,75076,1,0,0:0:0:60:hithat.wav
448,192,75212,1,0,0:0:0:60:hithat.wav
192,192,75348,1,0,0:0:0:60:drum-hitwhistle.wav
320,192,75485,1,0,0:0:0:60:drum-hitclap.wav
448,192,75758,1,0,0:0:0:60:hithat.wav
448,192,76030,1,0,0:0:0:60:hithat.wav
192,192,76167,1,0,0:0:0:60:drum-hitwhistle.wav
320,192,76303,1,0,0:0:0:60:drum-hitclap.wav
448,192,76439,1,0,0:0:0:60:hithat.wav
448,192,76576,1,0,0:0:0:60:hithat.wav
320,192,76712,1,0,0:0:0:60:drum-hitclap.wav
192,192,76848,1,0,0:0:0:60:drum-hitwhistle.wav
448,192,77121,1,0,0:0:0:60:hithat.wav
448,192,77394,1,0,0:0:0:60:hithat.wav
192,192,77530,1,0,0:0:0:60:drum-hitwhistle.wav
320,192,77667,1,0,0:0:0:60:drum-hitclap.wav
448,192,77939,1,0,0:0:0:60:hithat.wav
448,192,78076,1,0,0:0:0:60:hithat.wav
448,192,78212,1,0,0:0:0:60:hithat.wav
192,192,78348,1,0,0:0:0:60:drum-hitwhistle.wav
320,192,78485,1,0,0:0:0:60:drum-hitclap.wav
448,192,78758,1,0,0:0:0:60:hithat.wav
448,192,78894,1,0,0:0:0:60:hithat.wav
192,192,79030,1,0,0:0:0:60:drum-hitwhistle.wav
448,192,79030,1,0,0:0:0:60:hithat.wav
64,192,81144,1,0,0:0:0:60:drum-hitclap.wav
448,192,81144,1,0,0:0:0:60:drum-hitfinish.wav
192,192,81144,1,0,0:0:0:60:drum-hitwhistle.wav
320,192,81962,1,0,0:0:0:60:drum-hitclap.wav
192,192,82780,1,0,0:0:0:60:drum-hitwhistle.wav
192,192,83325,1,0,0:0:0:60:drum-hitwhistle.wav
320,192,84144,1,0,0:0:0:60:drum-hitclap.wav
64,192,84962,1,0,0:0:0:60:LR_Tom Hit.wav
64,192,85098,1,0,0:0:0:60:LR_Tom Hit.wav
448,192,85234,1,0,0:0:0:60:LR_Tom Normal.wav
448,192,85371,1,0,0:0:0:60:LR_Tom Normal.wav
64,192,85507,1,0,0:0:0:60:drum-hitfinish.wav
192,192,85507,1,0,0:0:0:60:drum-hitwhistle.wav
320,192,86325,1,0,0:0:0:60:drum-hitclap.wav
192,192,87144,1,0,0:0:0:60:drum-hitwhistle.wav
192,192,87689,1,0,0:0:0:60:drum-hitwhistle.wav
320,192,87962,1,0,0:0:0:60:drum-hitclap.wav
320,192,88098,1,0,0:0:0:60:drum-hitclap.wav
320,192,88234,1,0,0:0:0:60:drum-hitclap.wav
320,192,88371,1,0,0:0:0:60:drum-hitclap.wav
64,192,88507,1,0,0:0:0:60:LR_Tom Hit.wav
64,192,88644,1,0,0:0:0:60:LR_Tom Hit.wav
320,192,88780,1,0,0:0:0:60:drum-hitclap.wav
64,192,88916,1,0,0:0:0:60:LR_Tom Hit.wav
320,192,89053,1,0,0:0:0:60:drum-hitclap.wav
64,192,89189,1,0,0:0:0:60:LR_Tom Hit.wav
320,192,89325,1,0,0:0:0:60:drum-hitclap.wav
320,192,89462,1,0,0:0:0:60:drum-hitclap.wav
64,192,89598,1,0,0:0:0:60:LR_Tom Normal.wav
64,192,89734,1,0,0:0:0:60:LR_Tom Normal.wav
64,192,89871,1,0,0:0:0:60:drum-hitclap.wav
448,192,89871,1,0,0:0:0:60:drum-hitfinish.wav
192,192,89871,1,0,0:0:0:60:drum-hitwhistle.wav
320,192,90689,1,0,0:0:0:60:drum-hitclap.wav
192,192,91507,1,0,0:0:0:60:drum-hitwhistle.wav
192,192,92053,1,0,0:0:0:60:drum-hitwhistle.wav
320,192,92871,1,0,0:0:0:60:drum-hitclap.wav
64,192,93689,1,0,0:0:0:60:LR_Tom Hit.wav
64,192,93825,1,0,0:0:0:60:LR_Tom Hit.wav
448,192,93962,1,0,0:0:0:60:LR_Tom Normal.wav
448,192,94098,1,0,0:0:0:60:LR_Tom Normal.wav
64,192,94234,1,0,0:0:0:60:drum-hitfinish.wav
192,192,94234,1,0,0:0:0:60:drum-hitwhistle.wav
320,192,95053,1,0,0:0:0:60:drum-hitclap.wav
192,192,95871,1,0,0:0:0:60:drum-hitwhistle.wav
192,192,96416,1,0,0:0:0:60:drum-hitwhistle.wav
320,192,96689,1,0,0:0:0:60:drum-hitclap.wav
320,192,96825,1,0,0:0:0:60:drum-hitclap.wav
320,192,96962,1,0,0:0:0:60:drum-hitclap.wav
320,192,97098,1,0,0:0:0:60:drum-hitclap.wav
64,192,97234,1,0,0:0:0:60:LR_Tom Hit.wav
64,192,97371,1,0,0:0:0:60:LR_Tom Hit.wav
320,192,97507,1,0,0:0:0:60:drum-hitclap.wav
64,192,97644,1,0,0:0:0:60:LR_Tom Hit.wav
64,192,97712,1,0,0:0:0:60:LR_Tom Hit.wav
320,192,97780,1,0,0:0:0:60:drum-hitclap.wav
64,192,97916,1,0,0:0:0:60:LR_Tom Hit.wav
320,192,98053,1,0,0:0:0:60:drum-hitclap.wav
320,192,98189,1,0,0:0:0:60:drum-hitclap.wav
64,192,98325,1,0,0:0:0:60:LR_Tom Normal.wav
64,192,98462,1,0,0:0:0:60:LR_Tom Normal.wav
192,192,98598,1,0,0:0:0:60:drum-hitwhistle.wav
448,192,98598,1,0,0:0:0:60:drum-hitfinish.wav
64,192,99007,1,0,0:0:0:60:drum-hitwhistle.wav
448,192,99144,1,0,0:0:0:60:hithat.wav
64,192,99416,1,0,0:0:0:60:drum-hitclap.wav
448,192,99689,1,0,0:0:0:60:hithat.wav
448,192,100234,1,0,0:0:0:60:hithat.wav
448,192,100780,1,0,0:0:0:60:hithat.wav
192,192,101189,1,0,0:0:0:60:drum-hitwhistle.wav
448,192,101325,1,0,0:0:0:60:hithat.wav
64,192,101598,1,0,0:0:0:60:drum-hitclap.wav
448,192,101871,1,0,0:0:0:60:hithat.wav
448,192,102416,1,0,0:0:0:60:hithat.wav
448,192,102962,1,0,0:0:0:60:hithat.wav
64,192,102962,1,0,0:0:0:60:drum-hitfinish.wav
64,192,103371,1,0,0:0:0:60:drum-hitwhistle.wav
320,192,103507,1,0,0:0:0:60:hithat.wav
64,192,103780,1,0,0:0:0:60:drum-hitclap.wav
320,192,104053,1,0,0:0:0:60:hithat.wav
64,192,104325,1,0,0:0:0:60:drum-hitwhistle.wav
64,192,104598,1,0,0:0:0:60:drum-hitwhistle.wav
192,192,104734,1,0,0:0:0:60:drum-hitclap.wav
320,192,105144,1,0,0:0:0:60:hithat.wav
64,192,105144,1,0,0:0:0:60:drum-hitwhistle.wav
64,192,105553,1,0,0:0:0:60:drum-hitwhistle.wav
320,192,105689,1,0,0:0:0:60:hithat.wav
64,192,105962,1,0,0:0:0:60:drum-hitclap.wav
320,192,106234,1,0,0:0:0:60:hithat.wav
64,192,106371,1,0,0:0:0:60:drum-hitclap.wav
64,192,106507,1,0,0:0:0:60:drum-hitclap.wav
64,192,106644,1,0,0:0:0:60:drum-hitclap.wav
64,192,106780,1,0,0:0:0:60:drum-hitclap.wav
64,192,106916,1,0,0:0:0:60:drum-hitclap.wav
192,192,106916,1,0,0:0:0:60:drum-hitfinish.wav
64,192,107053,1,0,0:0:0:60:drum-hitclap.wav
192,192,107053,1,0,0:0:0:60:drum-hitfinish.wav
64,192,107189,1,0,0:0:0:60:drum-hitclap.wav
64,192,107325,1,0,0:0:0:60:drum-hitclap.wav
192,192,107325,1,0,0:0:0:60:drum-hitfinish.wav
64,192,107734,1,0,0:0:0:60:drum-hitwhistle.wav
448,192,107871,1,0,0:0:0:60:hithat.wav
64,192,108144,1,0,0:0:0:60:drum-hitclap.wav
448,192,108416,1,0,0:0:0:60:hithat.wav
192,192,108689,1,0,0:0:0:60:drum-hitwhistle.wav
192,192,108962,1,0,0:0:0:60:drum-hitwhistle.wav
320,192,109098,1,0,0:0:0:60:drum-hitclap.wav
64,192,109507,1,0,0:0:0:60:drum-hitwhistle.wav
448,192,109507,1,0,0:0:0:60:hithat.wav
64,192,109916,1,0,0:0:0:60:drum-hitwhistle.wav
448,192,110053,1,0,0:0:0:60:hithat.wav
64,192,110325,1,0,0:0:0:60:drum-hitclap.wav
448,192,110598,1,0,0:0:0:60:hithat.wav
192,192,110871,1,0,0:0:0:60:LR_Tom Hit.wav
192,192,111007,1,0,0:0:0:60:LR_Tom Hit.wav
192,192,111144,1,0,0:0:0:60:LR_Tom Normal.wav
192,192,111280,1,0,0:0:0:60:LR_Tom Normal.wav
192,192,111416,1,0,0:0:0:60:LR_Tom Normal.wav
192,192,111553,1,0,0:0:0:60:LR_Tom Normal.wav
64,192,118217,5,0,0:0:0:60:drum-hitwhistle.wav
448,192,118217,1,0,0:0:0:60:drum-hitfinish.wav
320,192,118489,1,0,0:0:0:60:drum-hitclap.wav
320,192,118626,1,0,0:0:0:60:drum-hitclap.wav
320,192,118762,1,0,0:0:0:60:drum-hitclap.wav
320,192,118898,1,0,0:0:0:60:drum-hitclap.wav
192,192,119035,1,0,0:0:0:60:drum-hitwhistle.wav
192,192,119171,1,0,0:0:0:60:drum-hitwhistle.wav
320,192,119307,1,0,0:0:0:60:drum-hitclap.wav
320,192,119444,1,0,0:0:0:60:drum-hitclap.wav
192,192,119580,1,0,0:0:0:60:LR_Tom Hit.wav
192,192,119717,1,0,0:0:0:60:LR_Tom Hit.wav
64,192,119853,1,0,0:0:0:60:LR_Tom Normal.wav
64,192,119989,1,0,0:0:0:60:LR_Tom Normal.wav
64,192,120126,1,0,0:0:0:60:LR_Tom Normal.wav
64,192,120262,1,0,0:0:0:60:LR_Tom Normal.wav
320,192,120398,1,0,0:0:0:60:drum-hitwhistle.wav
448,192,120398,1,0,0:0:0:60:drum-hitfinish.wav
192,192,121217,1,0,0:0:0:60:drum-hitclap.wav
320,192,122035,1,0,0:0:0:60:drum-hitwhistle.wav
320,192,122580,1,0,0:0:0:60:drum-hitwhistle.wav
192,192,123398,1,0,0:0:0:60:drum-hitclap.wav
64,192,124217,1,0,0:0:0:60:LR_Tom Hit.wav
64,192,124353,1,0,0:0:0:60:LR_Tom Hit.wav
448,192,124489,1,0,0:0:0:60:LR_Tom Normal.wav
448,192,124626,1,0,0:0:0:60:LR_Tom Normal.wav
192,192,124762,1,0,0:0:0:60:drum-hitwhistle.wav
64,192,124762,1,0,0:0:0:60:drum-hitfinish.wav
320,192,125580,1,0,0:0:0:60:drum-hitclap.wav
192,192,126398,1,0,0:0:0:60:drum-hitwhistle.wav
192,192,126944,1,0,0:0:0:60:drum-hitwhistle.wav
320,192,127217,1,0,0:0:0:60:drum-hitclap.wav
320,192,127353,1,0,0:0:0:60:drum-hitclap.wav
320,192,127489,1,0,0:0:0:60:drum-hitclap.wav
320,192,127626,1,0,0:0:0:60:drum-hitclap.wav
64,192,127762,1,0,0:0:0:60:LR_Tom Hit.wav
64,192,127898,1,0,0:0:0:60:LR_Tom Hit.wav
320,192,128035,1,0,0:0:0:60:drum-hitclap.wav
64,192,128171,1,0,0:0:0:60:LR_Tom Hit.wav
320,192,128307,1,0,0:0:0:60:drum-hitclap.wav
64,192,128444,1,0,0:0:0:60:LR_Tom Hit.wav
320,192,128580,1,0,0:0:0:60:drum-hitclap.wav
64,192,128717,1,0,0:0:0:60:LR_Tom Hit.wav
320,192,128853,1,0,0:0:0:60:drum-hitclap.wav
64,192,128989,1,0,0:0:0:60:LR_Tom Normal.wav
448,192,129126,1,0,0:0:0:60:drum-hitfinish.wav
320,192,129126,1,0,0:0:0:60:drum-hitwhistle.wav
192,192,129944,1,0,0:0:0:60:drum-hitclap.wav
320,192,130762,1,0,0:0:0:60:drum-hitwhistle.wav
320,192,131307,1,0,0:0:0:60:drum-hitfinish.wav
64,192,131307,1,0,0:0:0:60:drum-hitwhistle.wav
192,192,132126,1,0,0:0:0:60:drum-hitclap.wav
64,192,132944,1,0,0:0:0:60:LR_Tom Hit.wav
64,192,133080,1,0,0:0:0:60:LR_Tom Hit.wav
448,192,133217,1,0,0:0:0:60:LR_Tom Normal.wav
448,192,133353,1,0,0:0:0:60:LR_Tom Normal.wav
64,192,133489,1,0,0:0:0:60:drum-hitfinish.wav
192,192,133489,1,0,0:0:0:60:drum-hitwhistle.wav
320,192,134307,1,0,0:0:0:60:drum-hitclap.wav
192,192,135126,1,0,0:0:0:60:drum-hitwhistle.wav
192,192,135671,1,0,0:0:0:60:drum-hitwhistle.wav
320,192,135944,1,0,0:0:0:60:drum-hitclap.wav
320,192,136080,1,0,0:0:0:60:drum-hitclap.wav
320,192,136217,1,0,0:0:0:60:drum-hitclap.wav
320,192,136353,1,0,0:0:0:60:drum-hitclap.wav
64,192,136489,1,0,0:0:0:60:LR_Tom Hit.wav
64,192,136626,1,0,0:0:0:60:drum-hitclap.wav
320,192,136762,1,0,0:0:0:60:drum-hitclap.wav
64,192,136898,1,0,0:0:0:60:drum-hitclap.wav
320,192,137035,1,0,0:0:0:60:drum-hitclap.wav
64,192,137171,1,0,0:0:0:60:drum-hitclap.wav
320,192,137307,1,0,0:0:0:60:drum-hitclap.wav
64,192,137444,1,0,0:0:0:60:drum-hitclap.wav
320,192,137580,1,0,0:0:0:60:drum-hitclap.wav
64,192,137648,1,0,0:0:0:60:LR_Tom Normal.wav
64,192,137717,1,0,0:0:0:60:LR_Tom Normal.wav
64,192,137853,5,0,0:0:0:60:drum-hitfinish.wav
448,192,137853,1,0,0:0:0:60:drum-hitwhistle.wav
320,192,137989,1,0,0:0:0:60:hithat.wav
320,192,138126,1,0,0:0:0:60:hithat.wav
320,192,138262,1,0,0:0:0:60:hithat.wav
320,192,138398,1,0,0:0:0:60:hithat.wav
320,192,138535,1,0,0:0:0:60:hithat.wav
64,192,138671,1,0,0:0:0:60:drum-hitclap.wav
320,192,138807,1,0,0:0:0:60:hithat.wav
448,192,138944,1,0,0:0:0:60:drum-hitfinish.wav
448,192,139080,1,0,0:0:0:60:drum-hitfinish.wav
448,192,139217,1,0,0:0:0:60:drum-hitfinish.wav
192,192,139353,1,0,0:0:0:60:drum-hitwhistle.wav
320,192,139489,1,0,0:0:0:60:drum-hitclap.wav
320,192,139626,1,0,0:0:0:60:drum-hitclap.wav
320,192,139762,1,0,0:0:0:60:drum-hitclap.wav
320,192,139898,1,0,0:0:0:60:drum-hitclap.wav
64,192,140035,1,0,0:0:0:60:drum-hitwhistle.wav
192,192,140171,1,0,0:0:0:60:hithat.wav
192,192,140307,1,0,0:0:0:60:hithat.wav
192,192,140444,1,0,0:0:0:60:hithat.wav
192,192,140580,1,0,0:0:0:60:hithat.wav
320,192,140717,1,0,0:0:0:60:drum-hitwhistle.wav
192,192,140717,1,0,0:0:0:60:hithat.wav
448,192,140853,1,0,0:0:0:60:drum-hitclap.wav
64,192,140853,1,0,0:0:0:60:hithat.wav
320,192,140989,1,0,0:0:0:60:hithat.wav
192,192,141126,1,0,0:0:0:60:drum-hitfinish.wav
192,192,141262,1,0,0:0:0:60:drum-hitfinish.wav
192,192,141398,1,0,0:0:0:60:drum-hitfinish.wav
320,192,141535,1,0,0:0:0:60:drum-hitwhistle.wav
448,192,141671,1,0,0:0:0:60:drum-hitclap.wav
192,192,141807,1,0,0:0:0:60:hithat.wav
192,192,141944,1,0,0:0:0:60:hithat.wav
192,192,142080,1,0,0:0:0:60:hithat.wav
448,192,142080,1,0,0:0:0:60:drum-hitclap.wav
192,192,142217,1,0,0:0:0:60:hithat.wav
320,192,142217,1,0,0:0:0:60:drum-hitwhistle.wav
192,192,142353,1,0,0:0:0:60:hithat.wav
192,192,142489,1,0,0:0:0:60:hithat.wav
192,192,142626,1,0,0:0:0:60:hithat.wav
192,192,142762,1,0,0:0:0:60:hithat.wav
192,192,142898,1,0,0:0:0:60:hithat.wav
320,192,142898,1,0,0:0:0:60:drum-hitwhistle.wav
192,192,143035,1,0,0:0:0:60:hithat.wav
448,192,143035,1,0,0:0:0:60:drum-hitclap.wav
192,192,143171,1,0,0:0:0:60:hithat.wav
192,192,143307,1,0,0:0:0:60:hithat.wav
192,192,143444,1,0,0:0:0:60:hithat.wav
192,192,143580,1,0,0:0:0:60:hithat.wav
192,192,143717,1,0,0:0:0:60:hithat.wav
320,192,143717,1,0,0:0:0:60:drum-hitwhistle.wav
192,192,143853,1,0,0:0:0:60:hithat.wav
448,192,143853,1,0,0:0:0:60:drum-hitclap.wav
192,192,143989,1,0,0:0:0:60:hithat.wav
192,192,144126,1,0,0:0:0:60:hithat.wav
448,192,144126,1,0,0:0:0:60:drum-hitclap.wav
192,192,144262,1,0,0:0:0:60:hithat.wav
192,192,144398,1,0,0:0:0:60:hithat.wav
320,192,144398,1,0,0:0:0:60:drum-hitwhistle.wav
192,192,144535,1,0,0:0:0:60:hithat.wav
192,192,144671,1,0,0:0:0:60:hithat.wav
192,192,144807,1,0,0:0:0:60:hithat.wav
192,192,144944,1,0,0:0:0:60:hithat.wav
192,192,145080,1,0,0:0:0:60:hithat.wav
448,192,145080,1,0,0:0:0:60:drum-hitwhistle.wav
192,192,145217,1,0,0:0:0:60:hithat.wav
320,192,145217,1,0,0:0:0:60:drum-hitclap.wav
192,192,145353,1,0,0:0:0:60:drum-hitclap.wav
192,192,145421,1,0,0:0:0:60:drum-hitclap.wav
192,192,145489,1,0,0:0:0:60:drum-hitclap.wav
192,192,145626,1,0,0:0:0:60:drum-hitclap.wav
192,192,145762,1,0,0:0:0:60:drum-hitclap.wav
192,192,145898,1,0,0:0:0:60:drum-hitclap.wav
192,192,146035,1,0,0:0:0:60:drum-hitclap.wav
192,192,146171,1,0,0:0:0:60:drum-hitclap.wav
192,192,146307,1,0,0:0:0:60:drum-hitclap.wav
192,192,146444,1,0,0:0:0:60:drum-hitclap.wav
192,192,146580,1,0,0:0:0:60:drum-hitclap.wav
320,192,146580,1,0,0:0:0:60:drum-hitfinish.wav
320,192,146717,1,0,0:0:0:60:hithat.wav
320,192,146853,1,0,0:0:0:60:hithat.wav
320,192,146989,1,0,0:0:0:60:hithat.wav
320,192,147126,1,0,0:0:0:60:hithat.wav
320,192,147262,1,0,0:0:0:60:hithat.wav
64,192,147398,1,0,0:0:0:60:drum-hitclap.wav
320,192,147535,1,0,0:0:0:60:hithat.wav
448,192,147671,1,0,0:0:0:60:drum-hitfinish.wav
448,192,147807,1,0,0:0:0:60:drum-hitfinish.wav
448,192,147944,1,0,0:0:0:60:drum-hitfinish.wav
192,192,148080,1,0,0:0:0:60:drum-hitwhistle.wav
320,192,148217,1,0,0:0:0:60:drum-hitclap.wav
320,192,148353,1,0,0:0:0:60:drum-hitclap.wav
320,192,148489,1,0,0:0:0:60:drum-hitclap.wav
320,192,148626,1,0,0:0:0:60:drum-hitclap.wav
64,192,148762,1,0,0:0:0:60:drum-hitwhistle.wav
192,192,148898,1,0,0:0:0:60:hithat.wav
192,192,149035,1,0,0:0:0:60:hithat.wav
192,192,149171,1,0,0:0:0:60:hithat.wav
192,192,149307,1,0,0:0:0:60:hithat.wav
192,192,149444,1,0,0:0:0:60:hithat.wav
320,192,149444,1,0,0:0:0:60:drum-hitwhistle.wav
64,192,149580,1,0,0:0:0:60:hithat.wav
448,192,149580,1,0,0:0:0:60:drum-hitclap.wav
320,192,149717,1,0,0:0:0:60:hithat.wav
192,192,149853,1,0,0:0:0:60:drum-hitfinish.wav
192,192,149989,1,0,0:0:0:60:drum-hitfinish.wav
192,192,150126,1,0,0:0:0:60:drum-hitfinish.wav
320,192,150262,1,0,0:0:0:60:drum-hitwhistle.wav
448,192,150398,1,0,0:0:0:60:drum-hitclap.wav
192,192,150535,1,0,0:0:0:60:hithat.wav
192,192,150671,1,0,0:0:0:60:hithat.wav
448,192,150807,1,0,0:0:0:60:drum-hitclap.wav
192,192,150807,1,0,0:0:0:60:hithat.wav
320,192,150944,1,0,0:0:0:60:drum-hitwhistle.wav
192,192,150944,1,0,0:0:0:60:hithat.wav
192,192,151080,1,0,0:0:0:60:hithat.wav
192,192,151217,1,0,0:0:0:60:hithat.wav
192,192,151353,1,0,0:0:0:60:hithat.wav
192,192,151489,1,0,0:0:0:60:hithat.wav
320,192,151626,1,0,0:0:0:60:drum-hitwhistle.wav
192,192,151626,1,0,0:0:0:60:hithat.wav
448,192,151762,1,0,0:0:0:60:drum-hitclap.wav
192,192,151762,1,0,0:0:0:60:hithat.wav
448,192,151898,1,0,0:0:0:60:drum-hitclap.wav
192,192,151898,1,0,0:0:0:60:hithat.wav
192,192,152035,1,0,0:0:0:60:hithat.wav
192,192,152171,1,0,0:0:0:60:hithat.wav
192,192,152307,1,0,0:0:0:60:hithat.wav
192,192,152444,1,0,0:0:0:60:hithat.wav
192,192,152580,1,0,0:0:0:60:hithat.wav
320,192,152580,1,0,0:0:0:60:drum-hitwhistle.wav
192,192,152717,1,0,0:0:0:60:hithat.wav
192,192,152853,1,0,0:0:0:60:hithat.wav
192,192,152989,1,0,0:0:0:60:hithat.wav
192,192,153126,1,0,0:0:0:60:hithat.wav
320,192,153126,1,0,0:0:0:60:drum-hitwhistle.wav
192,192,153262,1,0,0:0:0:60:hithat.wav
192,192,153398,1,0,0:0:0:60:hithat.wav
320,192,153398,1,0,0:0:0:60:drum-hitwhistle.wav
192,192,153535,1,0,0:0:0:60:hithat.wav
448,192,153535,1,0,0:0:0:60:drum-hitclap.wav
192,192,153671,1,0,0:0:0:60:hithat.wav
192,192,153807,1,0,0:0:0:60:hithat.wav
320,192,153807,1,0,0:0:0:60:drum-hitwhistle.wav
448,192,153876,1,0,0:0:0:60:drum-hitwhistle.wav
192,192,153944,1,0,0:0:0:60:hithat.wav
320,192,153944,1,0,0:0:0:60:drum-hitwhistle.wav
192,192,154080,1,0,0:0:0:60:hithat.wav
192,192,154217,1,0,0:0:0:60:hithat.wav
320,192,154217,1,0,0:0:0:60:drum-hitwhistle.wav
192,192,154353,1,0,0:0:0:60:hithat.wav
448,192,154353,1,0,0:0:0:60:drum-hitclap.wav
192,192,154489,1,0,0:0:0:60:hithat.wav
448,192,154489,1,0,0:0:0:60:drum-hitclap.wav
192,192,154626,1,0,0:0:0:60:hithat.wav
64,192,154762,1,0,0:0:0:60:LR_Tom Hit.wav
64,192,154898,1,0,0:0:0:60:LR_Tom Hit.wav
448,192,155035,1,0,0:0:0:60:LR_Tom Normal.wav
448,192,155171,1,0,0:0:0:60:LR_Tom Normal.wav
