osu file format v14

[General]
AudioFilename: audio.mp3
AudioLeadIn: 0
PreviewTime: 128662
Countdown: 0
SampleSet: Soft
StackLeniency: 0.2
Mode: 0
LetterboxInBreaks: 0
WidescreenStoryboard: 0

[Editor]
Bookmarks: 12197,19054,32769,46483,60197,73912,87626,101340,115054,128769,142483,156197,169912,183626,193912,200769,214483,228197,241912,255626,258197,262054
DistanceSpacing: 2
BeatDivisor: 4
GridSize: 4
TimelineZoom: 2.6

[Metadata]
Title:Closer To The Edge
TitleUnicode:Closer To The Edge
Artist:Thirty Seconds To Mars
ArtistUnicode:Thirty Seconds To Mars
Creator:Mao
Version:End
Source:
Tags:lmt this is war progressive virgin emi jared leto
BeatmapID:1739177
BeatmapSetID:830051

[Difficulty]
HPDrainRate:5.5
CircleSize:3
OverallDifficulty:8
ApproachRate:9
SliderMultiplier:0.999999999999999
SliderTickRate:1

[Events]
//Background and Video events
0,0,"bg.jpg",0,0
//Break Periods
//Storyboard Layer 0 (Background)
//Storyboard Layer 1 (Fail)
//Storyboard Layer 2 (Pass)
//Storyboard Layer 3 (Foreground)
//Storyboard Sound Samples

[TimingPoints]
197,428.571428571429,4,2,0,10,1,0
19054,-200,4,2,0,20,0,0
22482,-142.857142857143,4,2,0,30,0,0
25911,-125,4,2,0,40,0,0
27625,-111.111111111111,4,2,0,50,0,0
29339,-100,4,2,0,60,0,0
32339,-50,4,2,0,60,0,0
32768,-66.6666666666667,4,2,0,60,0,0
35768,-50,4,2,0,60,0,0
36197,-66.6666666666667,4,2,0,60,0,0
43697,-100,4,2,0,60,0,0
46482,-50,4,2,0,70,0,0
47125,-66.6666666666667,4,2,0,70,0,0
47661,-50,4,2,0,70,0,0
50554,-100,4,2,0,70,0,0
51411,-45.4545454545455,4,2,0,70,0,0
52268,-33.3333333333333,4,2,0,70,0,0
53339,-100,4,2,0,70,0,0
53982,-66.6666666666667,4,2,0,70,0,0
54839,-50,4,2,0,70,0,0
60197,-333.333333333333,4,2,0,80,0,1
61697,-200,4,2,0,80,0,1
63626,-333.333333333333,4,2,0,80,0,1
65126,-200,4,2,0,80,0,1
66626,-40,4,2,0,80,0,1
67697,-200,4,2,0,80,0,1
68126,-50,4,2,0,80,0,1
68447,-40,4,2,0,80,0,1
68769,-33.3333333333333,4,2,0,80,0,1
69197,-333.333333333333,4,2,0,80,0,1
70269,-200,4,2,0,80,0,1
70912,-100,4,2,0,80,0,1
73804,-100,4,2,0,80,0,0
73911,-333.333333333333,4,2,0,80,0,1
75412,-200,4,2,0,80,0,1
77340,-333.333333333333,4,2,0,80,0,1
78840,-40,4,2,0,80,0,1
80340,-25,4,2,0,80,0,1
81197,-100,4,2,0,80,0,1
81840,-33.3333333333333,4,2,0,80,0,1
82483,-100,4,2,0,80,0,1
82912,-333.333333333333,4,2,0,80,0,1
84197,-500,4,2,0,80,0,1
86340,-33.3333333333333,4,2,0,80,0,1
86769,-28.5714285714286,4,2,0,80,0,1
87197,-25,4,2,0,80,0,1
87625,-125,4,2,0,60,0,0
88482,-125,4,2,0,50,0,0
89339,-125,4,2,0,40,0,0
90197,-125,4,2,0,30,0,0
91054,-333.333333333333,4,2,0,50,0,0
97912,-100,4,2,0,60,0,0
99197,-100,4,2,0,50,0,0
99840,-66.6666666666667,4,2,0,60,0,0
100483,-50,4,2,0,70,0,0
101983,-66.6666666666667,4,2,0,70,0,0
102733,-50,4,2,0,70,0,0
105412,-100,4,2,0,70,0,0
106162,-45.4545454545455,4,2,0,70,0,0
107126,-33.3333333333333,4,2,0,70,0,0
108197,-100,4,2,0,70,0,0
108840,-66.6666666666667,4,2,0,70,0,0
109590,-50,4,2,0,70,0,0
111626,-200,4,2,0,70,0,0
112054,-133.333333333333,4,2,0,70,0,0
112697,-50,4,2,0,70,0,0
115268,-50,4,2,0,50,0,0
125340,-40,4,2,0,60,0,0
125983,-33.3333333333333,4,2,0,70,0,0
126626,-28.5714285714286,4,2,0,80,0,0
128768,-333.333333333333,4,2,0,80,0,1
130269,-200,4,2,0,80,0,1
132197,-333.333333333333,4,2,0,80,0,1
133697,-200,4,2,0,80,0,1
135197,-40,4,2,0,80,0,1
136269,-200,4,2,0,80,0,1
136697,-50,4,2,0,80,0,1
137019,-40,4,2,0,80,0,1
137232,-33.3333333333333,4,2,0,80,0,1
137769,-333.333333333333,4,2,0,80,0,1
138732,-200,4,2,0,80,0,1
139483,-100,4,2,0,80,0,1
142375,-100,4,2,0,80,0,0
142482,-333.333333333333,4,2,0,80,0,1
143983,-200,4,2,0,80,0,1
145912,-333.333333333333,4,2,0,80,0,1
147412,-40,4,2,0,80,0,1
148912,-25,4,2,0,80,0,1
149769,-100,4,2,0,80,0,1
150412,-33.3333333333333,4,2,0,80,0,1
151054,-100,4,2,0,80,0,1
151483,-333.333333333333,4,2,0,80,0,1
152769,-500,4,2,0,80,0,1
154912,-33.3333333333333,4,2,0,80,0,1
155340,-28.5714285714286,4,2,0,80,0,1
155769,-25,4,2,0,80,0,1
156197,-125,4,2,0,40,0,0
158875,-125,4,2,0,20,0,0
162411,-125,4,2,0,40,0,0
168626,-50,4,2,0,50,0,0
169054,-44.4444444444445,4,2,0,50,0,0
169483,-40,4,2,0,50,0,0
169912,-100,4,2,0,50,0,0
172912,-40,4,2,0,50,0,0
173232,-100,4,2,0,50,0,0
176340,-40,4,2,0,50,0,0
176769,-100,4,2,0,50,0,0
180197,-500,4,2,0,50,0,0
182340,-50,4,2,0,50,0,0
182769,-44.4444444444445,4,2,0,50,0,0
183197,-40,4,2,0,50,0,0
183626,-100,4,2,0,50,0,0
184697,-90.9090909090909,4,2,0,50,0,0
186626,-40,4,2,0,50,0,0
187054,-100,4,2,0,50,0,0
188126,-90.9090909090909,4,2,0,50,0,0
190054,-40,4,2,0,50,0,0
190483,-100,4,2,0,50,0,0
191554,-90.9090909090909,4,2,0,50,0,0
193054,-45.4545454545455,4,2,0,50,0,0
197554,-200,4,2,0,20,0,0
199697,-200,4,2,0,50,0,0
200768,-333.333333333333,4,2,0,80,0,1
202269,-200,4,2,0,80,0,1
204197,-333.333333333333,4,2,0,80,0,1
205697,-200,4,2,0,80,0,1
207197,-40,4,2,0,80,0,1
207626,-33.3333333333333,4,2,0,80,0,1
208054,-200,4,2,0,80,0,1
208697,-50,4,2,0,80,0,1
209019,-40,4,2,0,80,0,1
209232,-33.3333333333333,4,2,0,80,0,1
209769,-333.333333333333,4,2,0,80,0,1
210626,-200,4,2,0,80,0,1
211697,-50,4,2,0,80,0,1
212340,-40,4,2,0,80,0,1
214375,-100,4,2,0,80,0,0
214482,-333.333333333333,4,2,0,80,0,1
215983,-200,4,2,0,80,0,1
217912,-333.333333333333,4,2,0,80,0,1
219412,-200,4,2,0,80,0,1
220912,-40,4,2,0,80,0,1
221769,-200,4,2,0,80,0,1
222412,-50,4,2,0,80,0,1
222733,-40,4,2,0,80,0,1
223054,-33.3333333333333,4,2,0,80,0,1
223483,-333.333333333333,4,2,0,80,0,1
224554,-500,4,2,0,80,0,1
226912,-33.3333333333333,4,2,0,80,0,1
227232,-28.5714285714286,4,2,0,80,0,1
227769,-25,4,2,0,80,0,1
228089,-25,4,2,0,80,0,0
228197,-100,4,2,0,80,0,1
228840,-111.111111111111,4,2,0,80,0,1
229697,-125,4,2,0,80,0,1
230554,-200,4,2,0,80,0,1
231412,-500,4,2,0,80,0,1
234197,-66.6666666666667,4,2,0,80,0,1
234947,-66.6666666666667,4,2,0,80,0,0
235054,-100,4,2,0,80,0,1
235697,-111.111111111111,4,2,0,80,0,1
236554,-125,4,2,0,80,0,1
237412,-200,4,2,0,80,0,1
238269,-500,4,2,0,80,0,1
241054,-100,4,2,0,80,0,1
241804,-100,4,2,0,80,0,0
242554,-125,4,2,0,80,0,1
243412,-166.666666666667,4,2,0,80,0,1
244269,-250,4,2,0,80,0,1
245126,-666.666666666667,4,2,0,80,0,1
248661,-666.666666666667,4,2,0,80,0,0
248768,-100,4,2,0,80,0,1
249412,-125,4,2,0,80,0,1
250269,-166.666666666667,4,2,0,80,0,1
251126,-250.000000000001,4,2,0,80,0,1
251983,-1000,4,2,0,80,0,1
255625,-133.333333333333,4,2,0,20,0,0
266554,-133.333333333333,4,2,0,5,0,0

[Colours]
Combo1 : 253,108,2
Combo2 : 156,253,98
Combo3 : 196,134,135
Combo4 : 5,250,128
SliderTrackOverride : 115,85,85
SliderBorder : 255,240,220

[HitObjects]
256,192,12197,12,0,18839,0:0:0:0:
40,48,19054,6,0,B|100:56|100:56|112:80|112:80|52:132|68:192|68:192|120:184|156:220|156:220|120:248|112:276,1,375,4|0,1:0|0:0,0:0:0:0:
183,341,22482,2,0,B|195:306|216:293|216:293|260:329|260:329|301:246|231:212|259:138|259:138|245:86|245:86|294:87|344:29|344:29|376:67,1,524.999983978271,4|0,1:0|0:0,0:0:0:0:
482,21,25911,6,0,B|417:72|417:72|474:117|474:117|431:174|463:246,1,280,4|0,1:2|0:0,0:0:0:0:
503,334,27625,2,0,B|450:257|382:261|382:261|383:337|318:366|270:332,1,314.999990386963,2|0,0:0|0:0,0:0:0:0:
209,231,29339,6,0,B|175:249|146:290|153:352|153:352|109:349|72:271|72:271|82:240|107:203|107:203|46:101,1,450,4|0,1:2|0:0,0:0:0:0:
49,107,31482,1,0,1:0:0:0:
346,19,31911,5,2,0:0:0:0:
324,115,32125,1,0,0:0:0:0:
426,61,32339,2,0,L|414:121,3,50,0|0|0|0,3:0|3:0|3:0|3:0,3:0:0:0:
432,40,32768,5,4,1:0:0:0:
510,146,32982,2,0,P|472:177|444:227,1,75.000002861023,2|0,0:0|0:0,0:0:0:0:
504,313,33411,2,0,P|476:281|341:255,1,150.000005722046,2|0,0:0|1:0,0:0:0:0:
279,345,34054,1,0,0:0:0:0:
279,345,34268,2,0,L|269:265,1,75.000002861023,2|0,0:0|0:0,0:0:0:0:
157,290,34697,5,0,0:0:0:0:
171,193,34911,1,0,1:0:0:0:
171,193,35125,2,0,L|181:113,1,75.000002861023,2|0,0:0|0:0,0:0:0:0:
41,42,35554,1,0,3:0:0:0:
41,42,35661,1,0,3:0:0:0:
41,42,35768,2,0,L|-12:53,3,50,0|0|0|0,3:0|3:0|3:0|3:0,3:0:0:0:
68,36,36197,5,4,1:0:0:0:
164,107,36411,2,0,P|180:70|187:26,1,75.000002861023,2|0,0:0|1:0,0:0:0:0:
57,150,36839,2,0,P|64:186|80:220,1,75.000002861023,2|0,0:0|0:0,0:0:0:0:
38,334,37268,2,0,L|121:341,1,75.000002861023,2|0,1:2|0:0,0:0:0:0:
221,208,37697,5,2,0:0:0:0:
221,208,37911,1,0,0:0:0:0:
230,323,38125,2,0,L|313:316,1,75.000002861023,2|0,0:0|1:0,0:0:0:0:
469,255,38554,2,0,P|427:236|392:228,1,75.000002861023
374,79,38982,1,0,3:0:0:0:
381,70,39089,1,0,3:0:0:0:
388,61,39197,1,0,3:0:0:0:
395,52,39304,1,0,3:0:0:0:
402,43,39411,1,0,3:0:0:0:
409,34,39518,1,0,3:0:0:0:
416,25,39625,6,0,P|449:82|455:183,1,150.000005722046,4|0,0:0|1:0,0:0:0:0:
337,205,40268,2,0,P|304:148|298:47,1,150.000005722046,2|0,0:0|1:0,0:0:0:0:
294,65,40911,1,0,0:0:0:0:
142,10,41125,1,0,3:0:0:0:
148,31,41232,1,0,3:0:0:0:
155,49,41339,1,0,3:0:0:0:
95,346,41768,5,0,1:0:0:0:
95,346,42411,2,0,L|178:360,1,75.000002861023,2|0,0:0|0:0,0:0:0:0:
202,251,42839,2,0,P|109:311|0:301,1,225.000008583069,6|0,0:0|1:0,0:0:0:0:
156,101,43697,6,0,P|154:137|72:214,1,150,2|0,0:0|0:0,0:0:0:0:
256,192,44768,12,0,46268,0:0:0:0:
110,368,46482,6,0,P|124:320|144:274,1,99.9999999999999,4|0,1:0|0:0,0:0:0:0:
168,175,46911,1,0,1:0:0:0:
168,175,47125,2,0,P|127:170|29:227,1,150.000005722046,2|0,0:0|1:0,0:0:0:0:
27,238,47661,1,0,3:3:0:0:
42,60,47875,1,0,1:0:0:0:
42,60,47982,6,0,P|94:62|151:93,1,99.9999999999999,2|4,0:0|3:0,0:0:0:0:
231,20,48411,2,0,P|266:58|285:121,1,99.9999999999999,2|0,0:0|1:0,0:0:0:0:
392,125,48839,2,0,P|390:177|358:234,1,99.9999999999999,2|0,0:0|0:0,0:0:0:0:
204,249,49268,5,0,1:0:0:0:
204,249,49375,1,0,1:0:0:0:
204,249,49482,1,0,1:0:0:0:
239,256,49589,1,0,1:0:0:0:
267,279,49696,1,0,1:0:0:0:
285,310,49804,1,0,1:0:0:0:
292,345,49911,5,4,1:0:0:0:
186,343,50125,1,2,0:0:0:0:
352,226,50339,1,0,1:0:0:0:
352,226,50554,2,0,L|459:251,1,99.9999999999999,2|0,0:0|1:0,0:0:0:0:
471,255,51089,1,0,3:0:0:0:
417,37,51304,1,0,1:0:0:0:
417,37,51411,6,0,P|382:81|318:123,1,110.000003356934,2|4,0:0|3:0,0:0:0:0:
138,30,51839,1,2,0:0:0:0:
213,120,52054,1,0,1:0:0:0:
213,120,52268,6,0,B|246:173|246:173|204:343,1,225.000008583069,4|0,0:0|0:0,0:0:0:0:
123,356,52697,5,0,1:0:0:0:
123,356,52804,1,0,1:0:0:0:
123,356,52911,1,0,1:0:0:0:
94,324,53018,1,0,1:0:0:0:
80,284,53125,1,0,1:0:0:0:
82,242,53232,1,0,1:0:0:0:
100,199,53339,6,0,L|-10:213,1,99.9999999999999,4|0,0:0|1:0,0:0:0:0:
206,147,53982,2,0,P|156:95|84:27,1,150.000005722046,2|0,0:0|1:0,0:0:0:0:
83,30,54518,1,0,3:0:0:0:
292,214,54732,1,0,1:0:0:0:
292,214,54839,6,0,P|311:154|303:97,2,99.9999999999999,2|4|0,0:0|3:0|0:0,0:0:0:0:
219,287,55482,1,0,1:0:0:0:
491,223,55697,2,0,P|437:230|347:341,1,200,4|0,0:0|1:0,0:0:0:0:
251,376,56339,1,0,1:0:0:0:
165,319,56554,1,0,1:0:0:0:
4,378,56768,1,4,3:0:0:0:
4,378,56982,1,4,3:0:0:0:
26,193,57197,1,0,1:0:0:0:
66,290,57411,5,0,1:0:0:0:
256,64,57839,1,4,3:0:0:0:
347,319,58268,5,0,1:0:0:0:
508,378,58482,1,4,3:0:0:0:
508,378,58696,1,4,3:0:0:0:
486,193,58911,1,0,1:0:0:0:
446,290,59125,5,6,1:2:0:0:
405,127,59339,1,4,3:0:0:0:
242,65,59554,1,4,3:0:0:0:
100,165,59768,1,4,1:2:0:0:
144,197,59875,1,0,1:0:0:0:
165,249,59982,1,0,1:0:0:0:
162,304,60089,1,0,1:0:0:0:
135,353,60197,6,2,P|116:349|50:363,1,82.4999974822998,4|0,1:0|0:0,0:3:0:0:
39,372,61483,1,2,0:0:0:0:
292,118,61697,6,0,L|275:69,1,50,4|4,1:2|0:3,0:0:0:0:
459,267,62340,5,0,1:0:0:0:
346,247,62554,1,0,1:0:0:0:
275,338,62769,1,4,3:0:0:0:
275,338,62983,1,8,0:3:0:0:
19,52,63197,5,0,1:0:0:0:
98,39,63304,1,0,1:0:0:0:
173,66,63412,1,0,1:0:0:0:
217,133,63519,1,0,1:0:0:0:
212,213,63626,6,2,P|198:243|183:291,1,82.4999974822998,4|0,1:0|0:0,0:3:0:0:
185,305,64912,1,2,0:0:0:0:
471,81,65126,6,0,L|475:32,1,50,4|4,1:2|0:3,0:0:0:0:
297,349,65769,5,0,1:0:0:0:
185,305,65983,1,0,1:0:0:0:
84,368,66197,1,4,3:0:0:0:
84,368,66412,5,4,0:3:0:0:
45,289,66519,1,2,0:1:0:0:
83,211,66626,2,0,B|121:187|121:187|210:204,1,125,4|0,0:0|0:0,0:0:0:0:
218,209,66947,1,2,0:0:0:0:
423,73,67054,6,2,B|385:97|385:97|296:80,1,125,6|0,1:0|0:0,0:3:0:0:
481,308,67483,5,0,1:0:0:0:
481,308,67697,2,0,L|488:275,1,25,0|0,1:0|0:0,0:0:0:0:
29,337,68126,6,0,P|61:336|144:357,1,99.9999999999999,6|0,1:2|0:0,0:0:0:0:
482,242,68447,2,0,P|450:241|355:269,1,125,2|0,0:1|0:0,0:0:0:0:
135,19,68769,2,0,P|126:100|167:245,1,225.000008583069,6|0,1:0|0:0,0:0:0:0:
282,373,69197,6,2,P|288:346|297:326,1,44.999998626709,4|2,0:0|0:1,0:3:0:0:
471,37,70054,1,0,1:0:0:0:
471,37,70269,6,0,L|421:53,1,50,6|4,3:0|0:3,0:0:0:0:
47,152,70912,5,0,1:0:0:0:
47,152,71126,2,0,P|96:139|150:143,2,99.9999999999999,0|4|4,1:0|0:0|3:0,0:0:0:0:
463,332,72197,5,4,0:0:0:0:
463,332,72412,2,0,P|434:314|405:310,1,50,4|0,3:0|1:0,0:0:0:0:
256,20,72840,5,0,1:0:0:0:
207,154,73054,1,4,3:0:0:0:
287,286,73269,1,0,1:0:0:0:
287,286,73376,1,0,1:0:0:0:
287,286,73483,5,0,1:0:0:0:
206,309,73590,1,0,1:0:0:0:
134,271,73697,1,0,1:0:0:0:
93,202,73804,1,0,1:0:0:0:
93,121,73912,6,2,P|56:79|30:66,1,82.4999974822998,6|0,1:0|0:0,0:3:0:0:
14,65,75197,1,2,0:0:0:0:
244,333,75412,6,0,L|295:340,1,50,4|4,1:2|0:3,0:0:0:0:
498,162,76054,5,0,1:0:0:0:
391,115,76269,1,0,1:0:0:0:
307,194,76483,1,4,3:0:0:0:
307,194,76697,1,8,0:3:0:0:
37,365,76912,5,0,1:0:0:0:
19,287,77019,1,0,1:0:0:0:
45,211,77126,1,0,1:0:0:0:
106,159,77233,1,0,1:0:0:0:
185,148,77340,6,2,P|188:178|173:227,1,82.4999974822998,6|0,1:0|0:0,0:3:0:0:
166,240,78626,1,2,0:0:0:0:
498,361,78840,6,2,B|446:301|446:301|222:346,1,250,6|0,1:0|0:0,0:0:0:0:
259,341,79376,1,0,0:0:0:0:
239,347,79483,1,4,0:0:0:0:
95,372,79697,1,2,1:2:0:0:
21,242,79912,1,2,0:1:0:0:
21,242,80126,5,4,3:0:0:0:
83,162,80233,1,4,3:0:0:0:
18,86,80340,6,0,B|63:39|63:39|219:59,1,200,6|0,1:0|0:0,0:0:0:0:
220,60,80662,1,2,0:0:0:0:
364,203,80769,6,0,B|319:156|319:156|163:176,1,200,4|4,1:0|0:3,0:0:0:0:
420,345,81197,5,0,1:0:0:0:
420,345,81412,2,0,L|483:338,1,50,0|0,1:0|0:0,0:0:0:0:
429,71,81840,6,0,P|389:122|363:230,1,150.000005722046,6|0,1:0|0:0,0:0:0:0:
261,381,82162,2,0,P|240:319|253:209,1,150.000005722046,4|0,0:0|0:0,0:0:0:0:
150,29,82483,2,0,L|156:93,1,50,6|0,1:3|0:0,0:0:0:0:
28,312,82912,6,2,P|49:313|74:319,1,44.999998626709,6|0,1:0|0:0,0:3:0:0:
88,323,83662,1,0,0:0:0:0:
103,331,83769,1,0,1:0:0:0:
103,331,83983,5,0,1:0:0:0:
202,179,84090,1,4,3:0:0:0:
392,120,84197,6,2,L|481:135,1,89.9999999999999,6|0,1:0|0:0,0:3:0:0:
48,362,86340,6,0,P|23:291|26:202,1,150.000005722046,6|2,1:0|3:0,0:0:0:0:
28,201,86662,1,2,0:0:0:0:
281,286,86769,6,0,P|255:215|184:134,1,175.00000166893,6|4,1:2|3:0,0:0:0:0:
178,134,87090,1,2,0:0:0:0:
511,66,87197,6,0,P|524:140|490:275,1,200,6|2,1:0|3:0,0:0:0:0:
491,276,87519,1,2,0:0:0:0:
331,19,87626,6,0,P|286:93|268:176,3,160,4|2|4|2,0:0|0:0|3:0|0:0,0:0:0:0:
453,291,90412,5,0,3:0:0:0:
436,280,90519,1,0,3:0:0:0:
417,274,90626,1,0,3:0:0:0:
397,272,90733,1,0,3:0:0:0:
377,275,90840,1,0,3:0:0:0:
359,283,90947,1,0,3:0:0:0:
343,294,91054,6,0,P|335:340|331:386,1,89.999997253418,4|0,0:0|0:0,0:0:0:0:
256,76,92769,5,4,3:0:0:0:
256,76,93197,1,4,0:3:0:0:
28,240,93840,5,0,3:0:0:0:
44,229,93947,1,0,3:0:0:0:
63,223,94054,1,0,3:0:0:0:
83,221,94161,1,0,3:0:0:0:
103,224,94268,1,0,3:0:0:0:
121,232,94375,1,0,3:0:0:0:
138,243,94482,6,0,P|146:289|150:335,1,89.999997253418,4|0,0:0|0:0,0:0:0:0:
256,44,96197,5,4,3:0:0:0:
256,44,96625,1,4,0:3:0:0:
479,156,97269,5,0,3:0:0:0:
463,145,97376,1,0,3:0:0:0:
444,139,97483,1,0,3:0:0:0:
424,137,97590,1,0,3:0:0:0:
404,140,97697,1,0,3:0:0:0:
386,148,97804,1,0,3:0:0:0:
369,159,97912,5,4,0:0:0:0:
309,239,98126,1,0,0:0:0:0:
210,256,98340,1,2,0:0:0:0:
126,201,98554,1,0,0:0:0:0:
61,43,98769,1,2,0:0:0:0:
61,43,99197,5,0,0:0:0:0:
61,43,99412,2,0,L|48:108,1,50,2|0,0:0|1:0,0:0:0:0:
159,29,99840,5,0,0:0:0:0:
159,29,100054,2,0,L|143:107,1,75.000002861023,2|0,0:0|1:0,0:0:0:0:
257,16,100483,5,0,0:0:0:0:
257,16,100697,1,0,0:0:0:0:
237,114,100912,1,0,1:0:0:0:
300,130,101019,1,0,1:0:0:0:
364,123,101126,1,0,1:0:0:0:
417,86,101233,1,0,1:0:0:0:
453,32,101340,6,0,P|475:98|498:147,1,99.9999999999999,4|0,1:0|0:0,0:0:0:0:
440,276,101769,1,0,1:0:0:0:
440,276,101983,2,0,P|399:271|301:328,1,150.000005722046,2|0,0:0|1:0,0:0:0:0:
300,342,102519,1,0,3:3:0:0:
164,253,102733,1,0,1:0:0:0:
164,253,102840,6,0,P|178:303|190:365,1,99.9999999999999,2|4,0:0|3:0,0:0:0:0:
48,177,103269,2,0,P|34:227|22:289,1,99.9999999999999,2|0,0:0|1:0,0:0:0:0:
138,20,103697,2,0,P|152:70|164:132,1,99.9999999999999,2|0,0:0|0:0,0:0:0:0:
381,20,104126,5,0,1:0:0:0:
381,20,104233,1,0,1:0:0:0:
381,20,104340,1,0,1:0:0:0:
341,28,104447,1,0,1:0:0:0:
310,54,104554,1,0,1:0:0:0:
290,89,104662,1,0,1:0:0:0:
282,128,104769,5,4,1:0:0:0:
308,234,104983,1,2,0:0:0:0:
460,103,105197,1,0,1:0:0:0:
460,103,105412,2,0,L|435:210,1,99.9999999999999,2|0,0:0|1:0,0:0:0:0:
434,218,105947,1,0,3:0:0:0:
337,370,106162,1,0,1:0:0:0:
337,370,106269,6,0,P|388:347|464:340,1,110.000003356934,2|4,0:0|3:0,0:0:0:0:
293,246,106697,1,2,0:0:0:0:
219,342,106912,1,0,1:0:0:0:
219,342,107126,6,0,B|186:289|186:289|228:119,1,225.000008583069,4|0,0:0|0:0,0:0:0:0:
248,45,107554,5,0,1:0:0:0:
248,45,107662,1,0,1:0:0:0:
248,45,107769,1,0,1:0:0:0:
196,34,107876,1,0,1:0:0:0:
144,44,107983,1,0,1:0:0:0:
99,72,108090,1,0,1:0:0:0:
64,111,108197,6,0,L|72:221,1,99.9999999999999,4|0,0:0|1:0,0:0:0:0:
169,366,108840,2,0,P|176:295|182:196,1,150.000005722046,2|0,0:0|1:0,0:0:0:0:
179,196,109376,1,0,3:0:0:0:
296,44,109590,1,0,1:0:0:0:
296,44,109697,6,0,P|315:104|307:161,1,99.9999999999999,2|4,0:0|3:0,0:0:0:0:
312,140,110340,1,0,1:0:0:0:
512,352,110983,5,0,3:0:0:0:
496,363,111090,1,0,3:0:0:0:
477,369,111197,1,0,3:0:0:0:
457,371,111304,1,0,3:0:0:0:
437,368,111411,1,0,3:0:0:0:
419,360,111518,1,0,3:0:0:0:
402,349,111626,6,0,L|394:322,1,25,4|0,0:0|0:0,0:0:0:0:
474,259,112054,5,0,1:0:0:0:
474,259,112269,2,0,L|449:222,1,37.5000014305115,2|0,0:0|0:0,0:0:0:0:
490,120,112697,5,0,1:0:0:0:
490,120,112912,2,0,L|442:88,2,50,0|0|0,1:0|1:0|1:0,1:0:0:0:
256,328,113340,5,4,3:0:0:0:
256,328,113769,1,0,1:0:0:0:
16,115,114412,1,0,1:0:0:0:
32,119,114519,1,0,1:0:0:0:
52,119,114626,1,0,1:0:0:0:
76,114,114733,1,0,1:0:0:0:
103,102,114840,1,0,1:0:0:0:
127,78,114947,1,0,1:0:0:0:
144,43,115054,1,4,1:0:0:0:
193,153,115269,6,0,P|128:145|75:148,1,99.9999999999999,2|0,0:0|1:0,0:0:0:0:
27,297,115697,2,0,P|73:279|122:269,1,99.9999999999999,2|0,0:0|0:0,0:0:0:0:
11,335,116126,2,0,P|60:341|108:355,1,99.9999999999999,0|0,1:0|0:0,0:0:0:0:
123,366,116447,1,0,1:0:0:0:
246,288,116554,6,0,P|258:226|256:169,1,99.9999999999999,2|4,0:0|3:0,0:0:0:0:
291,372,116983,2,0,P|279:310|281:253,1,99.9999999999999,2|0,0:0|1:0,0:0:0:0:
479,278,117412,2,0,P|477:228|467:180,1,99.9999999999999,2|0,0:0|0:0,0:0:0:0:
435,335,117840,1,0,1:0:0:0:
435,335,118054,5,0,1:0:0:0:
450,287,118161,1,0,1:0:0:0:
455,237,118268,1,0,1:0:0:0:
448,188,118375,1,0,1:0:0:0:
430,142,118482,1,4,1:0:0:0:
303,20,118697,6,0,P|313:74|318:119,1,99.9999999999999,2|0,0:0|1:0,0:0:0:0:
198,107,119126,2,0,P|188:161|183:206,1,99.9999999999999,2|0,0:0|0:0,0:0:0:0:
302,228,119554,2,0,P|312:282|317:327,1,99.9999999999999,0|0,1:0|0:0,0:0:0:0:
141,375,119983,6,0,P|84:352|22:344,1,99.9999999999999,2|4,0:0|3:0,0:0:0:0:
83,215,120412,2,0,L|182:205,1,99.9999999999999,2|0,0:0|1:0,0:0:0:0:
123,54,120840,2,0,P|77:73|29:84,1,99.9999999999999,2|0,0:0|0:0,0:0:0:0:
290,17,121269,5,0,1:0:0:0:
290,17,121376,1,0,1:0:0:0:
290,17,121483,1,0,1:0:0:0:
265,58,121590,1,0,1:0:0:0:
262,107,121697,1,0,1:0:0:0:
282,152,121804,1,0,1:0:0:0:
317,187,121912,1,4,1:0:0:0:
512,38,122126,6,0,P|506:87|486:133,1,99.9999999999999,2|0,0:0|1:0,0:0:0:0:
362,110,122554,2,0,P|357:51|379:-15,1,99.9999999999999,2|0,0:0|0:0,0:0:0:0:
408,220,122983,2,0,P|454:247|487:304,1,99.9999999999999,0|0,1:0|0:0,0:0:0:0:
309,384,123412,6,0,P|333:340|378:314,1,99.9999999999999,2|4,0:0|0:0,0:0:0:0:
271,195,123840,2,0,P|290:256|295:297,1,99.9999999999999,2|0,0:0|1:0,0:0:0:0:
125,360,124269,2,0,P|132:310|148:263,1,99.9999999999999,2|0,0:0|0:0,0:0:0:0:
80,377,124697,2,0,P|50:336|28:291,1,99.9999999999999,2|0,1:2|0:0,0:0:0:0:
26,274,125019,1,0,1:0:0:0:
75,197,125126,1,0,1:0:0:0:
377,222,125340,6,0,P|352:157|190:44,1,250,6|0,1:0|1:0,0:0:0:0:
73,378,125983,2,2,P|32:261|82:93,1,300.000011444092,2|0,1:0|1:0,0:3:0:0:
512,128,126626,2,2,P|384:221|167:222,1,350.00000333786,4|4,0:0|1:0,0:3:0:0:
256,192,127269,12,0,128554,1:0:0:0:
125,107,128769,6,2,P|84:102|44:114,1,82.4999974822998,4|0,1:0|0:0,0:3:0:0:
30,126,130055,1,2,0:0:0:0:
408,72,130269,6,0,L|413:15,1,50,4|4,1:2|0:3,0:0:0:0:
283,223,130912,5,0,1:0:0:0:
390,183,131126,1,0,1:0:0:0:
476,260,131339,1,4,3:0:0:0:
476,260,131555,1,8,0:3:0:0:
17,339,131769,5,0,1:0:0:0:
96,354,131876,1,0,1:0:0:0:
171,324,131982,1,0,1:0:0:0:
213,255,132089,1,0,1:0:0:0:
202,175,132198,6,2,P|168:162|121:159,1,82.4999974822998,4|0,1:0|0:0,0:3:0:0:
98,165,133482,1,2,0:0:0:0:
409,27,133698,6,0,L|418:79,1,50,4|4,1:2|0:3,0:0:0:0:
494,329,134339,5,0,1:0:0:0:
382,285,134555,1,0,1:0:0:0:
281,348,134769,1,4,3:0:0:0:
281,348,134982,5,4,0:3:0:0:
194,295,135089,1,2,0:1:0:0:
118,360,135198,2,0,B|94:322|94:322|111:233,1,125,4|0,0:0|0:0,0:0:0:0:
116,225,135519,1,2,0:0:0:0:
34,25,135626,6,2,B|58:63|58:63|41:152,1,125,6|0,1:0|0:0,0:3:0:0:
311,40,136055,5,0,1:0:0:0:
311,40,136269,2,0,L|278:47,1,25,0|0,1:0|0:0,0:0:0:0:
447,354,136698,6,0,P|434:305|434:255,1,99.9999999999999,6|0,1:2|0:0,0:0:0:0:
286,45,137019,2,0,P|289:107|311:165,1,125,2|0,0:1|0:0,0:0:0:0:
80,333,137339,2,0,P|186:298|308:305,1,225.000008583069,6|0,1:0|0:0,0:0:0:0:
453,70,137769,6,2,P|444:90|440:112,1,44.999998626709,4|2,0:0|0:1,0:3:0:0:
80,333,138626,1,0,1:0:0:0:
80,333,138839,6,0,L|22:322,1,50,6|4,3:0|0:3,0:0:0:0:
83,49,139482,5,0,1:0:0:0:
83,49,139698,2,0,P|96:98|92:152,2,99.9999999999999,0|4|4,1:0|0:0|3:0,0:0:0:0:
237,365,140769,5,4,0:0:0:0:
237,365,140982,2,0,P|255:336|259:307,1,50,4|0,3:0|1:0,0:0:0:0:
500,192,141412,5,0,1:0:0:0:
384,110,141626,1,4,3:0:0:0:
280,192,141839,1,0,1:0:0:0:
280,192,141948,1,0,1:0:0:0:
280,192,142055,5,0,1:0:0:0:
278,276,142162,1,0,1:0:0:0:
325,346,142269,1,0,1:0:0:0:
404,374,142376,1,0,1:0:0:0:
469,320,142483,6,2,P|482:265|477:236,1,82.4999974822998,6|0,1:0|0:0,0:3:0:0:
467,220,143768,1,2,0:0:0:0:
41,300,143983,6,0,L|92:307,1,50,4|4,1:2|0:3,0:0:0:0:
221,134,144625,5,0,1:0:0:0:
114,181,144840,1,0,1:0:0:0:
30,102,145054,1,4,3:0:0:0:
30,102,145268,1,8,0:3:0:0:
457,7,145483,5,0,1:0:0:0:
475,85,145590,1,0,1:0:0:0:
449,161,145697,1,0,1:0:0:0:
389,214,145804,1,0,1:0:0:0:
309,224,145912,6,2,P|285:262|278:302,1,82.4999974822998,6|0,1:0|0:0,0:3:0:0:
282,321,147197,1,2,0:0:0:0:
14,110,147412,6,2,B|66:170|66:170|290:125,1,250,6|0,1:0|0:0,0:0:0:0:
253,130,147947,1,0,0:0:0:0:
273,124,148054,1,4,0:0:0:0:
417,162,148268,1,2,1:2:0:0:
489,35,148483,1,2,0:1:0:0:
489,35,148697,5,4,3:0:0:0:
394,67,148804,1,4,3:0:0:0:
311,22,148912,6,0,B|264:67|264:67|284:223,1,200,6|0,1:0|0:0,0:0:0:0:
285,224,149233,1,2,0:0:0:0:
447,345,149340,6,0,B|400:300|400:300|420:144,1,200,4|4,1:0|0:3,0:0:0:0:
270,362,149768,5,0,1:0:0:0:
270,362,149983,2,0,L|207:355,1,50,0|0,1:0|0:0,0:0:0:0:
36,302,150412,6,0,P|87:262|195:236,1,150.000005722046,6|0,1:0|0:0,0:0:0:0:
417,166,150733,2,0,P|355:145|245:158,1,150.000005722046,4|0,0:0|0:0,0:0:0:0:
127,30,151054,2,0,L|133:94,1,50,6|0,1:3|0:0,0:0:0:0:
282,365,151483,6,2,P|294:346|303:324,1,44.999998626709,6|0,1:0|0:0,0:3:0:0:
304,305,152233,1,0,0:0:0:0:
301,285,152340,1,0,1:0:0:0:
301,285,152554,5,0,1:0:0:0:
195,147,152661,1,4,3:0:0:0:
11,138,152769,6,2,L|0:227,1,89.9999999999999,6|0,1:0|0:0,0:3:0:0:
254,128,154912,6,0,P|179:139|102:183,1,150.000005722046,6|2,1:0|3:0,0:0:0:0:
101,185,155233,1,2,0:0:0:0:
295,368,155340,6,0,P|220:378|115:353,1,175.00000166893,6|4,1:2|3:0,0:0:0:0:
118,346,155661,1,2,0:0:0:0:
499,205,155769,6,0,P|461:139|348:58,1,200,6|2,1:0|3:0,0:0:0:0:
348,55,156090,1,2,0:0:0:0:
390,356,156197,6,0,P|307:328|240:276,1,160,4|2,0:0|0:0,0:0:0:0:
37,78,158983,5,0,3:0:0:0:
105,27,159197,1,0,3:0:0:0:
105,27,159412,1,0,3:0:0:0:
174,75,159626,1,0,3:0:0:0:
149,155,159840,1,0,3:0:0:0:
149,155,160054,1,0,3:0:0:0:
65,155,160269,1,0,3:0:0:0:
493,304,162412,5,4,3:0:0:0:
350,206,162626,1,0,3:0:0:0:
350,206,162840,1,0,3:0:0:0:
406,368,163054,1,4,3:0:0:0:
457,206,163268,1,8,0:3:0:0:
457,206,163483,1,4,0:3:0:0:
318,307,163697,1,0,1:0:0:0:
37,306,164126,5,4,3:0:0:0:
105,357,164340,1,0,1:0:0:0:
105,357,164555,1,4,0:3:0:0:
65,229,164769,5,0,1:0:0:0:
149,229,164983,1,0,3:0:0:0:
149,229,165197,1,0,3:0:0:0:
174,309,165412,1,0,3:0:0:0:
428,47,166483,5,4,3:0:0:0:
327,47,166697,1,0,3:0:0:0:
327,47,166911,1,0,3:0:0:0:
297,142,167126,1,0,1:0:0:0:
503,284,167554,5,4,3:0:0:0:
429,341,167768,1,4,0:3:0:0:
429,341,167983,1,0,3:0:0:0:
473,200,168197,5,0,1:0:0:0:
380,200,168411,1,0,3:0:0:0:
353,287,168626,6,0,P|310:314|261:320,1,99.9999999999999,2|0,0:0|0:0,0:0:0:0:
302,166,169054,2,0,P|255:183|213:232,1,112.500004291534,6|0,0:3|0:0,0:0:0:0:
149,344,169483,6,0,P|103:364|24:360,1,125,2|0,1:2|0:0,0:0:0:0:
99,221,169912,6,0,P|50:232|11:262,1,99.9999999999999,6|4,1:2|0:3,0:0:0:0:
11,262,170554,1,0,1:0:0:0:
162,35,170983,5,4,3:0:0:0:
162,35,171197,1,4,0:3:0:0:
235,102,171412,2,0,P|281:111|340:93,1,99.9999999999999,2|0,0:0|0:0,0:0:0:0:
432,23,172054,1,0,1:0:0:0:
432,23,172269,2,0,P|423:69|441:128,1,99.9999999999999,2|0,0:0|0:0,0:0:0:0:
354,320,172912,6,0,P|350:269|381:197,1,125,2|0,1:2|0:0,0:0:0:0:
486,315,173339,6,0,P|492:265|477:218,1,99.9999999999999,6|4,1:2|0:3,0:0:0:0:
477,218,173983,1,0,1:0:0:0:
235,357,174412,5,4,3:0:0:0:
235,357,174626,1,4,0:3:0:0:
134,374,174840,2,0,P|84:371|33:328,1,99.9999999999999,2|0,0:0|0:0,0:0:0:0:
171,279,175483,1,0,1:0:0:0:
171,279,175697,2,0,P|130:251|80:248,1,99.9999999999999,2|0,0:0|0:0,0:0:0:0:
23,47,176340,6,0,P|73:43|145:74,1,125,2|0,1:2|0:0,0:0:0:0:
28,179,176769,6,0,P|77:185|124:170,1,99.9999999999999,6|4,1:2|0:3,0:0:0:0:
124,170,177411,1,0,1:0:0:0:
299,25,177840,1,4,3:0:0:0:
299,25,178054,2,0,L|288:93,1,50,4|0,0:3|0:0,0:0:0:0:
275,176,178483,6,0,P|303:200|345:273,1,99.9999999999999,6|0,1:2|1:0,0:0:0:0:
337,252,179126,1,4,0:3:0:0:
498,143,179340,2,0,P|474:172|439:285,1,150,6|0,3:0|0:0,0:0:0:0:
250,347,180197,6,2,P|271:349|310:354,1,59.9999999999999,6|4,1:0|3:0,0:3:0:0:
24,85,181912,5,0,1:0:0:0:
24,85,182126,1,2,0:0:0:0:
103,158,182340,6,0,P|152:168|200:157,1,99.9999999999999,2|0,0:0|0:0,0:0:0:0:
109,26,182769,2,0,P|158:25|215:57,1,112.500004291534,6|0,0:3|0:0,0:0:0:0:
314,141,183197,6,0,P|364:144|436:113,1,125,2|0,1:2|0:0,0:0:0:0:
319,9,183626,6,0,P|368:2|415:17,1,99.9999999999999,6|4,1:2|0:3,0:0:0:0:
415,17,184268,1,0,1:0:0:0:
512,238,184697,5,4,3:0:0:0:
512,238,184912,1,4,0:3:0:0:
424,196,185126,2,0,P|388:212|346:278,1,110.000003356934,2|0,0:0|0:0,0:0:0:0:
328,366,185769,1,0,1:0:0:0:
328,366,185983,2,0,P|292:350|250:284,1,110.000003356934,2|0,0:0|0:0,0:0:0:0:
178,113,186626,6,0,P|232:143|267:195,1,125,2|0,1:2|0:0,0:0:0:0:
108,185,187055,6,0,P|124:232|158:269,1,99.9999999999999,6|4,1:2|0:3,0:0:0:0:
158,269,187697,1,0,1:0:0:0:
13,37,188126,5,4,3:0:0:0:
13,37,188340,1,4,0:3:0:0:
80,109,188554,2,0,P|84:144|60:224,1,110.000003356934,2|0,0:0|0:0,0:0:0:0:
172,50,189197,1,0,1:0:0:0:
172,50,189412,2,0,P|199:71|239:145,1,110.000003356934,2|4,0:0|0:3,0:0:0:0:
344,287,190054,6,0,P|398:256|432:205,1,125,2|0,1:2|0:0,0:0:0:0:
274,214,190483,6,0,P|289:166|323:130,1,99.9999999999999,6|4,1:2|0:3,0:0:0:0:
323,131,191125,1,0,1:0:0:0:
488,335,191554,5,4,3:0:0:0:
488,335,191769,2,0,L|409:352,1,55.0000016784668,4|2,0:3|0:3,0:0:0:0:
346,303,192197,2,0,P|340:249|301:187,1,110.000003356934,4|2,1:2|0:3,0:0:0:0:
313,200,192840,1,2,0:0:0:0:
145,232,193054,2,0,P|155:165|385:30,1,330.000010070801,2|0,1:1|0:0,0:0:0:0:
256,192,193912,12,0,197340,0:0:0:0:
151,80,197554,6,0,L|123:73,1,25,2|0,0:1|0:0,0:0:0:0:
102,187,197983,2,0,L|77:201,1,25,2|0,0:1|0:0,0:0:0:0:
144,297,198412,2,0,L|137:325,1,25,2|0,0:1|0:0,0:0:0:0:
251,345,198840,2,0,L|265:370,1,25,2|0,0:1|0:0,0:0:0:0:
361,304,199269,2,0,L|389:311,1,25,2|0,0:1|0:0,0:0:0:0:
498,129,199697,5,2,0:0:0:0:
404,140,199912,1,0,0:0:0:0:
310,152,200126,1,0,0:0:0:0:
217,164,200340,1,4,0:0:0:0:
217,164,200769,6,2,P|213:145|227:79,1,82.4999974822998,4|0,1:0|0:0,0:3:0:0:
238,62,202055,1,2,0:0:0:0:
84,344,202269,6,0,L|33:332,1,50,4|4,1:2|0:3,0:0:0:0:
197,294,202912,5,0,1:0:0:0:
304,254,203126,1,0,1:0:0:0:
390,331,203339,1,4,3:0:0:0:
390,331,203555,1,8,0:3:0:0:
511,37,203769,5,0,1:0:0:0:
431,34,203876,1,0,1:0:0:0:
363,76,203982,1,0,1:0:0:0:
330,148,204089,1,0,1:0:0:0:
348,226,204198,6,2,P|380:222|431:223,1,82.4999974822998,4|0,1:0|0:0,0:3:0:0:
452,225,205482,1,2,0:0:0:0:
56,82,205698,6,0,L|60:33,1,50,4|4,1:2|0:3,0:0:0:0:
20,197,206339,5,0,1:0:0:0:
134,167,206555,1,0,1:0:0:0:
223,244,206769,1,4,3:0:0:0:
223,244,206982,5,4,0:3:0:0:
210,332,207089,1,2,0:1:0:0:
296,363,207197,2,0,B|334:336|334:336|410:355,1,125,4|0,0:0|0:0,0:0:0:0:
433,361,207519,1,2,0:0:0:0:
512,181,207626,6,0,B|474:154|474:154|365:178,1,150.000005722046,6|0,1:0|0:0,0:0:0:0:
57,283,208055,5,0,1:0:0:0:
57,283,208269,2,0,L|90:290,1,25,0|0,1:0|0:0,0:0:0:0:
483,47,208698,6,0,P|451:48|368:27,1,99.9999999999999,6|0,1:2|0:0,0:0:0:0:
30,142,209019,2,0,P|62:143|157:115,1,125,2|0,0:1|0:0,0:0:0:0:
284,260,209339,2,0,P|293:179|252:34,1,225.000008583069,6|0,1:0|0:0,0:0:0:0:
419,332,209769,6,2,P|433:308|449:292,1,44.999998626709,4|2,0:0|0:1,0:3:0:0:
195,365,210626,1,0,1:0:0:0:
195,365,210839,6,0,L|145:349,1,50,6|4,3:0|0:3,0:0:0:0:
39,108,211482,5,2,1:0:0:0:
39,108,211697,2,0,P|22:161|27:223,1,99.9999999999999,4|0,0:0|0:0,0:0:0:0:
306,180,212126,1,4,3:0:0:0:
306,180,212233,1,4,3:0:0:0:
306,180,212340,2,0,P|294:234|142:352,1,250,6|0,1:0|0:0,0:0:0:0:
134,106,212983,5,4,0:3:0:0:
158,102,213090,1,4,0:3:0:0:
187,113,213197,1,4,0:3:0:0:
212,140,213304,1,0,0:0:0:0:
217,183,213412,1,4,0:3:0:0:
198,229,213519,1,0,0:0:0:0:
148,255,213626,1,6,3:0:0:0:
85,250,213733,1,0,0:0:0:0:
33,204,213840,5,0,1:0:0:0:
17,130,213947,1,0,1:0:0:0:
53,57,214054,1,0,1:0:0:0:
132,19,214162,1,0,1:0:0:0:
224,33,214269,1,0,1:0:0:0:
290,100,214376,1,0,1:0:0:0:
311,190,214483,6,2,P|305:225|310:271,1,82.4999974822998,6|0,1:0|0:0,0:3:0:0:
321,288,215769,1,2,0:0:0:0:
3,351,215983,6,0,L|53:356,1,50,4|4,1:2|0:3,0:0:0:0:
410,217,216626,5,0,1:0:0:0:
298,241,216840,1,0,1:0:0:0:
268,353,217055,1,4,3:0:0:0:
268,353,217269,1,8,0:3:0:0:
24,34,217483,5,0,1:0:0:0:
8,115,217590,1,0,1:0:0:0:
41,192,217698,1,0,1:0:0:0:
112,235,217805,1,0,1:0:0:0:
193,219,217912,6,2,P|206:185|209:138,1,82.4999974822998,4|0,1:0|0:0,0:3:0:0:
200,117,219198,1,2,0:0:0:0:
490,362,219412,6,0,L|482:313,1,50,4|4,1:2|0:3,0:0:0:0:
512,41,220055,5,4,3:0:0:0:
427,125,220269,1,0,1:0:0:0:
308,107,220483,1,0,1:0:0:0:
308,107,220698,5,4,0:3:0:0:
266,200,220805,1,2,0:1:0:0:
319,281,220912,2,0,B|281:257|281:257|192:274,1,125,4|0,0:0|0:0,0:0:0:0:
184,279,221233,1,2,0:0:0:0:
76,98,221340,6,2,B|52:136|52:136|69:225,1,125,6|0,1:0|0:0,0:3:0:0:
260,367,221769,5,0,1:0:0:0:
260,367,221983,2,0,L|227:374,1,25,0|0,1:0|0:0,0:0:0:0:
0,365,222412,6,0,P|49:352|99:352,1,99.9999999999999,6|0,1:2|0:0,0:0:0:0:
127,75,222733,2,0,P|130:137|152:195,1,125,2|0,0:1|0:0,0:0:0:0:
508,255,223055,2,0,P|396:248|290:283,1,225.000008583069,6|0,1:0|0:0,0:0:0:0:
21,235,223483,6,2,P|43:238|63:248,1,44.999998626709,4|2,0:0|0:1,0:3:0:0:
273,371,224340,1,0,1:0:0:0:
273,371,224555,6,2,L|290:282,1,89.9999999999999,6|4,1:0|0:3,0:1:0:0:
272,14,226697,1,0,0:0:0:0:
272,14,226804,1,0,0:0:0:0:
272,14,226912,6,0,P|247:85|250:174,1,150.000005722046,6|2,1:0|3:0,0:0:0:0:
252,175,227232,1,2,0:0:0:0:
505,90,227339,6,0,P|479:161|408:242,1,175.00000166893,6|4,1:2|3:0,0:0:0:0:
402,242,227662,1,2,0:0:0:0:
119,98,227769,6,0,P|124:172|189:295,1,200,6|2,1:0|3:0,0:0:0:0:
186,295,228089,1,2,0:0:0:0:
469,339,228198,6,0,P|424:355|372:361,1,99.9999999999999,4|2,0:0|0:0,0:0:0:0:
54,276,228840,2,0,P|99:292|195:293,1,134.999995880127,4|2,0:0|0:0,0:0:0:0:
473,158,229697,2,0,P|442:194|370:240,1,120,4|2,0:0|0:0,0:0:0:0:
8,60,230554,6,0,P|21:85|59:118,1,74.9999999999999,4|0,1:2|1:0,0:0:0:0:
498,26,231412,6,2,B|453:36|453:36|427:26|427:26|383:37,1,120,6|0,1:0|1:0,0:3:0:0:
248,267,234197,6,0,P|248:246|267:183,1,75.000002861023,2|2,0:0|0:0,0:0:0:0:
359,330,234626,5,0,1:0:0:0:
282,290,234733,1,0,1:0:0:0:
195,286,234840,1,0,1:0:0:0:
114,317,234947,1,0,1:0:0:0:
50,379,235054,6,0,P|34:349|19:284,1,99.9999999999999,6|0,1:0|0:0,0:0:0:0:
198,11,235697,2,0,P|177:37|147:150,1,134.999995880127,4|0,0:0|0:0,0:0:0:0:
268,384,236554,2,0,P|239:366|178:284,1,120,4|0,1:2|1:0,0:0:0:0:
375,32,237412,6,2,P|345:38|304:72,1,74.9999999999999,6|0,1:2|0:0,0:3:0:0:
512,383,238269,6,2,B|502:338|502:338|512:312|512:312|501:268,1,120,6|0,1:0|1:0,0:3:0:0:
176,40,241054,5,4,0:3:0:0:
233,31,241162,1,4,0:3:0:0:
288,47,241269,1,4,0:3:0:0:
329,86,241376,1,4,0:3:0:0:
351,138,241483,5,0,1:0:0:0:
271,156,241590,1,0,1:0:0:0:
200,201,241697,1,0,1:0:0:0:
166,281,241804,1,0,1:0:0:0:
168,371,241912,6,0,P|119:353|53:351,1,99.9999999999999,4|0,1:0|1:0,0:0:0:0:
375,284,242554,2,0,P|424:266|509:264,1,120,4|0,0:0|0:0,0:0:0:0:
103,210,243412,2,0,P|57:183|15:169,1,89.999997253418,4|0,1:2|0:0,0:0:0:0:
416,86,244269,6,2,P|436:64|464:54,1,59.9999999999999,6|0,1:2|0:0,0:3:0:0:
101,22,245126,6,2,B|62:31|62:31|39:22|39:22|0:31,1,104.999996795654,6|0,1:0|1:0,0:3:0:0:
21,282,248340,5,4,3:0:0:0:
96,353,248554,1,2,0:0:0:0:
96,353,248662,1,0,0:0:0:0:
96,353,248769,6,0,P|135:375|203:373,1,99.9999999999999,4|0,1:0|1:0,0:0:0:0:
443,307,249412,2,0,P|400:321|325:299,1,120,4|0,1:2|0:0,0:0:0:0:
42,210,250269,2,0,P|86:217|138:202,1,89.999997253418,6|0,1:2|0:0,0:0:0:0:
459,122,251126,6,2,P|414:113|402:101,1,59.9999999999999,6|0,1:2|0:0,0:3:0:0:
0,31,251983,6,2,B|29:24|29:24|47:31|47:31|77:24,1,79.9999999999999,6|4,1:0|3:0,0:3:0:0:
256,188,255626,6,0,B|244:240|248:300|296:348|296:348|312:288|376:232|431:251|480:296|456:348|384:328,1,450.000017166138,6|0,0:0|0:0,0:0:0:0:
470,80,258626,5,0,0:0:0:0:
465,83,258733,1,0,0:0:0:0:
460,86,258840,1,0,0:0:0:0:
455,89,258947,1,0,0:0:0:0:
450,92,259054,6,0,B|329:111|361:29|240:50|240:55|239:59|162:189|339:202|339:54|299:-22|137:-22|100:100,1,525.000020027161,2|0,0:0|0:0,0:0:0:0:
8,198,262269,6,0,P|37:214|84:285,1,112.500004291534,6|0,0:0|0:0,0:0:0:0:
138,367,263126,2,0,P|159:342|179:259,1,112.500004291534,2|0,0:0|0:0,0:0:0:0:
214,136,263983,6,0,P|242:158|245:170,1,37.5000014305115,2|2,0:0|0:0,0:0:0:0:
508,383,265483,5,2,0:0:0:0:
508,383,265697,2,2,L|396:368,1,112.500004291534,0|0,0:0|0:0,0:0:0:0:
256,192,266554,12,2,269233,0:0:0:0:
