osu file format v14

[General]
AudioFilename: audio.mp3
AudioLeadIn: 0
PreviewTime: 51643
Countdown: 0
SampleSet: Soft
StackLeniency: 0.3
Mode: 0
LetterboxInBreaks: 0
WidescreenStoryboard: 0

[Editor]
Bookmarks: 23828,35535,47243,53096,76511,99926,123340,135048,146755,170170,193584,206755,230170,253584
DistanceSpacing: 1
BeatDivisor: 4
GridSize: 4
TimelineZoom: 2.300006

[Metadata]
Title:Endorphin
TitleUnicode:Endorphin
Artist:Thinktec
ArtistUnicode:Thinktec
Creator:-Tochi
Version:C158-H251-N39-O46-S
Source:
Tags:drumstep dubstep rin ginsuke neilperry
BeatmapID:1556800
BeatmapSetID:737628

[Difficulty]
HPDrainRate:5
CircleSize:4.5
OverallDifficulty:8.5
ApproachRate:9.4
SliderMultiplier:2.5
SliderTickRate:2

[Events]
//Background and Video events
0,0,"bg.jpg",0,0
//Break Periods
//Storyboard Layer 0 (Background)
//Storyboard Layer 1 (Fail)
//Storyboard Layer 2 (Pass)
//Storyboard Layer 3 (Foreground)
//Storyboard Sound Samples

[TimingPoints]
414,365.8537,4,2,1,50,1,0
23828,-95.2380952380952,4,2,1,50,0,0
24377,-142.8571,4,2,1,50,0,0
25292,-95.2380952380952,4,2,1,50,0,0
25840,-142.8571,4,2,1,50,0,0
26755,-95.2380952380952,4,2,1,50,0,0
27304,-142.8571,4,2,1,50,0,0
28218,-95.2380952380952,4,2,1,50,0,0
28767,-142.8571,4,2,1,50,0,0
28950,-111.1111,4,2,1,50,0,0
29225,-83.33334,4,2,1,50,0,0
29682,-95.2380952380952,4,2,1,50,0,0
30231,-142.8571,4,2,1,50,0,0
31145,-95.2380952380952,4,2,1,50,0,0
31694,-142.8571,4,2,1,50,0,0
32608,-95.2380952380952,4,2,1,50,0,0
33157,-142.8571,4,2,1,50,0,0
34072,-95.2380952380952,4,2,1,50,0,0
34621,-142.8571,4,2,1,50,0,0
35535,-125,4,2,1,60,0,0
50169,-125,4,2,1,60,0,0
51632,-125,4,2,1,60,0,0
51816,-66.66666,4,2,1,60,0,0
51999,-83.33334,4,2,1,60,0,0
52914,-100.0000096,4,2,1,60,0,0
53096,-83.33334,4,2,2,70,0,1
54194,-100,4,2,2,70,0,1
54560,-66.66666,4,2,2,70,0,1
55657,-83.33334,4,2,2,70,0,1
56755,-66.66666,4,2,2,70,0,1
57121,-99.9999850000002,4,2,2,70,0,1
57304,-66.66666,4,2,2,70,0,1
57487,-100,4,2,2,70,0,1
57852,-66.66666,4,2,2,70,0,1
58218,-100,4,2,2,70,0,0
58950,-83.3333333333333,4,2,2,70,0,1
59682,-66.6666666666667,4,2,2,70,0,1
60414,-83.3333333333333,4,2,2,70,0,1
60779,-66.6666666666667,4,2,2,70,0,1
61511,-83.3333333333333,4,2,2,70,0,1
62609,-66.6666666666667,4,2,2,70,0,1
63889,-100,4,2,2,70,0,1
64072,-66.6666666666667,4,2,2,70,0,0
64804,-83.3333333333333,4,2,2,70,0,1
65535,-66.6666666666667,4,2,2,70,0,1
65993,-83.3333333333333,4,2,2,70,0,1
66267,-66.6666666666667,4,2,2,70,0,1
67365,-83.3333333333333,4,2,2,70,0,1
68462,-66.6666666666667,4,2,2,70,0,1
68828,-100,4,2,2,70,0,1
69011,-66.6666666666667,4,2,2,70,0,1
69194,-100,4,2,2,70,0,1
69560,-66.6666666666667,4,2,2,70,0,1
69926,-100,4,2,2,70,0,0
70657,-83.3333333333333,4,2,2,70,0,1
71389,-66.6666666666667,4,2,2,70,0,1
72121,-83.3333333333333,4,2,2,70,0,1
72487,-66.6666666666667,4,2,2,70,0,1
73218,-83.3333333333333,4,2,2,70,0,1
74316,-76.9230769230769,4,2,2,70,0,1
75596,-66.6666666666667,4,2,2,70,0,1
75779,-66.6666666666667,4,2,2,70,0,0
75962,-76.9230769230769,4,2,2,70,0,0
76511,-83.3333333333333,4,2,2,70,0,0
78706,-71.4285714285714,4,2,2,70,0,0
79438,-83.3333333333333,4,2,2,70,0,0
81633,-50,4,2,2,70,0,0
82365,-83.3333333333333,4,2,2,70,0,0
84560,-71.4285714285714,4,2,2,70,0,0
85292,-83.3333333333333,4,2,2,70,0,0
86938,-55.5555555555556,4,2,2,70,0,0
87487,-100,4,2,2,70,0,0
87532,-100,4,2,2,5,0,0
87761,-100,4,2,2,70,0,0
87807,-100,4,2,2,5,0,0
88035,-100,4,2,2,70,0,0
88081,-100,4,2,2,5,0,0
88218,-83.3333333333333,4,2,2,70,0,0
88950,-100,4,2,2,70,0,0
89316,-71.4285714285714,4,2,2,70,0,0
89682,-50,4,2,2,70,0,0
89865,-58.8235294117647,4,2,2,70,0,0
90414,-100,4,2,2,70,0,0
90779,-71.4285714285714,4,2,2,70,0,0
90962,-90.9090909090909,4,2,2,70,0,0
91145,-71.4285714285714,4,2,2,70,0,0
91328,-90.9090909090909,4,2,2,70,0,0
91511,-71.4285714285714,4,2,2,70,0,0
92060,-83.3333333333333,4,2,2,70,0,0
93340,-50,4,2,2,70,0,0
94072,-83.3333333333333,4,2,2,70,0,0
94804,-100,4,2,2,70,0,0
95170,-71.4285714285714,4,2,2,70,0,0
95535,-50,4,2,2,70,0,0
95718,-58.8235294117647,4,2,2,70,0,0
96267,-100,4,2,2,70,0,0
96633,-71.4285714285714,4,2,2,70,0,0
96816,-90.9090909090909,4,2,2,70,0,0
96999,-71.4285714285714,4,2,2,70,0,0
97182,-90.9090909090909,4,2,2,70,0,0
97365,-71.4285714285714,4,2,2,70,0,0
97914,-83.3333333333333,4,2,2,70,0,0
98645,-55.5555555555556,4,2,2,70,0,0
99194,-100,4,2,2,70,0,0
99240,-100,4,2,2,5,0,0
99468,-100,4,2,2,70,0,0
99514,-100,4,2,2,5,0,0
99743,-100,4,2,2,70,0,0
99789,-100,4,2,2,5,0,0
99926,-83.3333333333333,4,2,1,60,0,1
105048,-66.6666666666667,4,2,1,60,0,0
105779,-83.3333333333333,4,2,1,60,0,1
110901,-66.6666666666667,4,2,1,60,0,0
111176,-50,4,2,1,60,0,0
111313,-50,4,2,1,5,0,0
111359,-66.6666666666667,4,2,1,60,0,0
111633,-83.3333333333333,4,2,1,60,0,1
116755,-66.6666666666667,4,2,1,60,0,0
117487,-83.3333333333333,4,2,1,60,0,1
122609,-66.6666666666667,4,2,1,60,0,0
122883,-50,4,2,1,60,0,0
123020,-50,4,2,1,5,0,0
123066,-66.6666666666667,4,2,1,60,0,0
126267,-153.846153846154,4,2,1,50,0,0
134316,-200,4,2,1,50,0,0
135048,-125,4,2,1,60,0,0
146755,-142.857142857143,4,2,1,60,0,0
146846,-142.857142857143,4,2,1,40,0,0
147578,-142.857142857143,4,2,1,5,0,0
147670,-142.857142857143,4,2,1,40,0,0
149590,-142.857142857143,4,2,1,5,0,0
149682,-142.857142857143,4,2,1,40,0,0
150688,-142.857142857143,4,2,1,5,0,0
150779,-142.857142857143,4,2,1,40,0,0
152517,-142.857142857143,4,2,1,5,0,0
152609,-142.857142857143,4,2,1,40,0,0
153432,-142.857142857143,4,2,1,5,0,0
153523,-142.857142857143,4,2,1,40,0,0
155444,-142.857142857143,4,2,1,5,0,0
155535,-142.857142857143,4,2,1,40,0,0
156542,-142.857142857143,4,2,1,5,0,0
156633,-142.857142857143,4,2,1,40,0,0
157273,-142.857142857143,4,2,1,5,0,0
157365,-142.857142857143,4,2,1,40,0,0
158371,-142.857142857143,4,2,1,5,0,0
158462,-142.857142857143,4,2,1,40,0,0
159285,-142.857142857143,4,2,1,5,0,0
159377,-142.857142857143,4,2,1,40,0,0
162395,-142.857142857143,4,2,1,5,0,0
162487,-142.857142857143,4,2,1,40,0,0
164224,-142.857142857143,4,2,1,5,0,0
164316,-142.857142857143,4,2,1,40,0,0
165139,-142.857142857143,4,2,1,5,0,0
165231,-142.857142857143,4,2,1,40,0,0
167151,-142.857142857143,4,2,1,5,0,0
167243,-142.857142857143,4,2,1,40,0,0
168249,-142.857142857143,4,2,1,5,0,0
168340,-142.857142857143,4,2,1,40,0,0
168981,-142.857142857143,4,2,1,5,0,0
169072,-142.857142857143,4,2,1,40,0,0
170078,-142.857142857143,4,2,1,5,0,0
170170,-142.857142857143,4,2,1,50,0,0
174011,-100,4,2,1,50,0,0
174285,-142.857142857143,4,2,1,50,0,0
175292,-100,4,2,1,50,0,0
175566,-142.857142857143,4,2,1,50,0,0
179865,-100,4,2,1,50,0,0
180139,-142.857142857143,4,2,1,50,0,0
181145,-100,4,2,1,50,0,0
181420,-142.857142857143,4,2,1,50,0,0

[HitObjects]
218,139,23828,6,0,L|79:124,1,131.25,4|0,1:2|0:0,0:0:0:0:
17,152,24103,1,0,1:0:0:0:
176,252,24377,6,0,L|133:258,1,43.75,0|0,1:0|0:0,0:0:0:0:
133,258,24561,2,0,L|224:270,1,87.5,0|0,1:0|0:0,0:0:0:0:
302,249,24834,2,0,P|326:246|354:256,2,43.75,0|0|0,1:0|0:0|0:0,0:0:0:0:
238,345,25109,2,0,P|216:348|195:343,1,43.75,0|0,1:0|0:0,0:0:0:0:
82,203,25292,6,0,P|71:149|120:92,1,131.25,0|0,1:0|0:0,0:0:0:0:
165,147,25566,1,0,1:0:0:0:
232,55,25840,6,0,L|273:72,1,43.75,0|0,1:0|0:0,0:0:0:0:
273,72,26023,2,0,L|358:105,1,87.5,0|0,1:0|0:0,0:0:0:0:
449,80,26298,2,0,P|438:99|436:124,2,43.75,0|0|0,1:0|0:0|0:0,0:0:0:0:
461,245,26572,2,0,P|458:267|448:286,1,43.75,0|0,1:0|0:0,0:0:0:0:
394,193,26755,6,0,L|255:209,1,131.25,0|0,1:0|0:0,0:0:0:0:
222,270,27029,1,0,1:0:0:0:
133,319,27304,6,0,L|176:328,1,43.75,0|0,1:0|0:0,0:0:0:0:
193,339,27487,2,0,L|97:319,1,87.5,0|0,1:0|0:0,0:0:0:0:
43,273,27761,2,0,P|36:252|44:225,2,43.75,0|0|0,1:0|0:0|0:0,0:0:0:0:
185,190,28035,2,0,P|188:168|181:148,1,43.75,0|0,1:0|0:0,0:0:0:0:
26,21,28218,6,0,P|62:54|90:133,1,131.25,0|0,1:0|0:0,0:0:0:0:
79,204,28493,1,0,1:0:0:0:
168,306,28767,6,0,L|159:263,1,43.75,0|0,1:0|0:0,0:0:0:0:
141,266,28950,2,0,L|163:376,1,112.5,8|0,1:2|0:0,0:0:0:0:
87,367,29225,2,0,L|71:293,1,75,8|0,1:2|0:0,0:0:0:0:
237,360,29407,2,0,L|163:375,1,75,0|0,1:0|0:0,0:0:0:0:
80,217,29590,1,8,1:2:0:0:
141,266,29682,6,0,L|272:238,1,131.25,0|0,1:0|0:0,0:0:0:0:
315,179,29956,1,0,1:0:0:0:
251,48,30231,6,0,P|249:69|252:91,1,43.75,0|0,1:0|0:0,0:0:0:0:
253,92,30413,2,0,P|260:51|254:5,1,87.5,0|0,1:0|0:0,0:0:0:0:
181,27,30688,2,0,P|183:49|180:71,2,43.75,0|0|0,1:0|0:0|0:0,0:0:0:0:
157,186,30963,2,0,P|154:164|158:142,1,43.75,0|0,1:0|0:0,0:0:0:0:
46,20,31145,6,0,P|75:76|50:135,1,131.25,0|0,1:0|0:0,0:0:0:0:
9,196,31420,1,0,1:0:0:0:
147,290,31694,6,0,P|147:312|156:333,1,43.75,0|0,1:0|0:0,0:0:0:0:
156,333,31877,2,0,P|201:331|242:316,1,87.5,0|0,1:0|0:0,0:0:0:0:
310,250,32151,2,0,P|331:256|348:283,2,43.75,0|0|0,1:0|0:0|0:0,0:0:0:0:
347,159,32427,2,0,P|368:158|387:168,1,43.75,0|0,1:0|0:0,0:0:0:0:
350,62,32609,6,0,P|397:40|469:64,1,131.25,0|0,1:0|0:0,0:0:0:0:
457,138,32884,1,0,1:0:0:0:
377,357,33157,6,0,P|376:335|370:314,1,43.75,0|0,1:0|0:0,0:0:0:0:
371,315,33340,2,0,P|329:327|286:325,1,87.5,0|0,1:0|0:0,0:0:0:0:
209,279,33615,2,0,P|187:290|159:289,2,43.75,0|0|0,1:0|0:0|0:0,0:0:0:0:
124,195,33889,2,0,P|146:201|167:197,1,43.75,0|0,1:0|0:0,0:0:0:0:
154,108,34072,6,0,P|91:94|38:56,1,131.25,0|0,1:0|0:0,0:0:0:0:
93,7,34346,1,0,1:0:0:0:
30,187,34621,6,0,P|35:208|47:227,1,43.75,0|0,1:0|0:0,0:0:0:0:
47,227,34804,2,0,P|88:234|131:218,1,87.5,0|0,1:0|0:0,0:0:0:0:
168,290,35078,2,0,P|191:287|214:297,1,43.75,0|0,1:0|0:0,0:0:0:0:
367,244,35261,5,0,3:0:0:0:
303,282,35353,1,0,3:0:0:0:
265,218,35444,1,0,3:0:0:0:
336,149,35535,6,0,L|498:123,1,150,4|0,1:2|1:0,0:0:0:0:
372,322,35993,1,0,0:0:0:0:
357,348,36084,1,0,1:0:0:0:
362,157,36267,1,0,1:0:0:0:
239,233,36450,1,0,0:0:0:0:
213,248,36541,1,0,1:0:0:0:
168,89,36724,1,0,0:0:0:0:
138,89,36816,2,0,L|79:90,1,50,0|0,3:0|3:0,0:0:0:0:
12,217,36999,6,0,P|58:273|126:253,1,150,0|0,1:0|1:0,0:0:0:0:
208,283,37364,1,0,3:0:0:0:
220,204,37456,1,0,3:0:0:0:
145,231,37548,1,0,3:0:0:0:
242,79,37731,6,0,L|235:54,2,25,0|0|0,3:0|3:0|3:0,0:0:0:0:
308,140,37914,2,0,L|330:95,1,50,0|0,3:0|0:0,0:0:0:0:
396,152,38096,2,0,L|418:196,1,50,0|0,3:0|0:0,0:0:0:0:
506,95,38279,1,0,3:0:0:0:
484,140,38370,1,0,3:0:0:0:
499,273,38462,6,0,L|342:289,1,150,0|0,1:0|1:0,0:0:0:0:
191,169,38920,1,0,0:0:0:0:
166,149,39011,1,0,1:0:0:0:
332,280,39194,1,0,1:0:0:0:
129,243,39376,1,0,0:0:0:0:
97,238,39468,1,0,1:0:0:0:
111,337,39651,1,0,3:0:0:0:
81,349,39743,2,0,L|139:359,1,50,0|0,3:0|3:0,0:0:0:0:
276,339,39926,6,0,B|293:268|293:268|277:240,1,100,0|0,1:0|0:0,0:0:0:0:
288,151,40200,2,0,P|341:156|371:120,1,100,0|0,1:0|0:0,0:0:0:0:
463,138,40474,5,0,3:0:0:0:
447,165,40566,1,0,1:0:0:0:
432,238,40658,5,0,3:0:0:0:
408,270,40749,1,0,1:0:0:0:
335,291,40840,5,0,3:0:0:0:
303,317,40932,1,0,1:0:0:0:
232,292,41023,5,0,3:0:0:0:
187,315,41115,1,0,1:0:0:0:
137,311,41206,1,0,3:0:0:0:
98,278,41298,1,0,3:0:0:0:
69,205,41389,6,0,P|30:162|47:78,1,150,0|0,1:0|1:0,0:0:0:0:
306,28,41846,1,0,0:0:0:0:
335,22,41937,1,0,1:0:0:0:
174,158,42121,1,0,1:0:0:0:
344,177,42303,1,0,0:0:0:0:
373,181,42395,1,0,1:0:0:0:
328,329,42577,1,0,3:0:0:0:
354,343,42670,2,0,L|407:372,1,50,0|0,3:0|3:0,0:0:0:0:
477,241,42853,6,0,P|508:194|471:117,1,150,0|0,1:0|1:0,0:0:0:0:
370,68,43218,1,0,3:0:0:0:
367,148,43310,1,0,3:0:0:0:
440,112,43401,1,0,3:0:0:0:
345,319,43584,6,0,L|354:343,2,25,0|0|0,3:0|3:0|3:0,0:0:0:0:
273,263,43767,2,0,L|255:309,1,50,0|0,3:0|0:0,0:0:0:0:
185,259,43950,2,0,L|159:217,1,50,0|0,3:0|0:0,0:0:0:0:
80,326,44133,1,0,3:0:0:0:
98,279,44225,1,0,3:0:0:0:
33,214,44316,6,0,P|53:150|76:58,1,150,0|0,1:0|1:0,0:0:0:0:
258,176,44773,1,0,0:0:0:0:
230,186,44865,1,0,1:0:0:0:
418,118,45047,1,0,1:0:0:0:
336,264,45231,1,0,0:0:0:0:
320,289,45322,1,0,1:0:0:0:
451,280,45505,1,0,3:0:0:0:
455,310,45596,2,0,L|480:258,1,50,0|0,3:0|3:0,0:0:0:0:
496,84,45779,6,0,P|465:48|414:35,1,100,0|0,1:0|0:0,0:0:0:0:
372,101,46054,2,0,P|404:137|452:150,1,100,0|0,1:0|0:0,0:0:0:0:
406,229,46328,5,0,3:0:0:0:
377,242,46420,1,0,1:0:0:0:
320,289,46511,5,0,3:0:0:0:
281,300,46602,1,0,1:0:0:0:
204,270,46694,5,0,3:0:0:0:
160,272,46785,1,0,1:0:0:0:
111,203,46876,5,0,3:0:0:0:
56,193,46968,1,0,3:0:0:0:
8,148,47060,1,0,3:0:0:0:
10,78,47151,1,0,3:0:0:0:
65,12,47243,5,4,3:2:0:0:
256,192,47334,12,0,50169,0:0:0:0:
57,50,51632,6,0,L|63:74,3,25,8|8|8|8,0:0|0:0|0:0|0:0,0:0:0:0:
78,114,51816,6,0,L|91:164,3,46.875,8|8|8|8,0:0|0:0|0:0|0:0,0:0:0:0:
105,201,51999,6,0,L|125:276,3,75,8|8|8|8,0:0|0:0|0:0|0:0,0:0:0:0:
201,211,52731,5,8,0:0:0:0:
279,186,52822,1,8,0:0:0:0:
268,274,52914,2,0,L|278:339,1,62.4999952316288,8|8,0:0|0:0,0:0:0:0:
282,364,53097,6,0,P|202:338|128:360,1,150,4|0,1:2|0:0,0:0:0:0:
85,291,53371,1,0,1:0:0:0:
139,353,53463,2,0,P|288:366|354:320,1,225,0|0,1:0|0:0,0:0:0:0:
346,328,53828,5,8,0:0:0:0:
300,268,54011,1,0,0:0:0:0:
300,193,54194,6,0,P|292:218|299:265,1,62.5,0|0,3:0|0:0,0:0:0:0:
343,131,54377,2,0,P|322:147|302:190,1,62.5,0|0,3:0|0:0,0:0:0:0:
412,100,54560,6,0,B|328:91|328:91|307:101|307:101|227:92,1,187.5,0|0,1:0|1:0,0:0:0:0:
350,54,54834,1,0,1:0:0:0:
492,110,54926,2,0,B|519:194|519:194|445:265|445:265|417:181,1,281.25,0|0,1:0|0:0,0:0:0:0:
417,180,55292,1,8,0:0:0:0:
444,288,55474,1,0,0:0:0:0:
412,100,55657,2,0,P|318:155|297:273,1,225,0|0,1:0|0:0,0:0:0:0:
347,333,56023,6,0,B|390:345|390:345|366:327,1,75,0|0,1:0|0:0,0:0:0:0:
208,280,56206,2,0,B|164:267|164:267|189:286,1,75,0|0,1:0|0:0,0:0:0:0:
444,288,56389,2,0,B|328:272|352:372|240:356,1,225,0|0,1:0|0:0,0:0:0:0:
122,332,56755,6,0,P|111:219|207:279,1,281.25,8|0,0:0|0:0,0:0:0:0:
182,186,57121,2,0,L|168:123,1,62.5000095367446,0|0,1:0|0:0,0:0:0:0:
56,165,57304,2,0,P|70:124|84:146,1,93.75,0|0,1:0|0:0,0:0:0:0:
4,247,57487,6,0,P|35:246|62:258,1,62.5,0|0,1:0|0:0,0:0:0:0:
182,186,57670,2,0,P|212:179|241:187,1,62.5,0|0,1:0|0:0,0:0:0:0:
350,96,57852,2,0,P|452:113|398:252,1,281.25,0|0,1:0|0:0,0:0:0:0:
343,229,58218,2,0,P|352:199|378:182,1,62.5,8|0,0:0|0:0,0:0:0:0:
488,310,58401,5,0,1:0:0:0:
475,314,58493,2,0,L|417:336,1,62.5,0|0,1:0|0:0,0:0:0:0:
303,312,58676,1,0,1:0:0:0:
290,317,58767,2,0,L|232:338,1,62.5,0|0,1:0|0:0,0:0:0:0:
118,315,58950,6,0,P|92:274|138:195,1,149.999995422363,0|0,1:0|0:0,0:0:0:0:
216,222,59224,1,0,1:0:0:0:
138,194,59316,2,0,P|91:148|169:41,1,224.999993133545,0|0,1:0|0:0,0:0:0:0:
165,120,59682,6,0,B|238:126|238:126|288:186|288:186|361:192|361:192|420:142|420:142|494:148,1,375.000014305115,8|0,0:0|0:0,0:0:0:0:
460,91,60139,1,0,1:0:0:0:
392,91,60231,1,0,1:0:0:0:
343,135,60322,1,0,3:0:0:0:
295,221,60414,6,0,B|275:253|275:253|291:289,1,74.9999977111817,0|0,1:0|0:0,0:0:0:0:
424,345,60596,2,0,B|439:310|439:310|419:278,1,74.9999977111817,0|0,1:0|0:0,0:0:0:0:
369,213,60779,2,0,B|323:243|178:289|116:187|230:89|283:206,1,281.250010728836,0|0,1:0|0:0,0:0:0:0:
246,163,61145,1,8,0:0:0:0:
379,211,61328,1,0,0:0:0:0:
205,79,61511,2,0,B|169:90|169:90|137:72,1,74.9999977111817,0|0,3:0|0:0,0:0:0:0:
85,197,61694,2,0,B|117:215|117:215|153:204,1,74.9999977111817,0|0,3:0|0:0,0:0:0:0:
169,335,61877,6,0,B|97:357|97:357|33:321,1,149.999995422363,0|0,1:0|0:0,0:0:0:0:
2,243,62151,1,0,1:0:0:0:
32,320,62243,2,0,B|115:312|115:312|132:319|132:319|259:308,1,224.999993133545,0|0,1:0|0:0,0:0:0:0:
336,269,62609,6,0,B|388:253|409:324|376:361|321:347|321:347|254:266|295:144,1,375.000014305115,8|0,0:0|0:0,0:0:0:0:
297,115,63066,5,0,1:0:0:0:
361,60,63157,1,0,1:0:0:0:
453,81,63249,1,0,3:0:0:0:
484,168,63340,2,0,L|514:180,12,23.4375008940697,0|0|0|0|0|0|0|0|0|0|0|0|0,1:0|0:0|0:0|0:0|0:0|0:0|0:0|0:0|0:0|0:0|0:0|0:0|0:0,0:0:0:0:
509,259,63706,5,0,3:0:0:0:
427,283,63798,1,0,3:0:0:0:
346,307,63889,2,0,P|321:289|287:296,1,62.5,0|0,1:0|3:0,0:0:0:0:
91,265,64072,6,0,P|153:201|244:216,1,187.500007152558,8|0,0:0|1:0,0:0:0:0:
311,168,64346,2,0,P|355:160|385:192,2,93.7500035762788,8|0|0,0:0|3:0|3:0,0:0:0:0:
184,293,64621,2,0,P|214:326|258:318,1,93.7500035762788,8|8,0:0|0:0,0:0:0:0:
410,328,64804,6,0,P|463:274|460:198,1,149.999995422363,4|0,1:2|0:0,0:0:0:0:
403,144,65078,1,0,1:0:0:0:
462,203,65170,2,0,P|475:98|368:67,1,224.999993133545,0|0,1:0|0:0,0:0:0:0:
350,76,65535,6,0,B|367:46|423:48|452:138|334:173|218:130|132:48,1,375.000014305115,8|0,0:0|0:0,0:0:0:0:
165,17,65993,2,0,L|230:61,1,74.9999977111817,0|0,1:0|3:0,0:0:0:0:
244,150,66176,1,0,3:0:0:0:
260,240,66267,6,0,L|419:348,1,187.500007152558,0|0,1:0|1:0,0:0:0:0:
426,260,66542,1,0,1:0:0:0:
405,368,66633,2,0,B|248:262|248:262|185:338,1,281.250010728836,0|0,1:0|0:0,0:0:0:0:
189,333,66999,1,8,0:0:0:0:
260,240,67182,1,0,0:0:0:0:
91,359,67365,2,0,P|26:271|50:164,1,224.999993133545,0|0,1:0|0:0,0:0:0:0:
125,117,67731,6,0,B|181:97|181:97|159:92,1,74.9999977111817,0|0,1:0|0:0,0:0:0:0:
371,66,67914,2,0,B|315:86|315:86|337:91,1,74.9999977111817,0|0,1:0|0:0,0:0:0:0:
260,161,68096,2,0,P|225:212|341:257,1,224.999993133545,0|0,1:0|0:0,0:0:0:0:
347,281,68462,6,0,P|221:272|239:147,1,281.250010728836,8|0,0:0|0:0,0:0:0:0:
349,201,68828,2,0,P|379:205|403:224,1,62.5,0|0,1:0|0:0,0:0:0:0:
404,339,69011,2,0,P|369:361|314:355,1,93.7500035762788,0|0,1:0|0:0,0:0:0:0:
120,210,69194,6,0,L|132:148,1,62.5,0|0,1:0|0:0,0:0:0:0:
246,99,69377,2,0,L|259:160,1,62.5,0|0,1:0|0:0,0:0:0:0:
273,289,69560,2,0,B|178:205|116:382|13:313,1,281.250010728836,0|0,1:0|0:0,0:0:0:0:
15,314,69926,2,0,P|47:309|83:328,1,62.5,8|0,0:0|0:0,0:0:0:0:
105,214,70109,5,0,1:0:0:0:
120,210,70200,2,0,L|186:193,1,62.5,0|0,1:0|0:0,0:0:0:0:
273,289,70383,1,0,1:0:0:0:
288,285,70474,2,0,L|354:268,1,62.5,0|0,1:0|0:0,0:0:0:0:
441,364,70657,6,0,P|452:292|472:215,1,149.999995422363,0|0,1:0|0:0,0:0:0:0:
505,140,70932,1,0,1:0:0:0:
442,193,71023,2,0,P|345:126|246:150,1,224.999993133545,0|0,1:0|0:0,0:0:0:0:
175,197,71389,6,0,B|252:227|252:227|430:111|430:111|505:140,1,375.000014305115,8|0,0:0|0:0,0:0:0:0:
442,212,71846,1,0,1:0:0:0:
386,247,71938,1,0,1:0:0:0:
331,282,72029,1,0,3:0:0:0:
400,336,72121,6,0,B|430:355|430:355|466:342,1,74.9999977111817,0|0,1:0|0:0,0:0:0:0:
319,199,72304,2,0,B|288:179|288:179|252:192,1,74.9999977111817,0|0,1:0|0:0,0:0:0:0:
179,314,72487,2,0,B|127:375|29:373|-3:297|-3:297|24:238,1,281.250010728836,0|0,1:0|0:0,0:0:0:0:
22,241,72853,1,8,0:0:0:0:
192,305,73035,1,0,0:0:0:0:
99,102,73218,2,0,B|120:144|120:144|112:180,1,74.9999977111817,0|0,3:0|0:0,0:0:0:0:
234,221,73401,2,0,B|255:179|255:179|248:151,1,74.9999977111817,0|0,3:0|0:0,0:0:0:0:
369,102,73584,6,0,B|411:186|411:186|398:240,1,149.999995422363,0|0,1:0|0:0,0:0:0:0:
316,258,73859,1,0,1:0:0:0:
397,270,73950,2,0,P|483:201|470:88,1,224.999993133545,0|0,1:0|0:0,0:0:0:0:
474,95,74316,6,0,P|397:186|469:365,1,324.999985122681,8|0,0:0|0:0,0:0:0:0:
501,348,74773,1,0,1:0:0:0:
419,339,74865,1,0,3:0:0:0:
338,330,74956,1,0,3:0:0:0:
256,321,75048,6,0,P|246:279|269:246,1,81.2499962806703,0|0,1:0|0:0,0:0:0:0:
346,209,75231,1,0,1:0:0:0:
270,160,75322,2,0,P|251:125|261:87,2,81.2499962806703,0|0|0,1:0|0:0|3:0,0:0:0:0:
346,209,75596,6,0,L|157:195,1,187.500007152558,0|8,3:0|0:0,0:0:0:0:
126,224,75825,2,0,L|121:270,2,46.8750017881394,0|0|0,3:0|3:0|0:0,0:0:0:0:
93,303,75962,2,0,L|178:312,1,81.2499962806703,0|0,1:0|1:0,0:0:0:0:
256,321,76145,1,0,0:0:0:0:
338,330,76237,2,0,L|418:338,2,81.2499962806703,0|0|0,1:0|3:0|3:0,0:0:0:0:
265,240,76511,6,0,L|279:80,1,149.999995422363,4|0,1:2|0:0,0:0:0:0:
351,52,76785,1,0,1:0:0:0:
268,61,76877,2,0,L|37:86,1,224.999993133545,0|0,1:0|0:0,0:0:0:0:
31,78,77243,5,8,0:0:0:0:
44,86,77426,2,0,B|59:130|59:130|53:159,1,74.9999977111817,8|0,3:0|0:0,0:0:0:0:
166,190,77609,2,0,B|145:232|145:232|120:248,1,74.9999977111817,8|0,3:0|0:0,0:0:0:0:
178,349,77792,2,0,B|133:364|133:364|104:358,1,74.9999977111817,8|0,3:0|0:0,0:0:0:0:
5,282,77974,5,0,1:0:0:0:
268,61,78157,2,0,P|302:46|339:51,1,74.9999977111817,8|0,3:0|0:0,0:0:0:0:
389,152,78340,2,0,P|423:165|446:195,1,74.9999977111817,8|0,3:0|0:0,0:0:0:0:
410,301,78523,2,0,P|425:335|419:372,1,74.9999977111817,8|0,3:0|0:0,0:0:0:0:
306,199,78706,6,0,P|323:238|317:281,1,87.499997329712,8|0,0:0|0:0,0:0:0:0:
226,356,78889,2,0,P|186:373|143:367,1,87.499997329712,0|0,3:0|0:0,0:0:0:0:
69,276,79072,2,0,P|33:196|95:36,1,262.499991989136,0|0,1:0|0:0,0:0:0:0:
118,40,79438,6,0,B|185:45|185:45|196:55|196:55|266:61,1,149.999995422363,0|0,1:0|0:0,0:0:0:0:
346,73,79712,1,0,1:0:0:0:
268,103,79804,2,0,P|263:183|368:151,1,224.999993133545,0|0,1:0|0:0,0:0:0:0:
378,143,80170,5,8,0:0:0:0:
367,154,80353,2,0,L|441:166,1,74.9999977111817,8|0,3:0|0:0,0:0:0:0:
370,262,80535,2,0,L|296:250,1,74.9999977111817,8|0,3:0|0:0,0:0:0:0:
332,363,80718,2,0,L|405:375,1,74.9999977111817,8|0,3:0|0:0,0:0:0:0:
374,245,80901,5,0,1:0:0:0:
59,352,81084,2,0,P|37:327|34:279,1,74.9999977111817,8|0,3:0|0:0,0:0:0:0:
92,189,81267,2,0,P|94:155|125:119,1,74.9999977111817,8|0,3:0|0:0,0:0:0:0:
230,97,81450,2,0,P|255:75|303:72,1,74.9999977111817,8|0,3:0|0:0,0:0:0:0:
469,258,81633,6,0,B|460:228|460:228|430:237|430:237|440:267|440:267|469:258,1,125,8|0,0:0|0:0,0:0:0:0:
335,301,81816,2,0,B|365:291|365:291|356:261|356:261|326:271|326:271|335:301,1,125,0|0,1:0|0:0,0:0:0:0:
292,168,81999,2,0,B|301:197|301:197|331:188|331:188|321:158|321:158|292:168,1,125,0|0,1:0|0:0,0:0:0:0:
426,125,82182,2,0,B|396:134|396:134|405:164|405:164|435:154|435:154|426:125,1,125,0|0,1:0|0:0,0:0:0:0:
242,315,82365,6,0,P|177:353|93:328,1,149.999995422363,4|0,1:2|0:0,0:0:0:0:
54,274,82639,1,0,1:0:0:0:
74,354,82731,2,0,P|163:301|278:336,1,224.999993133545,0|0,1:0|0:0,0:0:0:0:
283,346,83096,5,8,0:0:0:0:
273,332,83279,2,0,P|257:298|274:255,1,74.9999977111817,8|0,3:0|0:0,0:0:0:0:
179,197,83462,2,0,P|191:161|234:143,1,74.9999977111817,8|0,3:0|0:0,0:0:0:0:
207,35,83645,2,0,P|240:19|283:36,1,74.9999977111817,8|0,3:0|0:0,0:0:0:0:
369,150,83828,5,0,1:0:0:0:
74,264,84011,2,0,B|107:280|107:280|143:270,1,74.9999977111817,8|0,3:0|0:0,0:0:0:0:
208,358,84194,2,0,B|242:345|242:345|261:313,1,74.9999977111817,8|0,3:0|0:0,0:0:0:0:
370,329,84377,2,0,B|386:295|386:295|376:259,1,74.9999977111817,8|0,3:0|0:0,0:0:0:0:
223,144,84560,6,0,P|246:180|296:188,1,87.499997329712,8|0,0:0|0:0,0:0:0:0:
407,224,84743,2,0,P|438:194|437:143,1,87.499997329712,0|0,3:0|0:0,0:0:0:0:
312,85,84926,2,0,P|208:31|80:81,1,262.499991989136,0|0,1:0|0:0,0:0:0:0:
67,107,85292,6,0,P|119:172|102:241,1,149.999995422363,0|0,1:0|0:0,0:0:0:0:
39,280,85566,1,0,1:0:0:0:
119,265,85657,2,0,B|147:256|162:240|162:240|198:242|220:267|220:267|252:261|269:240|269:240|293:250|320:249,1,224.999993133545,0|0,1:0|0:0,0:0:0:0:
340,247,86023,5,8,0:0:0:0:
319,249,86206,2,0,L|299:167,1,74.9999977111817,8|0,3:0|0:0,0:0:0:0:
430,223,86389,2,0,L|409:140,1,74.9999977111817,8|0,3:0|0:0,0:0:0:0:
208,275,86572,2,0,L|189:202,1,74.9999977111817,8|0,3:0|0:0,0:0:0:0:
278,85,86755,1,0,1:0:0:0:
283,79,86846,1,0,3:0:0:0:
286,71,86938,6,0,B|184:20|184:20|79:68,1,224.999993133545,8|0,3:2|0:0,0:0:0:0:
82,65,87212,2,0,B|183:115|183:115|285:69,1,224.999993133545,8|0,3:2|0:0,0:0:0:0:
357,31,87487,6,0,P|371:26|387:28,1,31.25,0|0,3:0|0:0,0:0:0:0:
90,199,87761,6,0,P|74:202|60:197,1,31.25,0|0,3:0|0:0,0:0:0:0:
357,354,88035,6,0,P|371:351|386:356,1,31.25,0|0,3:0|0:0,0:0:0:0:
475,233,88218,6,0,P|426:193|332:220,1,149.999995422363,4|0,1:2|0:0,0:0:0:0:
278,257,88493,1,0,1:0:0:0:
310,183,88584,2,0,P|220:214|102:151,1,224.999993133545,0|0,1:0|0:0,0:0:0:0:
118,110,88950,6,0,B|150:87|150:87|181:98|181:98|213:76|213:76|248:91|248:91|285:72,1,187.5,8|0,0:0|0:0,0:0:0:0:
304,60,89316,6,0,B|337:35|337:35|382:44,1,87.499997329712,0|0,3:0|0:0,0:0:0:0:
460,60,89499,2,0,B|415:68|415:68|382:44,1,87.499997329712,0|0,3:0|0:0,0:0:0:0:
500,140,89682,6,0,L|477:274,1,125,0|0,1:0|0:0,0:0:0:0:
471,280,89865,6,0,B|387:309|387:309|311:267|311:267|230:308|230:308|164:275|164:275|84:316,1,425.000008106232,0|0,3:0|0:0,0:0:0:0:
70,325,90322,1,0,0:0:0:0:
70,325,90414,6,0,B|42:277|42:277|55:242|55:242|35:207|35:207|53:152,1,187.5,8|0,0:0|0:0,0:0:0:0:
74,142,90779,6,0,L|166:126,1,87.499997329712,0|0,3:0|0:0,0:0:0:0:
256,131,90962,2,0,L|347:147,1,68.7500020980836,0|0,3:0|0:0,0:0:0:0:
357,66,91145,6,0,L|270:50,1,87.499997329712,0|0,1:0|0:0,0:0:0:0:
146,48,91328,2,0,L|59:62,1,68.7500020980836,0|0,3:0|0:0,0:0:0:0:
154,234,91511,6,0,P|163:264|162:233,1,87.499997329712,0|0,3:0|0:0,0:0:0:0:
314,292,91694,2,0,P|340:309|319:286,1,87.499997329712,0|0,3:0|0:0,0:0:0:0:
453,218,91877,5,8,0:0:0:0:
469,208,92060,2,0,L|479:134,1,74.9999977111817,0|0,3:0|0:0,0:0:0:0:
363,39,92243,2,0,L|353:113,1,74.9999977111817,0|0,3:0|0:0,0:0:0:0:
215,175,92426,2,0,L|224:100,1,74.9999977111817,0|0,3:0|0:0,0:0:0:0:
125,14,92609,1,0,1:0:0:0:
314,292,92792,6,0,P|288:317|242:320,1,74.9999977111817,0|0,3:0|0:0,0:0:0:0:
161,272,92974,2,0,P|125:274|93:254,1,74.9999977111817,0|0,3:0|0:0,0:0:0:0:
58,158,93157,2,0,P|28:136|17:91,1,74.9999977111817,0|0,3:0|0:0,0:0:0:0:
195,37,93340,6,0,B|199:68|199:68|230:64|230:64|226:33|226:33|195:37,1,125,8|0,0:0|0:0,0:0:0:0:
334,18,93523,2,0,B|303:22|303:22|307:53|307:53|338:49|338:49|334:18,1,125,0|0,1:0|0:0,0:0:0:0:
355,156,93706,2,0,B|351:125|351:125|320:129|320:129|324:160|324:160|355:156,1,125,0|0,1:0|0:0,0:0:0:0:
215,175,93889,2,0,B|246:171|246:171|242:140|242:140|211:144|211:144|215:175,1,125,0|0,1:0|0:0,0:0:0:0:
439,83,94072,6,0,P|461:174|416:222,1,149.999995422363,4|0,1:2|0:0,0:0:0:0:
353,244,94346,1,0,1:0:0:0:
414,299,94438,2,0,L|182:277,1,224.999993133545,0|0,1:0|0:0,0:0:0:0:
163,234,94804,6,0,B|144:212|144:212|116:195|116:195|88:192|88:192|58:194|58:194|26:206|26:206|-1:233,1,187.5,8|0,0:0|0:0,0:0:0:0:
3,254,95170,6,0,P|5:296|37:328,1,87.499997329712,0|0,3:0|0:0,0:0:0:0:
115,332,95353,2,0,P|73:344|34:326,1,87.499997329712,0|0,3:0|0:0,0:0:0:0:
2,229,95535,6,0,L|24:105,1,125,0|0,1:0|0:0,0:0:0:0:
49,91,95718,6,0,B|95:57|139:95|139:95|134:83|134:83|183:107|183:107|228:82|228:82|243:102|277:113|277:113|291:97|321:85|321:85|336:101|360:116|360:116|407:109,1,425.000008106232,0|0,3:0|0:0,0:0:0:0:
436,106,96176,1,0,0:0:0:0:
436,106,96267,6,0,B|451:146|451:146|434:187|434:187|459:225|459:225|441:276,1,187.5,8|0,0:0|0:0,0:0:0:0:
426,300,96633,6,0,L|341:283,1,87.499997329712,0|0,3:0|0:0,0:0:0:0:
268,196,96816,2,0,L|183:179,1,68.7500020980836,0|0,3:0|0:0,0:0:0:0:
165,263,96999,6,0,L|250:280,1,87.499997329712,0|0,1:0|0:0,0:0:0:0:
325,366,97182,2,0,L|392:379,1,68.7500020980836,0|0,3:0|0:0,0:0:0:0:
508,237,97365,6,0,P|521:211|505:236,1,87.499997329712,0|0,3:0|0:0,0:0:0:0:
436,106,97548,2,0,P|430:78|433:107,1,87.499997329712,0|0,3:0|0:0,0:0:0:0:
282,84,97731,5,8,0:0:0:0:
278,103,97914,2,0,L|193:86,1,74.9999977111817,0|0,3:0|0:0,0:0:0:0:
117,193,98096,2,0,L|43:178,1,74.9999977111817,0|0,3:0|0:0,0:0:0:0:
228,338,98279,2,0,L|155:323,1,74.9999977111817,0|0,3:0|0:0,0:0:0:0:
61,307,98462,1,0,1:0:0:0:
61,307,98554,1,0,3:0:0:0:
61,307,98645,6,0,P|177:317|271:265,1,224.999993133545,8|0,3:2|0:0,0:0:0:0:
269,266,98920,2,0,P|153:256|59:308,1,224.999993133545,8|0,3:2|0:0,0:0:0:0:
10,366,99194,6,0,P|21:376|36:380,1,31.25,0|0,3:0|0:0,0:0:0:0:
213,142,99468,6,0,P|224:131|239:127,1,31.25,0|0,3:0|0:0,0:0:0:0:
437,344,99743,6,0,P|448:354|463:358,1,31.25,0|0,3:0|0:0,0:0:0:0:
269,266,99926,5,4,1:2:0:0:
269,266,99971,2,0,P|215:243|154:259,1,112.499996566773,0|0,1:0|0:0,0:0:0:0:
23,269,100200,2,0,P|96:282|165:251,1,149.999995422363,0|0,3:0|3:0,0:0:0:0:
144,64,100657,5,0,3:0:0:0:
144,64,100749,2,0,L|67:50,1,74.9999977111817,0|0,3:0|0:0,0:0:0:0:
49,144,100932,2,0,L|122:157,1,74.9999977111817,0|0,3:0|0:0,0:0:0:0:
425,113,101206,5,0,1:0:0:0:
352,130,101298,1,0,3:0:0:0:
375,57,101389,2,0,L|226:32,1,149.999995422363,0|0,1:0|0:0,0:0:0:0:
131,123,101664,2,0,L|279:147,1,149.999995422363,0|0,3:0|3:0,0:0:0:0:
183,237,101938,2,0,L|99:223,1,74.9999977111817,0|0,1:0|0:0,0:0:0:0:
35,209,102121,1,0,3:0:0:0:
127,310,102304,2,0,P|194:341|251:298,1,149.999995422363,0|0,1:0|0:0,0:0:0:0:
342,292,102578,1,0,3:0:0:0:
342,292,102670,2,0,P|362:312|409:303,1,74.9999977111817,0|0,1:0|3:0,0:0:0:0:
457,224,102853,6,0,P|505:198|470:117,1,149.999995422363,0|0,1:0|0:0,0:0:0:0:
413,65,103127,2,0,P|387:17|306:52,1,149.999995422363,0|0,1:0|3:0,0:0:0:0:
254,109,103401,2,0,P|230:122|247:162,1,74.9999977111817,0|0,0:0|3:0,0:0:0:0:
298,268,103584,1,0,3:0:0:0:
298,267,103676,2,0,P|319:295|350:279,1,74.9999977111817,0|0,3:0|0:0,0:0:0:0:
457,224,103859,2,0,P|484:202|468:171,1,74.9999977111817,0|0,1:0|1:0,0:0:0:0:
434,97,104042,1,0,3:0:0:0:
275,70,104224,1,0,3:0:0:0:
242,138,104316,6,0,P|183:179|111:158,1,149.999995422363,0|0,1:0|0:0,0:0:0:0:
138,88,104590,2,0,P|148:55|155:11,1,74.9999977111817,0|0,3:0|0:0,0:0:0:0:
16,133,104773,2,0,P|26:168|32:205,1,74.9999977111817,0|0,3:0|0:0,0:0:0:0:
356,307,105048,6,0,P|266:293|193:348,1,187.500007152558,8|0,1:2|0:0,0:0:0:0:
186,230,105322,2,0,P|235:119|325:200,1,281.250010728836,8|0,1:2|1:0,0:0:0:0:
268,278,105688,1,8,0:0:0:0:
357,308,105779,6,0,P|416:311|492:256,1,149.999995422363,0|0,1:0|0:0,0:0:0:0:
505,186,106054,1,0,3:0:0:0:
429,56,106237,1,0,3:0:0:0:
429,56,106328,2,0,L|409:137,1,74.9999977111817,0|0,0:0|0:0,0:0:0:0:
320,140,106511,2,0,L|337:67,1,74.9999977111817,0|0,3:0|3:0,0:0:0:0:
262,6,106694,1,0,0:0:0:0:
245,78,106785,2,0,L|227:150,1,74.9999977111817,0|0,3:0|0:0,0:0:0:0:
64,353,107060,5,0,1:0:0:0:
106,291,107151,1,0,3:0:0:0:
67,226,107243,2,0,P|39:160|54:72,1,149.999995422363,0|0,1:0|0:0,0:0:0:0:
168,217,107517,2,0,P|196:283|181:371,1,149.999995422363,0|0,3:0|3:0,0:0:0:0:
269,226,107792,2,0,P|283:193|275:149,1,74.9999977111817,0|0,1:0|0:0,0:0:0:0:
236,92,107974,1,0,3:0:0:0:
339,273,108157,2,0,P|367:204|357:130,1,149.999995422363,0|0,1:0|0:0,0:0:0:0:
318,65,108432,1,0,3:0:0:0:
318,65,108523,2,0,P|344:43|383:44,1,74.9999977111817,0|0,1:0|3:0,0:0:0:0:
500,109,108706,6,0,P|428:113|396:177,1,149.999995422363,0|0,1:0|0:0,0:0:0:0:
368,268,108981,2,0,P|336:332|264:336,1,149.999995422363,0|0,1:0|3:0,0:0:0:0:
203,273,109255,2,0,P|171:249|177:199,1,74.9999977111817,0|0,0:0|3:0,0:0:0:0:
179,127,109438,1,0,3:0:0:0:
179,127,109529,2,0,P|203:95|253:101,1,74.9999977111817,0|0,3:0|0:0,0:0:0:0:
325,103,109712,2,0,P|357:127|351:177,1,74.9999977111817,0|0,1:0|1:0,0:0:0:0:
337,231,109895,1,0,3:0:0:0:
475,181,110078,5,0,3:0:0:0:
469,256,110170,2,0,B|461:338|518:364|518:364|504:336,1,149.999995422363,0|0,1:0|0:0,0:0:0:0:
434,332,110444,2,0,P|394:334|352:322,1,74.9999977111817,0|0,3:0|0:0,0:0:0:0:
264,336,110627,2,0,P|224:331|184:311,1,74.9999977111817,0|0,3:0|0:0,0:0:0:0:
47,63,110901,6,0,L|243:43,1,187.500007152558,8|0,1:2|0:0,0:0:0:0:
252,168,111176,6,0,L|63:187,1,187.5,8|0,1:2|0:0,0:0:0:0:
72,281,111359,2,0,L|166:271,1,93.7500035762788,0|0,1:0|1:0,0:0:0:0:
303,257,111542,1,8,0:0:0:0:
406,245,111633,6,0,P|444:192|402:109,1,149.999995422363,4|0,1:2|3:0,0:0:0:0:
342,102,111907,1,0,1:0:0:0:
175,177,112090,1,0,3:0:0:0:
175,177,112182,2,0,L|80:186,1,74.9999977111817,0|0,0:0|0:0,0:0:0:0:
57,100,112365,1,0,3:0:0:0:
165,271,112548,5,0,1:0:0:0:
143,273,112639,1,0,3:0:0:0:
0,192,112822,1,0,1:0:0:0:
22,190,112913,1,0,3:0:0:0:
233,43,113096,6,0,P|297:72|377:61,1,149.999995422363,0|0,1:0|0:0,0:0:0:0:
469,178,113371,2,0,P|395:188|327:158,1,149.999995422363,0|0,1:0|1:0,0:0:0:0:
306,251,113645,2,0,P|272:266|235:261,1,74.9999977111817,0|0,1:0|0:0,0:0:0:0:
175,177,113828,5,0,3:0:0:0:
168,156,113919,1,0,1:0:0:0:
150,98,114011,1,0,3:0:0:0:
143,77,114103,1,0,3:0:0:0:
83,155,114194,5,0,1:0:0:0:
74,179,114285,1,0,3:0:0:0:
53,247,114377,1,0,1:0:0:0:
45,272,114468,1,0,3:0:0:0:
24,340,114560,6,0,P|92:314|171:329,1,149.999995422363,0|0,1:0|3:0,0:0:0:0:
233,361,114834,1,0,1:0:0:0:
383,237,115017,5,0,3:0:0:0:
375,215,115109,1,0,0:0:0:0:
175,177,115292,1,0,3:0:0:0:
167,155,115383,1,0,0:0:0:0:
345,135,115566,5,0,3:0:0:0:
331,97,115658,1,0,1:0:0:0:
137,75,115840,1,0,3:0:0:0:
123,37,115932,1,0,0:0:0:0:
81,143,116023,6,0,P|56:207|181:277,1,224.999993133545,0|0,1:0|1:0,0:0:0:0:
177,264,116389,2,0,P|200:244|251:246,1,74.9999977111817,0|0,3:0|0:0,0:0:0:0:
481,274,116664,1,0,0:0:0:0:
486,246,116755,6,0,P|464:176|493:63,1,187.500007152558,8|0,1:2|0:0,0:0:0:0:
394,74,117029,2,0,P|304:142|412:241,1,281.250010728836,8|0,1:2|1:0,0:0:0:0:
482,288,117395,1,8,0:0:0:0:
407,347,117487,6,0,P|339:363|256:343,1,149.999995422363,0|0,1:0|3:0,0:0:0:0:
212,288,117761,1,0,1:0:0:0:
86,144,117944,1,0,3:0:0:0:
86,144,118035,2,0,L|75:222,1,74.9999977111817,0|0,0:0|0:0,0:0:0:0:
112,303,118218,1,0,3:0:0:0:
51,59,118401,5,0,1:0:0:0:
72,53,118493,1,0,3:0:0:0:
282,160,118676,1,0,1:0:0:0:
303,154,118768,1,0,3:0:0:0:
493,323,118950,6,0,P|446:278|351:271,1,149.999995422363,0|0,1:0|0:0,0:0:0:0:
251,316,119224,2,0,P|179:332|111:302,1,149.999995422363,0|0,1:0|1:0,0:0:0:0:
105,211,119499,2,0,P|84:180|85:143,1,74.9999977111817,0|0,1:0|0:0,0:0:0:0:
211,93,119682,5,0,3:0:0:0:
232,86,119773,1,0,1:0:0:0:
290,68,119865,1,0,3:0:0:0:
311,61,119957,1,0,3:0:0:0:
358,141,120048,5,0,1:0:0:0:
382,150,120139,1,0,3:0:0:0:
450,171,120231,1,0,1:0:0:0:
475,179,120322,1,0,3:0:0:0:
454,247,120414,6,0,P|397:294|318:289,1,149.999995422363,0|0,1:0|3:0,0:0:0:0:
267,241,120688,1,0,1:0:0:0:
91,321,120871,5,0,3:0:0:0:
74,337,120962,1,0,0:0:0:0:
189,181,121145,1,0,3:0:0:0:
206,165,121236,1,0,0:0:0:0:
26,269,121420,5,0,3:0:0:0:
0,246,121511,1,0,1:0:0:0:
114,92,121694,1,0,3:0:0:0:
140,115,121785,1,0,0:0:0:0:
206,165,121877,6,0,B|309:155|309:155|322:162|322:162|429:153,1,224.999993133545,0|0,1:0|1:0,0:0:0:0:
447,140,122243,2,0,P|454:103|435:70,1,74.9999977111817,0|0,3:0|0:0,0:0:0:0:
298,320,122517,1,0,0:0:0:0:
272,343,122609,6,0,P|172:352|80:306,1,187.500007152558,8|0,1:2|0:0,0:0:0:0:
134,214,122883,6,0,P|217:173|309:181,1,187.5,8|0,1:2|0:0,0:0:0:0:
375,242,123066,2,0,P|416:262|462:258,1,93.7500035762788,0|0,0:0|1:0,0:0:0:0:
480,148,123249,1,8,0:0:0:0:
497,49,123340,5,0,1:0:0:0:
392,110,123615,1,0,1:0:0:0:
497,171,123889,1,0,1:0:0:0:
407,209,124072,5,0,1:0:0:0:
407,331,124347,1,0,1:0:0:0:
302,270,124621,1,0,1:0:0:0:
422,345,124804,5,0,1:0:0:0:
317,284,125079,1,0,1:0:0:0:
422,223,125353,1,0,1:0:0:0:
332,185,125536,5,0,1:0:0:0:
332,63,125811,1,0,1:0:0:0:
227,124,126085,1,0,1:0:0:0:
281,319,126267,5,0,1:0:0:0:
332,128,126542,1,0,1:0:0:0:
178,252,126816,1,0,1:0:0:0:
210,134,126999,5,0,1:0:0:0:
375,242,127273,1,0,1:0:0:0:
375,242,127548,1,0,1:0:0:0:
107,206,127731,5,0,1:0:0:0:
71,339,128006,1,0,1:0:0:0:
178,252,128280,1,0,1:0:0:0:
156,335,128463,5,0,1:0:0:0:
41,259,128737,5,0,1:0:0:0:
107,206,128920,5,0,1:0:0:0:
178,252,129103,5,0,1:0:0:0:
178,252,129194,2,0,P|216:260|290:221,1,121.874994421006,0|0,1:0|1:0,0:0:0:0:
317,144,129743,1,0,1:0:0:0:
271,72,129926,2,0,P|221:39|161:44,2,121.874994421006,0|0|0,1:0|1:0|1:0,0:0:0:0:
317,144,130657,6,0,P|366:176|426:171,1,121.874994421006,0|0,1:0|1:0,0:0:0:0:
491,115,131206,1,0,1:0:0:0:
454,192,131389,2,0,P|404:224|344:219,2,121.874994421006,0|0|0,1:0|1:0|1:0,0:0:0:0:
271,72,132121,6,0,P|215:51|148:65,1,121.874994421006,0|0,1:0|1:0,0:0:0:0:
94,121,132670,1,0,1:0:0:0:
63,200,132853,2,0,P|52:259|73:315,2,121.874994421006,0|0|0,1:0|1:0|1:0,0:0:0:0:
174,327,133584,6,0,P|226:345|294:331,1,121.874994421006,0|0,3:0|3:0,0:0:0:0:
313,317,133950,1,0,0:0:0:0:
333,297,134042,1,0,3:0:0:0:
359,251,134133,1,0,1:0:0:0:
188,228,134316,6,0,P|228:217|281:236,1,93.75,0|0,1:0|1:0,0:0:0:0:
359,251,134682,5,0,3:0:0:0:
401,230,134773,1,0,3:0:0:0:
427,191,134864,1,0,3:0:0:0:
429,144,134956,1,0,3:0:0:0:
410,104,135048,6,0,L|258:89,1,150,4|0,1:2|1:0,0:0:0:0:
187,123,135414,1,0,0:0:0:0:
169,114,135505,2,0,P|142:113|116:129,1,50,0|0,0:0|1:0,0:0:0:0:
109,204,135688,1,0,0:0:0:0:
89,208,135779,2,0,P|67:224|67:292,1,100,0|0,1:0|0:0,0:0:0:0:
88,331,136054,2,0,P|82:357|93:385,1,50,0|0,1:0|0:0,0:0:0:0:
183,278,136237,1,0,0:0:0:0:
198,252,136328,2,0,P|204:228|198:204,1,50,0|0,3:0|3:0,0:0:0:0:
86,86,136511,6,0,P|113:46|215:39,1,150,0|0,1:0|1:0,0:0:0:0:
266,109,136877,1,0,3:0:0:0:
344,98,136968,1,0,3:0:0:0:
423,88,137060,1,0,3:0:0:0:
489,273,137243,6,0,L|479:304,2,25,0|0|0,3:0|3:0|3:0,0:0:0:0:
399,341,137426,2,0,L|383:292,1,50,0|0,3:0|0:0,0:0:0:0:
302,250,137609,2,0,L|286:298,1,50,0|0,3:0|0:0,0:0:0:0:
205,341,137792,1,0,3:0:0:0:
189,293,137883,1,0,3:0:0:0:
219,202,137974,6,0,P|236:143|181:76,1,150,0|0,1:0|1:0,0:0:0:0:
104,93,138340,1,0,0:0:0:0:
90,107,138432,2,0,P|81:130|87:154,1,50,0|0,0:0|1:0,0:0:0:0:
78,234,138615,1,0,0:0:0:0:
76,253,138707,2,0,P|97:286|165:291,1,100,0|0,1:0|0:0,0:0:0:0:
286,297,138981,2,0,P|305:301|330:278,1,50,0|0,1:0|0:0,0:0:0:0:
402,195,139164,1,0,3:0:0:0:
431,191,139255,2,0,P|447:180|450:146,1,50,0|0,3:0|3:0,0:0:0:0:
506,63,139438,6,0,L|406:48,1,100,0|0,1:0|0:0,0:0:0:0:
326,81,139712,2,0,L|227:95,1,100,0|0,1:0|0:0,0:0:0:0:
134,65,139987,5,0,3:0:0:0:
138,96,140079,1,0,1:0:0:0:
123,169,140171,5,0,3:0:0:0:
133,207,140262,1,0,1:0:0:0:
192,255,140353,5,0,3:0:0:0:
211,292,140445,1,0,1:0:0:0:
286,297,140535,5,0,3:0:0:0:
314,336,140627,1,0,1:0:0:0:
361,349,140717,1,0,3:0:0:0:
410,341,140810,1,0,3:0:0:0:
466,284,140901,6,0,L|492:131,1,150,0|0,1:0|1:0,0:0:0:0:
437,64,141267,1,0,0:0:0:0:
418,56,141359,2,0,P|386:58|370:74,1,50,0|0,0:0|1:0,0:0:0:0:
291,61,141542,1,0,0:0:0:0:
271,67,141634,2,0,P|247:89|251:153,1,100,0|0,1:0|0:0,0:0:0:0:
248,197,141907,2,0,P|244:228|257:247,1,50,0|0,1:0|0:0,0:0:0:0:
345,287,142090,1,0,3:0:0:0:
352,316,142182,2,0,P|369:342|391:348,1,50,0|0,3:0|3:0,0:0:0:0:
214,348,142365,6,0,P|147:363|76:313,1,150,0|0,1:0|1:0,0:0:0:0:
124,235,142731,1,0,3:0:0:0:
168,169,142822,1,0,3:0:0:0:
143,92,142914,1,0,3:0:0:0:
365,49,143096,6,0,L|396:59,2,25,0|0|0,3:0|3:0|3:0,0:0:0:0:
433,139,143279,2,0,L|384:155,1,50,0|0,3:0|0:0,0:0:0:0:
342,236,143462,2,0,L|390:252,1,50,0|0,3:0|0:0,0:0:0:0:
433,333,143645,1,0,3:0:0:0:
385,348,143736,1,0,3:0:0:0:
294,321,143828,6,0,P|268:310|251:276,1,50,8|0,1:2|0:0,0:0:0:0:
263,183,144011,2,0,P|278:164|302:156,1,50,8|0,0:0|1:0,0:0:0:0:
184,334,144194,6,0,P|171:308|179:271,1,50,8|0,0:0|0:0,0:0:0:0:
263,183,144377,2,0,P|284:171|309:170,1,50,8|0,1:2|0:0,0:0:0:0:
91,273,144560,6,0,P|97:245|127:222,1,50,8|0,1:2|0:0,0:0:0:0:
263,183,144743,2,0,P|287:179|310:187,1,50,8|0,0:0|1:0,0:0:0:0:
58,166,144926,6,0,P|80:148|118:151,1,50,8|0,0:0|3:0,0:0:0:0:
263,183,145109,2,0,P|287:187|306:203,1,50,8|0,3:2|3:0,0:0:0:0:
380,350,145292,6,0,P|393:325|386:288,1,50,8|0,1:2|0:0,0:0:0:0:
244,260,145474,2,0,P|219:254|196:261,1,50,8|0,0:0|1:0,0:0:0:0:
474,292,145658,6,0,P|468:264|438:240,1,50,8|0,0:0|0:0,0:0:0:0:
408,130,145840,5,8,3:2:0:0:
379,117,145932,1,0,1:0:0:0:
322,70,146023,5,8,3:2:0:0:
283,59,146114,1,0,1:0:0:0:
206,89,146206,5,8,3:2:0:0:
162,87,146297,1,0,1:0:0:0:
113,156,146388,5,8,3:2:0:0:
57,165,146481,1,0,3:0:0:0:
23,194,146572,1,8,3:2:0:0:
10,232,146664,1,0,3:0:0:0:
35,312,146755,6,0,B|36:338|58:375|129:374|177:323|176:313|160:295|227:189|327:275|327:275|302:302,1,393.749987983704,4|0,1:2|0:0,0:0:0:0:
329,317,147670,2,0,L|366:276,1,43.749998664856,0|0,1:0|1:0,0:0:0:0:
421,227,147853,2,0,B|405:211|379:203|379:203|435:188|464:111|389:20|275:39|205:123|205:123|153:267|32:307|-56:192|-32:122|69:70|92:145,1,831.249974632264,0|0,1:0|0:0,0:0:0:0:
88,163,149682,6,0,B|79:240|148:291|231:292|263:218|289:166|289:166|278:260|317:317|365:332,1,481.249985313416,0|0,1:0|0:0,0:0:0:0:
417,300,150779,2,0,B|469:265|477:198|462:162|452:124|413:96|382:88|395:28|524:88|560:229|486:362|451:376|412:429|333:368|349:250|269:234|161:314|135:331|135:331|99:318|99:318|63:340,1,831.249974632264,0|0,1:0|0:0,0:0:0:0:
23,266,152609,6,0,P|71:340|100:177,1,393.749987983704,0|0,1:0|0:0,0:0:0:0:
98,153,153523,2,0,P|119:147|140:152,1,43.749998664856,0|0,1:0|1:0,0:0:0:0:
221,138,153706,2,0,B|224:43|384:94|384:94|390:272|278:237|278:237|186:220|137:301|195:405|302:433|319:283|391:294|448:340,1,831.249974632264,0|0,1:0|0:0,0:0:0:0:
467,333,155535,6,0,B|414:284|327:268|303:377|260:405|152:326|134:274|134:228|134:228|119:269|87:287,1,481.249985313416,0|0,1:0|0:0,0:0:0:0:
113,357,156633,2,0,B|199:364|229:279|229:279|258:194|345:202,1,306.249990653992,0|0,1:0|0:0,0:0:0:0:
377,202,157365,2,0,B|290:209|260:124|260:124|231:39|145:47|145:47|183:109|160:178|94:187,1,481.249985313416,0|0,1:0|0:0,0:0:0:0:
22,156,158462,6,0,B|91:139|202:160|287:254|306:341|247:361|196:352,1,393.749987983704,4|0,1:2|0:0,0:0:0:0:
182,346,159377,2,0,P|163:337|137:339,1,43.749998664856,0|0,1:0|1:0,0:0:0:0:
16,329,159560,2,0,B|46:335|58:355|58:355|55:294|106:230|213:225|260:297|273:353|273:353|293:245|384:210|384:210|425:276|416:343|416:343|442:273|492:238,1,831.249974632264,0|0,1:0|0:0,0:0:0:0:
508,264,161389,6,0,B|460:305|443:337|432:371|432:371|408:383|391:360|391:360|403:306|398:239|312:174|312:174|259:161|237:203,1,481.249985313416,0|0,1:0|0:0,0:0:0:0:
239,284,162487,2,0,B|254:307|254:307|237:359|96:311|75:199|109:96|230:21|372:98|372:98|432:35|547:57|549:158|485:189|447:165,1,831.249974632264,0|0,1:0|0:0,0:0:0:0:
373,129,164316,6,0,B|331:167|296:230|320:336|377:382|451:381|499:327|489:275,1,393.749987983704,0|0,1:0|0:0,0:0:0:0:
465,261,165231,2,0,P|458:291|446:308,1,43.749998664856,0|0,1:0|1:0,0:0:0:0:
328,337,165414,2,0,B|347:316|315:286|225:238|168:449|137:475|-35:380|-57:296|22:197|114:187|153:280|153:280|127:182|38:177|86:75|142:57,1,831.249974632264,0|0,1:0|0:0,0:0:0:0:
114,35,167243,6,0,B|41:89|27:157|71:218|106:235|139:297|139:297|163:295|178:273|178:273|164:234|184:184|230:172,1,481.249985313416,0|0,1:0|0:0,0:0:0:0:
256,252,168340,2,0,B|304:228|329:182|298:125|298:125|343:95|406:146|402:211,1,306.249990653992,0|0,1:0|0:0,0:0:0:0:
392,275,169072,2,0,B|375:363|298:388|225:340|225:340|278:286|271:197|169:183|169:183|142:189|119:211,1,481.249985313416,0|0,1:0|0:0,0:0:0:0:
111,228,170170,5,4,1:2:0:0:
20,106,170353,1,0,1:0:0:0:
20,106,170444,2,0,L|7:198,2,87.499997329712,0|0|0,1:0|1:0|0:0,0:0:0:0:
28,62,170901,1,0,1:0:0:0:
158,101,171084,1,0,1:0:0:0:
288,62,171267,1,0,3:0:0:0:
296,72,171359,1,0,1:0:0:0:
298,84,171450,2,0,P|301:109|293:132,1,43.749998664856,2|2,0:0|0:0,0:0:0:0:
204,22,171633,5,0,1:0:0:0:
401,70,171816,2,0,L|450:59,1,43.749998664856,0|0,1:0|1:0,0:0:0:0:
385,163,171999,2,0,P|382:188|390:211,1,43.749998664856,0|0,3:0|1:0,0:0:0:0:
396,225,172182,1,0,1:0:0:0:
239,194,172365,5,0,1:0:0:0:
196,182,172457,1,0,1:0:0:0:
160,206,172548,1,0,1:0:0:0:
143,246,172639,2,0,P|143:269|156:295,1,43.749998664856,0|0,3:0|0:0,0:0:0:0:
78,191,172822,1,0,1:0:0:0:
35,192,172913,1,0,1:0:0:0:
3,164,173004,1,2,0:0:0:0:
0,121,173096,5,0,1:0:0:0:
117,37,173279,1,0,1:0:0:0:
117,37,173371,2,0,L|208:21,2,87.499997329712,0|0|0,1:0|1:0|0:0,0:0:0:0:
74,49,173828,1,0,1:0:0:0:
239,194,174011,2,0,P|295:213|354:186,1,125,0|0,1:0|0:0,0:0:0:0:
363,144,174285,1,0,1:0:0:0:
382,106,174376,1,2,0:0:0:0:
420,87,174467,1,2,0:0:0:0:
462,95,174560,5,0,1:0:0:0:
432,266,174743,1,0,1:0:0:0:
432,266,174834,1,0,1:0:0:0:
508,193,175017,1,0,1:0:0:0:
508,193,175109,2,0,P|515:212|511:243,1,43.749998664856,2|2,0:0|0:0,0:0:0:0:
403,350,175292,2,0,P|343:355|296:300,1,125,0|0,1:0|1:0,0:0:0:0:
295,268,175566,1,0,1:0:0:0:
141,160,175749,1,0,1:0:0:0:
131,202,175840,1,2,0:0:0:0:
121,245,175932,1,0,1:0:0:0:
112,287,176023,5,0,3:0:0:0:
289,244,176206,1,0,1:0:0:0:
289,244,176298,2,0,L|266:142,2,87.499997329712,0|0|0,1:0|1:0|0:0,0:0:0:0:
299,286,176755,1,0,1:0:0:0:
179,349,176938,1,0,1:0:0:0:
59,286,177121,1,0,3:0:0:0:
52,274,177212,1,0,1:0:0:0:
51,260,177304,2,0,P|52:235|63:215,1,43.749998664856,2|2,0:0|0:0,0:0:0:0:
90,368,177487,5,0,1:0:0:0:
169,246,177670,2,0,L|218:236,1,43.749998664856,0|0,1:0|1:0,0:0:0:0:
140,155,177853,2,0,P|139:130|128:110,1,43.749998664856,0|0,3:0|1:0,0:0:0:0:
115,97,178035,1,0,1:0:0:0:
279,59,178218,5,0,1:0:0:0:
317,79,178310,1,0,1:0:0:0:
360,76,178401,1,0,1:0:0:0:
397,53,178493,2,0,P|412:35|418:9,1,43.749998664856,0|0,3:0|0:0,0:0:0:0:
427,135,178676,1,0,1:0:0:0:
463,157,178767,1,0,1:0:0:0:
481,197,178858,1,2,0:0:0:0:
472,239,178950,5,0,1:0:0:0:
346,338,179133,1,0,1:0:0:0:
346,338,179224,2,0,L|252:355,2,87.499997329712,0|0|0,1:0|1:0|0:0,0:0:0:0:
389,330,179682,1,0,1:0:0:0:
252,180,179865,2,0,P|200:147|139:154,1,125,0|0,1:0|0:0,0:0:0:0:
95,154,180139,1,0,1:0:0:0:
65,184,180230,1,2,0:0:0:0:
57,227,180321,1,2,0:0:0:0:
77,265,180413,5,0,1:0:0:0:
275,287,180596,1,0,1:0:0:0:
275,287,180688,1,0,1:0:0:0:
172,328,180871,1,0,1:0:0:0:
172,328,180962,2,0,P|186:340|213:344,1,43.749998664856,2|2,0:0|0:0,0:0:0:0:
361,284,181145,2,0,P|383:231|353:173,1,125,0|0,1:0|1:0,0:0:0:0:
312,157,181420,1,0,1:0:0:0:
125,72,181603,1,0,1:0:0:0:
167,64,181694,1,2,0:0:0:0:
209,56,181785,1,0,1:0:0:0:
252,48,181877,5,4,1:2:0:0:
