osu file format v14

[General]
AudioFilename: audio.mp3
AudioLeadIn: 0
PreviewTime: -1
Countdown: 0
SampleSet: None
StackLeniency: 0.7
Mode: 0
LetterboxInBreaks: 0
WidescreenStoryboard: 0

[Editor]
Bookmarks: 35455
DistanceSpacing: 2
BeatDivisor: 4
GridSize: 4
TimelineZoom: 1

[Metadata]
Title:Eastern Horoscope
TitleUnicode:Eastern Horoscope
Artist:Thinktec
ArtistUnicode:Thinktec
Creator:jularmed
Version:Normal
Source:
Tags:
BeatmapID:1102623
BeatmapSetID:518974

[Difficulty]
HPDrainRate:5
CircleSize:3
OverallDifficulty:5
ApproachRate:5
SliderMultiplier:1.4
SliderTickRate:1

[Events]
//Background and Video events
0,0,"00563.jpg",0,0
//Break Periods
2,66376,72656
//Storyboard Layer 0 (Background)
//Storyboard Layer 1 (Fail)
//Storyboard Layer 2 (Pass)
//Storyboard Layer 3 (Foreground)
//Storyboard Sound Samples

[TimingPoints]
12414.2222684298,960.038461538461,4,1,0,50,1,0
42175,-50,4,1,0,50,0,0
42655,-100,4,1,0,50,0,0

[Colours]
Combo1 : 255,192,0
Combo2 : 202,125,40
Combo3 : 72,105,5
Combo4 : 89,4,94

[HitObjects]
256,192,12654,12,0,18894,0:0:0:0:
220,56,19614,5,0,0:0:0:0:
288,56,19854,1,0,0:0:0:0:
164,124,20094,5,0,0:0:0:0:
164,124,20574,1,0,0:0:0:0:
212,176,21054,2,0,L|268:240,1,70
352,124,22014,5,0,0:0:0:0:
352,124,22494,1,0,0:0:0:0:
304,176,22974,2,0,L|248:224,1,70
168,108,23934,1,0,0:0:0:0:
168,108,24414,1,0,0:0:0:0:
308,112,24894,1,0,0:0:0:0:
308,112,25374,1,0,0:0:0:0:
168,124,25854,1,0,0:0:0:0:
80,184,26214,6,0,L|96:208,1,17.5
136,152,26574,2,0,L|152:176,1,17.5
184,116,26934,2,0,L|200:140,1,17.5
236,76,27294,2,0,L|256:100,1,17.5
296,40,27654,2,0,L|316:64,1,17.5
168,60,28254,5,0,0:0:0:0:
168,60,28734,2,0,L|108:128,2,70
200,196,30174,1,0,0:0:0:0:
200,196,30654,2,0,L|264:248,2,70
340,180,32095,1,0,0:0:0:0:
340,180,32575,2,0,L|392:108,2,70
292,232,34015,2,0,P|220:176|196:100,1,140
136,64,35455,5,0,0:0:0:0:
136,64,35695,2,0,L|172:100,3,35
300,88,36895,6,8,P|360:112|368:192,1,140,0|0,0:0|0:0,0:0:0:0:
324,232,38095,1,0,0:0:0:0:
260,260,38335,2,0,P|240:216|256:184,1,70
180,76,39295,5,0,0:0:0:0:
180,76,39535,2,0,L|212:120,3,35
336,64,40735,2,0,P|388:144|360:176,2,140
196,64,43135,5,0,0:0:0:0:
196,64,43375,2,0,P|128:120|132:156,1,105
148,196,44575,1,0,0:0:0:0:
200,244,44815,1,0,0:0:0:0:
264,276,45055,1,0,0:0:0:0:
384,208,45535,2,0,P|412:180|408:132,2,70
348,72,46975,5,0,0:0:0:0:
288,112,47215,1,0,0:0:0:0:
228,148,47455,1,0,0:0:0:0:
164,176,47695,1,0,0:0:0:0:
100,204,47935,1,0,0:0:0:0:
136,68,48415,6,0,L|180:92,2,35
204,76,49135,1,0,0:0:0:0:
376,68,49375,2,0,L|332:104,2,35
376,68,50335,1,0,0:0:0:0:
240,40,50815,5,0,0:0:0:0:
172,64,51055,2,0,P|100:80|92:128,1,105
188,204,52255,2,0,L|224:244,2,35
232,72,53455,1,0,0:0:0:0:
292,108,53695,1,0,0:0:0:0:
316,244,54175,1,0,0:0:0:0:
292,248,54655,6,0,P|236:232|200:176,1,105
208,128,55615,1,0,0:0:0:0:
80,72,56095,2,0,L|112:112,1,35
68,160,56575,2,0,L|100:200,1,35
40,236,57056,2,0,L|76:280,1,35
116,308,57536,2,0,L|196:272,1,70
112,156,58496,6,0,P|184:96|224:184,1,210
228,174,60416,2,0,P|304:216|344:124,1,210
228,48,62336,5,0,0:0:0:0:
228,48,62576,1,0,0:0:0:0:
88,64,62816,1,0,0:0:0:0:
88,64,63056,1,0,0:0:0:0:
100,204,63296,1,0,0:0:0:0:
160,76,63776,2,0,L|216:56,1,35
260,40,64256,1,0,0:0:0:0:
296,56,64616,6,0,L|272:80,1,17.5
352,84,64976,2,0,L|336:108,1,17.5
412,112,65336,2,0,L|400:136,1,17.5
472,136,65696,2,0,L|464:164,1,17.5
444,220,66176,1,0,0:0:0:0:
100,56,73856,6,0,L|144:96,2,35
228,116,74816,2,0,P|304:80|296:216,1,280
40,320,77696,2,0,L|80:284,2,35
120,128,78656,2,0,P|152:240|296:240,1,280
252,36,81536,6,0,L|252:76,2,35
44,60,82497,2,0,P|84:196|232:260,1,280
388,52,85377,2,0,L|356:88,2,35
248,44,86337,2,0,P|196:72|192:148,1,140
191,146,87297,2,0,P|260:192|236:264,1,140
52,48,89217,6,0,L|88:84,2,35
180,108,90177,1,0,0:0:0:0:
320,108,90657,1,0,0:0:0:0:
180,108,91137,1,0,0:0:0:0:
320,108,91617,1,0,0:0:0:0:
180,108,92097,1,0,0:0:0:0:
320,108,92577,1,0,0:0:0:0:
180,108,93057,6,0,P|140:168|196:228,1,140
256,108,94977,2,0,P|316:164|288:216,1,140
260,48,96897,1,0,0:0:0:0:
148,244,98097,5,0,0:0:0:0:
212,216,98337,1,0,0:0:0:0:
276,184,98577,1,0,0:0:0:0:
336,152,98817,6,0,L|308:112,4,35
256,268,100257,1,0,0:0:0:0:
256,200,100497,1,0,0:0:0:0:
260,132,100737,1,0,0:0:0:0:
256,52,101457,2,0,L|216:52,1,35
360,52,102177,1,0,0:0:0:0:
220,84,102657,5,0,0:0:0:0:
220,152,102897,1,0,0:0:0:0:
288,152,103137,1,0,0:0:0:0:
288,84,103377,1,0,0:0:0:0:
220,84,103617,1,0,0:0:0:0:
108,168,104097,2,0,L|160:168,1,35
212,168,104577,2,0,L|272:168,1,35
316,168,105057,2,0,L|364:168,1,35
356,100,105537,2,0,L|356:24,1,70
216,36,106497,6,0,L|188:68,2,35
288,36,107218,1,0,0:0:0:0:
356,36,107578,1,0,0:0:0:0:
352,160,108418,6,0,L|320:188,2,35
404,116,109138,1,0,0:0:0:0:
472,120,109618,1,0,0:0:0:0:
280,32,110338,5,0,0:0:0:0:
252,52,110578,2,0,L|220:76,1,35
132,128,111178,1,0,0:0:0:0:
132,128,111418,1,0,0:0:0:0:
376,120,112258,5,0,0:0:0:0:
272,120,112618,1,0,0:0:0:0:
168,120,112978,2,0,L|96:120,1,70
304,92,114178,5,0,0:0:0:0:
244,128,114418,2,0,L|208:152,2,35
304,92,115138,1,0,0:0:0:0:
244,28,115618,2,0,L|144:28,1,70
100,148,116578,2,0,L|128:220,1,70
256,264,117538,1,0,0:0:0:0:
176,148,118018,5,0,0:0:0:0:
308,104,118498,1,0,0:0:0:0:
176,52,118978,1,0,0:0:0:0:
248,36,119458,1,0,0:0:0:0:
316,48,119698,2,0,L|296:108,2,35
248,36,120418,1,0,0:0:0:0:
244,104,120658,1,0,0:0:0:0:
240,172,120898,1,0,0:0:0:0:
132,260,121378,1,0,0:0:0:0:
256,192,121858,12,0,123298,0:0:0:0:
