osu file format v14

[General]
AudioFilename: audio.mp3
AudioLeadIn: 0
PreviewTime: -1
Countdown: 0
SampleSet: None
StackLeniency: 0.3
Mode: 3
LetterboxInBreaks: 0
SpecialStyle: 0
WidescreenStoryboard: 1

[Editor]
DistanceSpacing: 1.5
BeatDivisor: 2
GridSize: 16
TimelineZoom: 2.6

[Metadata]
Title:Goodbye (Drop Tower Remix)
TitleUnicode:Goodbye (Drop Tower Remix)
Artist:Thimlife feat. Vanessa
ArtistUnicode:Thimlife feat. Vanessa
Creator:Upgradefort
Version:Mania
Source:
Tags:
BeatmapID:1764150
BeatmapSetID:843149

[Difficulty]
HPDrainRate:6
CircleSize:4
OverallDifficulty:6
ApproachRate:8
SliderMultiplier:1.8
SliderTickRate:1

[Events]
//Background and Video events
0,0,"1281739-pixiv-fantasia-t.jpg",0,0
//Break Periods
//Storyboard Layer 0 (Background)
//Storyboard Layer 1 (Fail)
//Storyboard Layer 2 (Pass)
//Storyboard Layer 3 (Foreground)
//Storyboard Sound Samples

[TimingPoints]
152,375,4,1,0,100,1,0
60150,-86.9565217391304,4,1,0,100,0,1

[HitObjects]
64,192,152,5,0,0:0:0:0:
448,192,152,1,0,0:0:0:0:
192,192,339,1,0,0:0:0:0:
320,192,527,1,0,0:0:0:0:
64,192,714,128,0,3152:0:0:0:0:
192,192,3152,1,0,0:0:0:0:
448,192,3339,1,0,0:0:0:0:
320,192,3527,1,0,0:0:0:0:
64,192,3714,128,0,6152:0:0:0:0:
320,192,6152,1,0,0:0:0:0:
192,192,6339,1,0,0:0:0:0:
64,192,6527,1,0,0:0:0:0:
448,192,6714,128,0,9339:0:0:0:0:
64,192,9339,1,0,0:0:0:0:
192,192,9527,1,0,0:0:0:0:
448,192,9714,128,0,12152:0:0:0:0:
320,192,12152,1,0,0:0:0:0:
64,192,12152,1,0,0:0:0:0:
64,192,12902,1,0,0:0:0:0:
448,192,12902,1,0,0:0:0:0:
192,192,13089,1,0,0:0:0:0:
320,192,13089,1,0,0:0:0:0:
64,192,13464,1,0,0:0:0:0:
64,192,13839,1,0,0:0:0:0:
448,192,14214,1,0,0:0:0:0:
448,192,14589,1,0,0:0:0:0:
192,192,14964,1,0,0:0:0:0:
320,192,15152,1,0,0:0:0:0:
64,192,15152,1,0,0:0:0:0:
448,192,15152,1,0,0:0:0:0:
192,192,15714,1,0,0:0:0:0:
320,192,15902,1,0,0:0:0:0:
64,192,16089,1,0,0:0:0:0:
448,192,16464,1,0,0:0:0:0:
448,192,16839,1,0,0:0:0:0:
192,192,17214,1,0,0:0:0:0:
192,192,17589,1,0,0:0:0:0:
320,192,17964,1,0,0:0:0:0:
64,192,18152,128,0,18902:0:0:0:0:
192,192,18902,1,0,0:0:0:0:
320,192,19089,1,0,0:0:0:0:
64,192,19277,1,0,0:0:0:0:
320,192,19464,1,0,0:0:0:0:
448,192,19464,1,0,0:0:0:0:
320,192,19839,1,0,0:0:0:0:
448,192,19839,1,0,0:0:0:0:
192,192,20214,1,0,0:0:0:0:
64,192,20214,1,0,0:0:0:0:
64,192,20589,1,0,0:0:0:0:
192,192,20589,1,0,0:0:0:0:
64,192,20964,1,0,0:0:0:0:
448,192,20964,1,0,0:0:0:0:
192,192,21152,1,0,0:0:0:0:
320,192,21152,128,0,21902:0:0:0:0:
64,192,21902,1,0,0:0:0:0:
448,192,21902,1,0,0:0:0:0:
192,192,22089,1,0,0:0:0:0:
320,192,22277,1,0,0:0:0:0:
448,192,22464,1,0,0:0:0:0:
448,192,22839,1,0,0:0:0:0:
64,192,23214,1,0,0:0:0:0:
64,192,23589,1,0,0:0:0:0:
320,192,23777,1,0,0:0:0:0:
192,192,23964,1,0,0:0:0:0:
448,192,24152,128,0,24902:0:0:0:0:
64,192,24902,1,0,0:0:0:0:
192,192,25089,1,0,0:0:0:0:
64,192,25277,1,0,0:0:0:0:
320,192,25464,1,0,0:0:0:0:
320,192,25839,1,0,0:0:0:0:
192,192,26214,1,0,0:0:0:0:
192,192,26589,1,0,0:0:0:0:
320,192,26777,1,0,0:0:0:0:
448,192,26964,1,0,0:0:0:0:
64,192,27152,128,0,28277:0:0:0:0:
320,192,28277,1,0,0:0:0:0:
448,192,28277,1,0,0:0:0:0:
192,192,28464,128,0,30152:0:0:0:0:
320,192,28652,1,0,0:0:0:0:
64,192,28839,1,0,0:0:0:0:
320,192,29027,1,0,0:0:0:0:
448,192,29214,1,0,0:0:0:0:
64,192,29402,1,0,0:0:0:0:
320,192,29589,1,0,0:0:0:0:
448,192,29777,1,0,0:0:0:0:
320,192,29964,1,0,0:0:0:0:
64,192,30152,1,0,0:0:0:0:
448,192,30152,128,0,31652:0:0:0:0:
320,192,31652,128,0,31933:0:0:0:0:
192,192,31933,128,0,32214:0:0:0:0:
448,192,32214,128,0,32589:0:0:0:0:
320,192,32402,1,0,0:0:0:0:
64,192,32589,1,0,0:0:0:0:
320,192,32777,1,0,0:0:0:0:
192,192,32964,1,0,0:0:0:0:
320,192,33152,128,0,33902:0:0:0:0:
64,192,33527,1,0,0:0:0:0:
192,192,33902,128,0,34277:0:0:0:0:
320,192,34277,1,0,0:0:0:0:
64,192,34464,1,0,0:0:0:0:
448,192,34652,128,0,36152:0:0:0:0:
192,192,35777,1,0,0:0:0:0:
320,192,35964,1,0,0:0:0:0:
64,192,36152,1,0,0:0:0:0:
192,192,36152,1,0,0:0:0:0:
320,192,37652,1,0,0:0:0:0:
448,192,37652,1,0,0:0:0:0:
64,192,39152,1,0,0:0:0:0:
192,192,39152,1,0,0:0:0:0:
320,192,40652,1,0,0:0:0:0:
192,192,40652,1,0,0:0:0:0:
320,192,42152,1,0,0:0:0:0:
448,192,42152,1,0,0:0:0:0:
64,192,42152,1,0,0:0:0:0:
192,192,43652,1,0,0:0:0:0:
320,192,43652,1,0,0:0:0:0:
64,192,45152,1,0,0:0:0:0:
192,192,45152,1,0,0:0:0:0:
448,192,45152,1,0,0:0:0:0:
320,192,46277,1,0,0:0:0:0:
64,192,46464,1,0,0:0:0:0:
192,192,46652,1,0,0:0:0:0:
448,192,46652,1,0,0:0:0:0:
192,192,47777,1,0,0:0:0:0:
320,192,47964,1,0,0:0:0:0:
64,192,48152,1,0,0:0:0:0:
448,192,48152,1,0,0:0:0:0:
192,192,48339,1,0,0:0:0:0:
448,192,48527,1,0,0:0:0:0:
64,192,48527,1,0,0:0:0:0:
192,192,48714,1,0,0:0:0:0:
448,192,48902,1,0,0:0:0:0:
64,192,48902,1,0,0:0:0:0:
192,192,49089,1,0,0:0:0:0:
448,192,49277,1,0,0:0:0:0:
64,192,49277,1,0,0:0:0:0:
192,192,49464,1,0,0:0:0:0:
448,192,49652,1,0,0:0:0:0:
64,192,49652,1,0,0:0:0:0:
320,192,49839,1,0,0:0:0:0:
448,192,50027,1,0,0:0:0:0:
64,192,50027,1,0,0:0:0:0:
320,192,50214,1,0,0:0:0:0:
64,192,50402,1,0,0:0:0:0:
448,192,50402,1,0,0:0:0:0:
320,192,50589,1,0,0:0:0:0:
64,192,50777,1,0,0:0:0:0:
448,192,50777,1,0,0:0:0:0:
320,192,50964,1,0,0:0:0:0:
192,192,51152,1,0,0:0:0:0:
64,192,51152,1,0,0:0:0:0:
448,192,51339,1,0,0:0:0:0:
192,192,51527,1,0,0:0:0:0:
64,192,51527,1,0,0:0:0:0:
448,192,51714,1,0,0:0:0:0:
64,192,51902,1,0,0:0:0:0:
192,192,51902,1,0,0:0:0:0:
448,192,52089,1,0,0:0:0:0:
192,192,52277,1,0,0:0:0:0:
64,192,52277,1,0,0:0:0:0:
448,192,52464,1,0,0:0:0:0:
320,192,52652,1,0,0:0:0:0:
64,192,52652,1,0,0:0:0:0:
448,192,52839,1,0,0:0:0:0:
320,192,53027,1,0,0:0:0:0:
64,192,53027,1,0,0:0:0:0:
448,192,53214,1,0,0:0:0:0:
320,192,53402,1,0,0:0:0:0:
64,192,53402,1,0,0:0:0:0:
448,192,53589,1,0,0:0:0:0:
320,192,53777,1,0,0:0:0:0:
64,192,53777,1,0,0:0:0:0:
192,192,53964,1,0,0:0:0:0:
320,192,54152,1,0,0:0:0:0:
448,192,54152,1,0,0:0:0:0:
64,192,54339,1,0,0:0:0:0:
320,192,54527,1,0,0:0:0:0:
448,192,54527,1,0,0:0:0:0:
64,192,54714,1,0,0:0:0:0:
320,192,54902,1,0,0:0:0:0:
448,192,54902,1,0,0:0:0:0:
64,192,55089,1,0,0:0:0:0:
320,192,55277,1,0,0:0:0:0:
448,192,55277,1,0,0:0:0:0:
64,192,55464,1,0,0:0:0:0:
192,192,55652,1,0,0:0:0:0:
448,192,55745,1,0,0:0:0:0:
64,192,55839,1,0,0:0:0:0:
320,192,55933,1,0,0:0:0:0:
192,192,56027,1,0,0:0:0:0:
448,192,56120,1,0,0:0:0:0:
64,192,56214,1,0,0:0:0:0:
320,192,56308,1,0,0:0:0:0:
192,192,56402,1,0,0:0:0:0:
448,192,56495,1,0,0:0:0:0:
64,192,56589,1,0,0:0:0:0:
320,192,56683,1,0,0:0:0:0:
192,192,56777,1,0,0:0:0:0:
448,192,56870,1,0,0:0:0:0:
64,192,56964,1,0,0:0:0:0:
320,192,57058,1,0,0:0:0:0:
448,192,57152,1,0,0:0:0:0:
64,192,57245,1,0,0:0:0:0:
448,192,57339,1,0,0:0:0:0:
64,192,57433,1,0,0:0:0:0:
448,192,57527,1,0,0:0:0:0:
64,192,57620,1,0,0:0:0:0:
448,192,57714,1,0,0:0:0:0:
64,192,57808,1,0,0:0:0:0:
448,192,57902,1,0,0:0:0:0:
64,192,57995,1,0,0:0:0:0:
448,192,58089,1,0,0:0:0:0:
64,192,58183,1,0,0:0:0:0:
448,192,58277,1,0,0:0:0:0:
64,192,58370,1,0,0:0:0:0:
448,192,58464,1,0,0:0:0:0:
64,192,58558,1,0,0:0:0:0:
320,192,58652,1,0,0:0:0:0:
192,192,58745,1,0,0:0:0:0:
320,192,58839,1,0,0:0:0:0:
192,192,58933,1,0,0:0:0:0:
320,192,59027,1,0,0:0:0:0:
192,192,59120,1,0,0:0:0:0:
320,192,59214,1,0,0:0:0:0:
192,192,59308,1,0,0:0:0:0:
320,192,59402,1,0,0:0:0:0:
192,192,59495,1,0,0:0:0:0:
320,192,59589,1,0,0:0:0:0:
192,192,59683,1,0,0:0:0:0:
320,192,59777,1,0,0:0:0:0:
320,192,59964,1,0,0:0:0:0:
320,192,60152,1,0,0:0:0:0:
64,192,60152,1,0,0:0:0:0:
192,192,60339,1,0,0:0:0:0:
192,192,60527,1,0,0:0:0:0:
320,192,60714,1,0,0:0:0:0:
320,192,60902,1,0,0:0:0:0:
64,192,61089,1,0,0:0:0:0:
192,192,61089,1,0,0:0:0:0:
448,192,61277,1,0,0:0:0:0:
320,192,61277,1,0,0:0:0:0:
64,192,61464,1,0,0:0:0:0:
192,192,61464,1,0,0:0:0:0:
320,192,61652,128,0,62027:0:0:0:0:
448,192,61652,128,0,62027:0:0:0:0:
64,192,61839,1,0,0:0:0:0:
64,192,62027,128,0,62402:0:0:0:0:
192,192,62027,128,0,62402:0:0:0:0:
448,192,62214,1,0,0:0:0:0:
320,192,62402,1,0,0:0:0:0:
64,192,62589,1,0,0:0:0:0:
192,192,62589,1,0,0:0:0:0:
320,192,62777,1,0,0:0:0:0:
64,192,62964,1,0,0:0:0:0:
448,192,62964,1,0,0:0:0:0:
192,192,63152,1,0,0:0:0:0:
320,192,63152,1,0,0:0:0:0:
192,192,63339,1,0,0:0:0:0:
320,192,63339,1,0,0:0:0:0:
448,192,63527,1,0,0:0:0:0:
448,192,63714,1,0,0:0:0:0:
64,192,63714,1,0,0:0:0:0:
64,192,63902,1,0,0:0:0:0:
64,192,64089,1,0,0:0:0:0:
448,192,64089,1,0,0:0:0:0:
192,192,64277,1,0,0:0:0:0:
192,192,64464,1,0,0:0:0:0:
448,192,64464,1,0,0:0:0:0:
320,192,64652,1,0,0:0:0:0:
448,192,64652,1,0,0:0:0:0:
64,192,64839,1,0,0:0:0:0:
320,192,65027,1,0,0:0:0:0:
448,192,65027,1,0,0:0:0:0:
64,192,65214,1,0,0:0:0:0:
320,192,65214,1,0,0:0:0:0:
192,192,65402,1,0,0:0:0:0:
320,192,65402,1,0,0:0:0:0:
64,192,65589,1,0,0:0:0:0:
192,192,65777,1,0,0:0:0:0:
320,192,65777,1,0,0:0:0:0:
448,192,65777,1,0,0:0:0:0:
448,192,65964,1,0,0:0:0:0:
64,192,66152,1,0,0:0:0:0:
192,192,66152,1,0,0:0:0:0:
448,192,66339,1,0,0:0:0:0:
192,192,66339,1,0,0:0:0:0:
192,192,66527,1,0,0:0:0:0:
64,192,66527,1,0,0:0:0:0:
448,192,66714,1,0,0:0:0:0:
192,192,66902,1,0,0:0:0:0:
64,192,66902,1,0,0:0:0:0:
448,192,67089,1,0,0:0:0:0:
192,192,67089,1,0,0:0:0:0:
192,192,67277,1,0,0:0:0:0:
320,192,67277,1,0,0:0:0:0:
64,192,67464,1,0,0:0:0:0:
448,192,67464,1,0,0:0:0:0:
320,192,67652,1,0,0:0:0:0:
192,192,67652,1,0,0:0:0:0:
448,192,67839,1,0,0:0:0:0:
64,192,67839,1,0,0:0:0:0:
192,192,68027,1,0,0:0:0:0:
64,192,68027,1,0,0:0:0:0:
320,192,68214,1,0,0:0:0:0:
64,192,68214,1,0,0:0:0:0:
64,192,68402,1,0,0:0:0:0:
192,192,68402,1,0,0:0:0:0:
320,192,68589,1,0,0:0:0:0:
448,192,68777,1,0,0:0:0:0:
64,192,68964,1,0,0:0:0:0:
320,192,68964,1,0,0:0:0:0:
192,192,69152,1,0,0:0:0:0:
320,192,69152,1,0,0:0:0:0:
192,192,69339,1,0,0:0:0:0:
192,192,69527,1,0,0:0:0:0:
448,192,69527,1,0,0:0:0:0:
192,192,69714,1,0,0:0:0:0:
320,192,69902,1,0,0:0:0:0:
64,192,69902,1,0,0:0:0:0:
320,192,70089,1,0,0:0:0:0:
448,192,70089,1,0,0:0:0:0:
64,192,70277,1,0,0:0:0:0:
192,192,70277,1,0,0:0:0:0:
64,192,70464,1,0,0:0:0:0:
320,192,70464,1,0,0:0:0:0:
320,192,70652,1,0,0:0:0:0:
448,192,70652,1,0,0:0:0:0:
448,192,70839,1,0,0:0:0:0:
448,192,71027,1,0,0:0:0:0:
64,192,71027,1,0,0:0:0:0:
448,192,71214,1,0,0:0:0:0:
192,192,71402,1,0,0:0:0:0:
320,192,71402,1,0,0:0:0:0:
192,192,71589,1,0,0:0:0:0:
64,192,71589,1,0,0:0:0:0:
320,192,71777,1,0,0:0:0:0:
448,192,71777,1,0,0:0:0:0:
192,192,71964,1,0,0:0:0:0:
320,192,72152,1,0,0:0:0:0:
64,192,72152,1,0,0:0:0:0:
448,192,72339,1,0,0:0:0:0:
192,192,72527,1,0,0:0:0:0:
448,192,72527,1,0,0:0:0:0:
320,192,72714,1,0,0:0:0:0:
64,192,72902,1,0,0:0:0:0:
448,192,72902,1,0,0:0:0:0:
192,192,73089,1,0,0:0:0:0:
320,192,73277,1,0,0:0:0:0:
448,192,73277,1,0,0:0:0:0:
64,192,73464,1,0,0:0:0:0:
192,192,73652,1,0,0:0:0:0:
320,192,73652,1,0,0:0:0:0:
64,192,73839,1,0,0:0:0:0:
320,192,74027,1,0,0:0:0:0:
448,192,74027,1,0,0:0:0:0:
64,192,74214,1,0,0:0:0:0:
320,192,74402,1,0,0:0:0:0:
192,192,74402,1,0,0:0:0:0:
64,192,74589,1,0,0:0:0:0:
320,192,74777,1,0,0:0:0:0:
448,192,74777,1,0,0:0:0:0:
192,192,74964,1,0,0:0:0:0:
64,192,75152,1,0,0:0:0:0:
448,192,75152,1,0,0:0:0:0:
192,192,75339,1,0,0:0:0:0:
320,192,75527,1,0,0:0:0:0:
448,192,75527,1,0,0:0:0:0:
64,192,75714,1,0,0:0:0:0:
320,192,75714,1,0,0:0:0:0:
192,192,75902,1,0,0:0:0:0:
320,192,75902,1,0,0:0:0:0:
64,192,76089,1,0,0:0:0:0:
320,192,76277,1,0,0:0:0:0:
448,192,76277,1,0,0:0:0:0:
192,192,76464,1,0,0:0:0:0:
64,192,76652,1,0,0:0:0:0:
448,192,76652,1,0,0:0:0:0:
192,192,76839,1,0,0:0:0:0:
320,192,77027,1,0,0:0:0:0:
64,192,77027,1,0,0:0:0:0:
192,192,77214,1,0,0:0:0:0:
320,192,77402,1,0,0:0:0:0:
448,192,77402,1,0,0:0:0:0:
64,192,77589,1,0,0:0:0:0:
192,192,77589,1,0,0:0:0:0:
320,192,77777,1,0,0:0:0:0:
64,192,77964,1,0,0:0:0:0:
448,192,77964,1,0,0:0:0:0:
192,192,78152,1,0,0:0:0:0:
320,192,78152,1,0,0:0:0:0:
64,192,78339,1,0,0:0:0:0:
448,192,78339,1,0,0:0:0:0:
64,192,78527,1,0,0:0:0:0:
320,192,78527,1,0,0:0:0:0:
64,192,78714,1,0,0:0:0:0:
192,192,78714,1,0,0:0:0:0:
64,192,78902,1,0,0:0:0:0:
448,192,78902,1,0,0:0:0:0:
320,192,79089,1,0,0:0:0:0:
64,192,79089,1,0,0:0:0:0:
192,192,79277,1,0,0:0:0:0:
64,192,79277,1,0,0:0:0:0:
320,192,79464,1,0,0:0:0:0:
64,192,79464,1,0,0:0:0:0:
448,192,79652,1,0,0:0:0:0:
320,192,79652,1,0,0:0:0:0:
448,192,79839,1,0,0:0:0:0:
192,192,79839,1,0,0:0:0:0:
448,192,80027,1,0,0:0:0:0:
64,192,80027,1,0,0:0:0:0:
448,192,80214,1,0,0:0:0:0:
192,192,80214,1,0,0:0:0:0:
448,192,80402,1,0,0:0:0:0:
64,192,80402,1,0,0:0:0:0:
448,192,80589,1,0,0:0:0:0:
320,192,80589,1,0,0:0:0:0:
448,192,80777,1,0,0:0:0:0:
192,192,80777,1,0,0:0:0:0:
448,192,80964,1,0,0:0:0:0:
64,192,80964,1,0,0:0:0:0:
448,192,81152,1,0,0:0:0:0:
320,192,81152,128,0,81527:0:0:0:0:
192,192,81339,1,0,0:0:0:0:
64,192,81527,128,0,81902:0:0:0:0:
448,192,81714,1,0,0:0:0:0:
320,192,81902,1,0,0:0:0:0:
192,192,81902,128,0,82089:0:0:0:0:
448,192,82089,128,0,82277:0:0:0:0:
64,192,82277,128,0,82464:0:0:0:0:
320,192,82464,128,0,82652:0:0:0:0:
64,192,82652,1,0,0:0:0:0:
192,192,82652,128,0,83027:0:0:0:0:
320,192,82839,1,0,0:0:0:0:
448,192,83027,128,0,83402:0:0:0:0:
64,192,83214,1,0,0:0:0:0:
192,192,83402,1,0,0:0:0:0:
320,192,83402,128,0,83589:0:0:0:0:
64,192,83589,128,0,83777:0:0:0:0:
448,192,83777,128,0,83964:0:0:0:0:
192,192,83964,128,0,84152:0:0:0:0:
