osu file format v14

[General]
AudioFilename: audio.mp3
AudioLeadIn: 0
PreviewTime: -1
Countdown: 0
SampleSet: None
StackLeniency: 0.3
Mode: 0
LetterboxInBreaks: 0
WidescreenStoryboard: 1

[Editor]
DistanceSpacing: 1.5
BeatDivisor: 2
GridSize: 16
TimelineZoom: 2.6

[Metadata]
Title:Goodbye (Drop Tower Remix)
TitleUnicode:Goodbye (Drop Tower Remix)
Artist:Thimlife feat. Vanessa
ArtistUnicode:Thimlife feat. Vanessa
Creator:Upgradefort
Version:Insane
Source:
Tags:
BeatmapID:1764149
BeatmapSetID:843149

[Difficulty]
HPDrainRate:6
CircleSize:3.8
OverallDifficulty:8.6
ApproachRate:8.5
SliderMultiplier:1.4
SliderTickRate:1

[Events]
//Background and Video events
0,0,"1281739-pixiv-fantasia-t.jpg",0,0
//Break Periods
2,7664,59477
//Storyboard Layer 0 (Background)
//Storyboard Layer 1 (Fail)
//Storyboard Layer 2 (Pass)
//Storyboard Layer 3 (Foreground)
//Storyboard Sound Samples

[TimingPoints]
152,375,4,1,0,100,1,0
60150,-66.6666666666667,4,1,0,5,0,0

[HitObjects]
318,110,152,6,0,P|349:95|383:87,1,70
248,187,527,2,0,P|216:172|182:164,1,70
77,164,902,5,0,0:0:0:0:
76,270,1089,1,0,0:0:0:0:
183,270,1277,1,0,0:0:0:0:
182,164,1464,1,0,0:0:0:0:
291,58,1652,5,0,0:0:0:0:
290,164,1839,1,0,0:0:0:0:
397,164,2027,1,0,0:0:0:0:
396,58,2214,1,0,0:0:0:0:
290,270,2402,5,0,0:0:0:0:
183,270,2590,1,0,0:0:0:0:
290,270,2777,1,0,0:0:0:0:
183,270,2965,1,0,0:0:0:0:
190,77,3152,6,0,P|223:87|250:108,1,70
182,164,3527,2,0,P|147:168|113:160,1,70
72,64,3902,5,0,0:0:0:0:
35,162,4089,1,0,0:0:0:0:
182,164,4277,1,0,0:0:0:0:
145,262,4464,1,0,0:0:0:0:
339,184,4652,5,0,0:0:0:0:
388,134,4839,1,0,0:0:0:0:
339,85,5026,1,0,0:0:0:0:
289,134,5214,1,0,0:0:0:0:
428,349,5402,5,0,0:0:0:0:
477,299,5589,1,0,0:0:0:0:
428,250,5776,1,0,0:0:0:0:
378,299,5964,1,0,0:0:0:0:
209,285,6152,5,0,0:0:0:0:
160,235,6339,1,0,0:0:0:0:
209,186,6526,1,0,0:0:0:0:
259,235,6714,1,0,0:0:0:0:
90,160,6902,5,0,0:0:0:0:
41,110,7089,1,0,0:0:0:0:
90,61,7276,1,0,0:0:0:0:
140,110,7464,1,0,0:0:0:0:
299,124,60152,6,0,P|327:81|365:45,1,105.000004005432
238,286,60527,1,0,0:0:0:0:
403,134,60714,1,0,0:0:0:0:
156,110,60902,5,0,0:0:0:0:
396,227,61089,1,0,0:0:0:0:
103,225,61277,5,0,0:0:0:0:
340,69,61464,1,0,0:0:0:0:
55,153,61652,6,0,P|21:193|17:244,1,105.000004005432
314,325,62027,5,0,0:0:0:0:
245,100,62214,1,0,0:0:0:0:
230,277,62402,5,0,0:0:0:0:
340,69,62589,1,0,0:0:0:0:
202,189,62777,5,0,0:0:0:0:
426,119,62964,1,0,0:0:0:0:
443,221,63152,6,0,L|333:192,1,105.000004005432
111,83,63527,5,0,0:0:0:0:
114,309,63714,1,0,0:0:0:0:
400,300,63902,5,0,0:0:0:0:
202,189,64089,1,0,0:0:0:0:
426,119,64277,5,0,0:0:0:0:
230,277,64464,1,0,0:0:0:0:
213,86,64652,6,0,P|242:44|292:33,1,105.000004005432
282,339,65027,2,0,P|236:360|186:346,1,105.000004005432
354,241,65402,5,0,0:0:0:0:
126,141,65589,1,0,0:0:0:0:
311,132,65777,5,0,0:0:0:0:
83,232,65964,1,0,0:0:0:0:
405,159,66152,5,0,0:0:0:0:
405,159,66339,1,0,0:0:0:0:
405,159,66527,1,0,0:0:0:0:
405,159,66714,1,0,0:0:0:0:
405,159,66902,6,0,L|317:244,1,105.000004005432
66,110,67277,2,0,B|88:61|88:61|149:60,1,105.000004005432
107,225,67652,5,0,0:0:0:0:
107,225,67839,1,0,0:0:0:0:
107,225,68027,1,0,0:0:0:0:
107,225,68214,1,0,0:0:0:0:
107,225,68402,6,0,L|195:139,1,105.000004005432
446,274,68777,2,0,B|423:322|423:322|362:323,1,105.000004005432
