osu file format v14

[General]
AudioFilename: audio.mp3
AudioLeadIn: 0
PreviewTime: 11487
Countdown: 0
SampleSet: Normal
StackLeniency: 0.4
Mode: 0
LetterboxInBreaks: 0
WidescreenStoryboard: 1

[Editor]
DistanceSpacing: 1
BeatDivisor: 4
GridSize: 16
TimelineZoom: 1

[Metadata]
Title:Courage The Cowardly Dog
TitleUnicode:Courage The Cowardly Dog
Artist:They Might Be Giants
ArtistUnicode:They Might Be Giants
Creator:AJT
Version:Aranel's Normal
Source:Courage the Cowardly Dog
Tags:english novelty rock flux3on fluxie aranel cartoon network groovies
BeatmapID:3620254
BeatmapSetID:1767910

[Difficulty]
HPDrainRate:3
CircleSize:5
OverallDifficulty:4
ApproachRate:5
SliderMultiplier:1.28
SliderTickRate:1

[Events]
//Background and Video events
Video,0,"video.mp4"
0,0,"MTeDqmQBwXJnsNn-1600x900-noPad.jpg",0,0
//Break Periods
2,55977,63675
//Storyboard Layer 0 (Background)
//Storyboard Layer 1 (Fail)
//Storyboard Layer 2 (Pass)
//Storyboard Layer 3 (Foreground)
//Storyboard Layer 4 (Overlay)
//Storyboard Sound Samples

[TimingPoints]
11488,556.116821606992,4,1,0,40,1,0
24834,-100,4,1,0,50,0,1
33732,-100,4,1,0,40,0,0
47079,-100,4,1,0,50,0,1
55977,-100,4,2,0,30,0,0
64875,-100,4,1,0,50,0,1
68211,-100,4,1,0,50,0,0

[Colours]
Combo1 : 0,128,0
Combo2 : 255,128,64
Combo3 : 128,128,255
Combo4 : 128,64,64

[HitObjects]
88,192,11487,6,0,P|224:328|224:328,1,192,6|0,0:0|0:0,0:0:0:0:
288,328,12600,2,0,B|384:240,1,128,6|8,0:0|0:0,0:0:0:0:
384,120,13712,1,6,0:0:0:0:
320,120,13990,1,0,0:0:0:0:
256,120,14268,1,10,0:0:0:0:
128,120,14824,1,6,0:0:0:0:
288,352,15936,5,6,0:0:0:0:
224,352,16214,1,0,0:0:0:0:
256,192,16910,2,2,L|256:88,1,96
256,32,17605,1,8,0:0:0:0:
128,32,18161,5,6,0:0:0:0:
176,80,18439,1,0,0:0:0:0:
128,128,18717,2,0,L|128:256,2,128,10|2|8,0:0|0:0|0:0,0:0:0:0:
224,32,20385,5,6,0:0:0:0:
288,32,20663,1,0,0:0:0:0:
256,192,21359,2,2,L|256:296,1,96
256,352,22054,1,8,0:0:0:0:
384,352,22610,5,6,0:0:0:0:
336,304,22888,1,0,0:0:0:0:
384,256,23166,2,0,L|384:112,2,128,10|2|8,0:0|0:0|0:0,0:0:0:0:
256,288,24834,6,0,L|256:216,1,64,6|2,0:0|0:0,0:0:0:0:
192,224,25390,2,0,L|192:328,1,96,10|6,0:0|0:0,0:0:0:0:
192,160,26503,2,0,L|192:80,1,64,8|0,0:0|0:0,0:0:0:0:
256,96,27059,6,0,L|256:168,1,64,6|2,0:0|0:0,0:0:0:0:
320,160,27615,2,0,L|320:56,1,96,10|6,0:0|0:0,0:0:0:0:
320,224,28728,2,0,L|320:304,1,64,8|0,0:0|0:0,0:0:0:0:
320,352,29283,5,6,0:0:0:0:
448,352,29839,1,10,0:0:0:0:
448,256,30256,1,6,0:0:0:0:
320,160,30952,1,8,0:0:0:0:
320,32,31508,5,6,0:0:0:0:
448,32,32064,1,10,0:0:0:0:
448,128,32481,1,6,0:0:0:0:
320,224,33177,1,8,0:0:0:0:
256,192,33732,12,2,37069,0:0:0:0:
224,352,38181,5,6,0:0:0:0:
288,352,38459,1,2,0:0:0:0:
256,192,39155,2,2,L|256:88,1,96
256,32,39850,1,8,0:0:0:0:
384,32,40406,5,6,0:0:0:0:
384,96,40684,1,0,0:0:0:0:
384,160,40962,2,0,L|448:160,1,64,10|0,0:0|0:0,0:0:0:0:
448,96,41518,2,0,L|448:16,1,64,6|2,0:0|0:0,0:0:0:0:
288,32,42630,5,6,0:0:0:0:
224,32,42908,1,2,0:0:0:0:
256,224,43742,1,6,0:0:0:0:
256,352,44298,1,10,0:0:0:0:
128,352,44855,5,6,0:0:0:0:
128,288,45133,1,0,0:0:0:0:
128,224,45411,2,0,L|64:224,1,64,10|10,0:0|0:0,0:0:0:0:
64,288,45967,2,0,B|64:352|64:352|128:352,1,128,10|8,0:0|0:0,0:0:0:0:
256,288,47079,6,8,L|256:216,1,64,10|2,0:0|0:0,0:0:0:0:
320,224,47635,2,0,L|320:304,1,64,10|8,0:0|0:0,0:0:0:0:
384,256,48191,1,6,0:0:0:0:
320,160,48748,2,0,L|320:80,1,64,8|0,0:0|0:0,0:0:0:0:
256,96,49303,6,8,L|256:168,1,64,10|2,0:0|0:0,0:0:0:0:
192,160,49860,2,0,L|192:80,1,64,10|8,0:0|0:0,0:0:0:0:
128,128,50416,1,6,0:0:0:0:
192,224,50973,2,0,L|192:304,1,64,8|0,0:0|0:0,0:0:0:0:
192,352,51528,5,6,0:0:0:0:
64,352,52084,1,10,0:0:0:0:
64,256,52501,1,6,0:0:0:0:
192,160,53197,1,8,0:0:0:0:
192,32,53753,5,6,0:0:0:0:
64,32,54309,1,10,0:0:0:0:
64,128,54726,1,6,0:0:0:0:
192,224,55422,1,8,0:0:0:0:
480,192,64875,5,6,0:0:0:0:
336,144,65431,1,10,0:0:0:0:
336,240,65848,1,6,0:0:0:0:
32,192,67099,5,6,0:0:0:0:
176,144,67655,1,10,0:0:0:0:
176,240,68072,1,6,0:0:0:0:
