osu file format v14

[General]
AudioFilename: audio.mp3
AudioLeadIn: 0
PreviewTime: 9667
Countdown: 0
SampleSet: Soft
StackLeniency: 0.7
Mode: 0
LetterboxInBreaks: 0
WidescreenStoryboard: 1

[Editor]
Bookmarks: 25516
DistanceSpacing: 1.1
BeatDivisor: 4
GridSize: 4
TimelineZoom: 2.1

[Metadata]
Title:Boss of Me (TV Size)
TitleUnicode:Boss of Me (TV Size)
Artist:They Might Be Giants
ArtistUnicode:They Might Be Giants
Creator:Zekao
Version:Normal
Source:Malcolm in the Middle
Tags:Opening Intro Fox English Alternative Rock Pop TMBG realy0_
BeatmapID:2489600
BeatmapSetID:1194439

[Difficulty]
HPDrainRate:4
CircleSize:2.8
OverallDifficulty:5
ApproachRate:5.5
SliderMultiplier:1.1
SliderTickRate:1

[Events]
//Background and Video events
0,0,"saison-03_episode-21_reactions-en-chaine_cliques_dewey-dominos-drapeau-usa-sourire_stills.jpg",0,0
//Break Periods
//Storyboard Layer 0 (Background)
//Storyboard Layer 1 (Fail)
//Storyboard Layer 2 (Pass)
//Storyboard Layer 3 (Foreground)
//Storyboard Layer 4 (Overlay)
//Storyboard Sound Samples

[TimingPoints]
-2180,596.421471172962,4,2,1,60,1,0
205,-100,4,2,1,60,0,0
8554,297.029702970297,4,2,1,70,1,8
8554,-125,4,2,1,70,0,0
9742,-125,4,2,1,70,0,1
12118,298.507462686567,4,2,1,70,1,1
12118,-125,4,2,1,70,0,1
16894,300,4,2,1,70,1,1
16894,-125,4,2,1,70,0,1
19294,297.029702970297,4,2,1,70,1,1
19294,-125,4,2,1,70,0,1
24046,300,4,2,1,70,1,1
24046,-125,4,2,1,70,0,1
25246,294.117647058824,4,2,1,70,1,1
25246,-125,4,2,1,70,0,1
26422,300,4,2,1,80,1,1
26422,-125,4,2,1,80,0,1
28822,311.688311688312,4,2,1,80,1,0
28822,-125,4,2,1,80,0,0
29133,-125,4,2,1,70,0,0
29757,-125,4,2,1,60,0,0
30380,-125,4,2,1,50,0,0
31003,300,4,2,1,40,1,8
31003,-125,4,2,1,40,0,8
31451,361.44578313253,4,2,1,30,1,8
31451,-125,4,2,1,30,0,8
32173,-125,4,2,1,20,0,8
32896,-125,4,2,1,10,0,8
34704,-125,4,2,1,5,0,8

[Colours]
Combo1 : 255,79,79
Combo2 : 0,83,166
Combo3 : 192,192,192

[HitObjects]
177,117,205,6,0,P|232:104|291:125,1,110,4|10,3:2|2:0,0:0:0:0:
341,176,1100,1,2,3:2:0:0:
284,233,1398,2,0,P|231:248|178:234,1,110,0|10,3:2|2:0,0:0:0:0:
111,184,2293,1,2,3:2:0:0:
49,239,2591,6,0,L|58:317,2,55,0|0|8,3:2|2:0|2:0,0:0:0:0:
20,161,3486,1,0,3:2:0:0:
81,106,3784,2,0,L|75:52,2,55,0|0|10,3:2|2:0|2:0,0:0:0:0:
111,183,4678,1,2,3:2:0:0:
167,123,4977,6,0,P|212:96|276:116,1,110,0|8,3:2|2:0,0:0:0:0:
320,169,5871,1,0,3:2:0:0:
380,112,6169,2,0,P|432:100|478:127,1,110,0|10,3:2|2:0,0:0:0:0:
489,209,7064,1,2,3:2:0:0:
416,247,7362,6,0,L|401:370,1,110,2|10,3:2|2:0,0:0:0:0:
325,327,8257,1,0,3:2:0:0:
248,367,8554,6,0,L|191:352,1,44,10|0,2:0|3:2,0:0:0:0:
167,350,8851,2,0,L|109:364,1,44,10|0,2:0|3:2,0:0:0:0:
84,356,9148,2,0,L|26:341,1,44,10|0,2:0|3:2,0:0:0:0:
0,353,9445,1,10,2:0:0:0:
22,258,9742,6,0,L|34:159,1,88,6|8,3:2|2:0,0:0:0:0:
44,123,10187,1,0,3:2:0:0:
44,123,10336,1,2,3:2:0:0:
85,35,10633,1,10,2:0:0:0:
85,35,10781,2,0,P|133:34|173:58,1,88,2|2,3:2|3:2,0:0:0:0:
188,96,11227,5,10,2:0:0:0:
262,34,11524,1,0,3:2:0:0:
310,118,11821,1,8,2:0:0:0:
374,46,12118,6,0,P|397:83|403:133,1,88,2|8,3:2|2:0,0:0:0:0:
384,170,12565,1,0,3:2:0:0:
384,170,12715,1,2,3:2:0:0:
296,206,13013,1,10,2:0:0:0:
296,206,13162,2,0,L|306:293,1,88,2|2,3:2|3:2,0:0:0:0:
342,325,13610,5,10,2:0:0:0:
260,378,13909,1,0,3:2:0:0:
208,296,14207,1,8,2:0:0:0:
141,366,14506,6,0,P|96:351|44:371,1,88,2|8,3:2|2:0,0:0:0:0:
13,380,14953,1,0,3:2:0:0:
13,380,15103,1,2,3:2:0:0:
18,283,15401,1,10,2:0:0:0:
18,283,15550,2,0,L|29:189,1,88,2|2,3:2|3:2,0:0:0:0:
52,153,15998,1,10,2:0:0:0:
138,196,16297,2,0,P|150:147|135:106,1,88,2|10,3:2|2:0,0:0:0:0:
85,32,16894,6,0,L|-17:53,2,88,2|8|2,3:2|2:0|3:2,0:0:0:0:
181,24,17794,1,8,2:0:0:0:
139,112,18094,2,0,L|241:133,1,88,2|8,3:2|2:0,0:0:0:0:
311,86,18694,2,0,L|370:71,1,44,0|2,3:2|1:2,0:0:0:0:
396,51,18994,2,0,L|455:65,1,44,10|0,1:2|3:2,0:0:0:0:
470,98,19294,6,0,P|481:143|475:193,1,88,6|8,3:2|2:0,0:0:0:0:
454,226,19739,1,0,3:2:0:0:
454,226,19888,1,2,3:2:0:0:
366,267,20185,1,10,2:0:0:0:
366,267,20333,2,0,P|318:256|274:268,1,88,2|2,3:2|3:2,0:0:0:0:
248,300,20779,5,10,2:0:0:0:
173,237,21076,1,0,3:2:0:0:
106,307,21373,1,8,2:0:0:0:
38,238,21670,6,0,L|49:144,1,88,2|8,3:2|2:0,0:0:0:0:
86,121,22115,1,0,3:2:0:0:
86,121,22264,1,2,3:2:0:0:
43,33,22561,1,10,2:0:0:0:
43,33,22709,2,0,L|147:20,1,88,2|2,3:2|3:2,0:0:0:0:
178,15,23155,5,10,2:0:0:0:
247,82,23452,1,0,3:2:0:0:
319,17,23749,1,8,2:0:0:0:
383,87,24046,6,0,B|396:134|396:134|383:184,1,88,2|8,3:2|2:0,0:0:0:0:
361,213,24496,1,0,3:2:0:0:
361,213,24646,1,2,3:2:0:0:
313,297,24946,1,10,2:0:0:0:
313,297,25096,2,0,B|266:284|266:284|216:297,1,86.9000021215821,2|2,3:2|3:2,0:0:0:0:
183,310,25540,1,10,2:0:0:0:
100,258,25834,2,0,P|93:209|116:157,1,88,2|10,3:2|2:0,0:0:0:0:
183,119,26422,6,0,P|189:73|168:25,2,88,2|8|2,3:2|2:0|3:2,0:0:0:0:
104,173,27322,1,8,2:0:0:0:
193,210,27622,2,0,L|247:203,1,44,10|2,2:0|3:2,0:0:0:0:
284,195,27922,1,8,2:0:0:0:
378,174,28222,2,0,L|432:167,1,44,10|2,2:0|3:2,0:0:0:0:
468,156,28522,1,8,2:0:0:0:
500,68,28822,5,6,3:2:0:0:
256,192,28899,12,0,34705,0:0:0:0:
