osu file format v14

[General]
AudioFilename: audio.mp3
AudioLeadIn: 0
PreviewTime: 9667
Countdown: 0
SampleSet: Soft
StackLeniency: 0.7
Mode: 0
LetterboxInBreaks: 0
WidescreenStoryboard: 1

[Editor]
Bookmarks: 18072,25516
DistanceSpacing: 1.2
BeatDivisor: 16
GridSize: 8
TimelineZoom: 1.5

[Metadata]
Title:Boss of Me (TV Size)
TitleUnicode:Boss of Me (TV Size)
Artist:They Might Be Giants
ArtistUnicode:They Might Be Giants
Creator:Zekao
Version:Light Insane
Source:Malcolm in the Middle
Tags:Opening Intro Fox English Alternative Rock Pop TMBG realy0_
BeatmapID:2491020
BeatmapSetID:1194439

[Difficulty]
HPDrainRate:5.5
CircleSize:3.7
OverallDifficulty:7.5
ApproachRate:8.5
SliderMultiplier:1.6
SliderTickRate:1

[Events]
//Background and Video events
0,0,"saison-03_episode-21_reactions-en-chaine_cliques_dewey-dominos-drapeau-usa-sourire_stills.jpg",0,0
//Break Periods
//Storyboard Layer 0 (Background)
//Storyboard Layer 1 (Fail)
//Storyboard Layer 2 (Pass)
//Storyboard Layer 3 (Foreground)
//Storyboard Layer 4 (Overlay)
//Storyboard Sound Samples

[TimingPoints]
-2180,596.421471172962,4,2,1,60,1,0
205,-90.9090909090909,4,2,1,60,0,0
8554,297.029702970297,4,2,1,70,1,8
8554,-133.333333333333,4,2,1,70,0,0
9742,-100,4,2,1,70,0,1
12118,298.507462686567,4,2,1,70,1,1
12118,-100,4,2,1,70,0,1
16894,300,4,2,1,70,1,1
16894,-100,4,2,1,70,0,1
19294,297.029702970297,4,2,1,70,1,1
19294,-100,4,2,1,70,0,1
24046,300,4,2,1,70,1,1
24046,-100,4,2,1,70,0,1
25096,-100,4,2,1,70,0,1
25246,294.117647058824,4,2,1,70,1,1
26422,300,4,2,1,80,1,1
26422,-111.111111111111,4,2,1,80,0,1
28822,311.688311688312,4,2,1,80,1,0
28822,-285.714285714286,4,2,1,80,0,0
30536,-285.714285714284,4,2,1,80,0,0
31003,300,4,2,1,80,1,8
31451,361.44578313253,4,2,1,80,1,8
34704,-100,4,2,1,5,0,8

[Colours]
Combo1 : 255,79,79
Combo2 : 0,83,166
Combo3 : 192,192,192

[HitObjects]
96,88,56,5,8,2:0:0:0:
96,88,131,1,8,2:0:0:0:
96,88,205,2,0,L|85:175,1,88.000002685547,4|0,3:2|2:0,0:0:0:0:
131,270,802,1,10,2:0:0:0:
131,270,1100,2,0,P|179:259|231:275,1,88.000002685547,2|0,3:2|3:2,0:0:0:0:
312,309,1696,1,0,2:0:0:0:
312,309,1994,2,0,P|323:261|307:209,1,88.000002685547,10|2,2:0|3:2,0:0:0:0:
216,66,2591,6,0,L|227:155,1,88.000002685547,0|0,3:2|2:0,0:0:0:0:
322,108,3187,1,8,2:0:0:0:
422,139,3486,1,0,3:2:0:0:
422,139,3784,2,0,L|432:227,1,88.000002685547,0|0,3:2|2:0,0:0:0:0:
443,331,4380,1,10,2:0:0:0:
510,249,4678,1,2,3:2:0:0:
343,348,4977,6,0,L|232:334,1,88.000002685547,0|2,3:2|2:0,0:0:0:0:
105,261,5573,2,0,L|193:251,1,88.000002685547,8|0,2:0|3:2,0:0:0:0:
288,162,6169,2,0,L|298:250,1,88.000002685547,0|2,3:2|2:0,0:0:0:0:
185,143,6766,1,10,2:0:0:0:
242,54,7064,1,2,3:2:0:0:
242,54,7362,2,0,P|336:48|408:120,1,176.000005371094,2|10,3:2|2:0,0:0:0:0:
411,303,8555,5,10,2:0:0:0:
347,239,8702,1,0,3:2:0:0:
288,307,8851,2,0,P|250:313|223:307,1,60.0000022888184,10|0,2:0|3:2,0:0:0:0:
170,239,9148,1,10,2:0:0:0:
222,166,9296,1,0,3:2:0:0:
170,91,9445,2,0,L|104:82,1,60.0000022888184,10|2,2:0|3:2,0:0:0:0:
64,18,9742,6,0,P|76:100|42:198,1,160,6|8,3:2|2:0,0:0:0:0:
3,281,10187,1,0,3:2:0:0:
3,281,10336,2,0,P|88:280|175:319,1,160,2|10,3:2|2:0,0:0:0:0:
253,379,10781,2,0,P|272:304|240:208,1,160,2|2,3:2|3:2,0:0:0:0:
181,128,11227,6,0,L|358:143,2,160,10|0|8,2:0|3:2|2:0,0:0:0:0:
416,77,12118,6,0,P|436:152|396:232,1,160,2|8,3:2|2:0,0:0:0:0:
306,295,12565,1,0,3:2:0:0:
306,295,12715,2,0,P|286:219|318:147,1,160,2|10,3:2|2:0,0:0:0:0:
416,77,13162,2,0,P|319:33|237:54,1,160,2|2,3:2|3:2,0:0:0:0:
192,134,13610,6,0,P|154:143|115:137,1,80,10|0,2:0|2:0,0:0:0:0:
0,25,13909,2,0,P|38:15|77:21,1,80,2|0,3:2|3:2,0:0:0:0:
278,124,14207,2,0,P|286:177|277:209,1,80,8|0,2:0|3:2,0:0:0:0:
33,246,14506,6,0,P|8:195|56:86,1,160,2|8,3:2|2:0,0:0:0:0:
154,50,14953,1,0,3:2:0:0:
154,50,15103,2,0,L|317:29,1,160,2|10,3:2|2:0,0:0:0:0:
392,121,15550,2,0,L|233:140,1,160,2|2,3:2|3:2,0:0:0:0:
146,225,15998,6,0,P|124:300|155:383,2,160,10|2|10,2:0|3:2|2:0,0:0:0:0:
392,121,16894,6,0,L|371:286,1,160,2|8,3:2|2:0,0:0:0:0:
268,341,17344,1,0,3:2:0:0:
268,341,17494,2,0,P|339:326|419:380,1,160,2|8,3:2|2:0,0:0:0:0:
499,135,18094,6,0,L|486:35,1,80,2|0,3:2|3:2,0:0:0:0:
392,121,18394,2,0,L|401:200,1,80,8|0,2:0|3:2,0:0:0:0:
401,378,18694,5,0,3:2:0:0:
454,287,18844,1,2,1:2:0:0:
304,234,18994,1,10,1:2:0:0:
302,333,19144,1,0,3:2:0:0:
193,342,19294,6,0,P|112:352|32:340,1,160,6|8,3:2|2:0,0:0:0:0:
25,220,19739,1,0,3:2:0:0:
25,220,19888,2,0,P|104:209|183:221,1,160,2|10,3:2|2:0,0:0:0:0:
286,281,20333,2,0,P|308:194|268:106,1,160,2|2,3:2|3:2,0:0:0:0:
181,70,20779,6,0,P|144:64|76:80,1,80,10|0,2:0|2:0,0:0:0:0:
104,220,21076,2,0,P|141:226|209:210,1,80,0|0,3:2|3:2,0:0:0:0:
365,129,21373,2,0,P|328:123|260:139,1,80,8|0,2:0|3:2,0:0:0:0:
400,224,21670,6,0,P|459:155|451:83,1,160,2|8,3:2|2:0,0:0:0:0:
352,24,22115,1,0,3:2:0:0:
352,24,22264,2,0,L|185:44,1,160,2|10,3:2|2:0,0:0:0:0:
127,147,22709,2,0,L|285:127,1,160,2|2,3:2|3:2,0:0:0:0:
389,189,23155,6,0,B|409:358,2,160,10|0|8,2:0|3:2|2:0,0:0:0:0:
183,312,24046,6,0,P|96:336|21:296,1,160,2|8,3:2|2:0,0:0:0:0:
42,180,24496,1,0,3:2:0:0:
42,180,24646,2,0,P|129:156|204:196,1,160,2|10,3:2|2:0,0:0:0:0:
338,184,25096,2,0,P|264:156|190:184,1,158.399999516602,2|2,3:2|3:2,0:0:0:0:
263,276,25540,6,0,L|275:375,1,80,10|0,2:0|2:0,0:0:0:0:
338,184,25834,2,0,L|345:104,1,80,2|0,3:2|3:2,0:0:0:0:
216,20,26128,2,0,L|224:100,1,80,10|0,2:0|3:2,0:0:0:0:
431,73,26422,6,0,P|376:19|292:27,1,143.999995605469,2|8,3:2|2:0,0:0:0:0:
224,100,26872,1,0,3:2:0:0:
224,100,27022,2,0,P|142:107|69:75,1,143.999995605469,2|8,3:2|2:0,0:0:0:0:
138,255,27622,5,10,2:0:0:0:
138,255,27697,1,10,2:0:0:0:
138,255,27772,2,0,L|129:320,2,35.9999989013672,2|0|8,3:2|3:2|2:0,0:0:0:0:
349,234,28222,5,10,2:0:0:0:
349,234,28297,1,10,2:0:0:0:
349,234,28372,2,0,L|356:175,2,35.9999989013672,2|0|8,3:2|3:2|2:0,0:0:0:0:
216,20,28822,5,6,3:2:0:0:
256,192,28899,12,0,30068,0:0:0:0:
327,302,30536,6,0,B|360:225|285:225|326:142,1,164.499994979859,2|0,2:0|0:0,0:0:0:0:
407,54,31993,1,2,2:0:0:0:
256,192,32084,12,0,34705,0:0:0:0:
