osu file format v14

[General]
AudioFilename: audio.mp3
AudioLeadIn: 0
PreviewTime: 9660
Countdown: 0
SampleSet: Soft
StackLeniency: 0.7
Mode: 0
LetterboxInBreaks: 0
WidescreenStoryboard: 0

[Editor]
Bookmarks: 34810
DistanceSpacing: 1.5
BeatDivisor: 4
GridSize: 4
TimelineZoom: 2.192

[Metadata]
Title:Boss Of Me (TV Size)
TitleUnicode:Boss Of Me (TV Size)
Artist:They Might Be Giants
ArtistUnicode:They Might Be Giants
Creator:Cris-
Version:ezek's Hard
Source:Malcolm in the Middle
Tags:TheShadowOfDark ezek Tatan Gero Hazu- wolf3211 pkhg Opening Intro English Alternative Rock TMBG
BeatmapID:2105994
BeatmapSetID:1006284

[Difficulty]
HPDrainRate:4
CircleSize:4
OverallDifficulty:6.5
ApproachRate:7.5
SliderMultiplier:1.6
SliderTickRate:1

[Events]
//Background and Video events
0,0,"Malcolm.jpg",0,0
Video,0,"Malcolm Opening.mp4"
//Break Periods
//Storyboard Layer 0 (Background)
//Storyboard Layer 1 (Fail)
//Storyboard Layer 2 (Pass)
//Storyboard Layer 3 (Foreground)
//Storyboard Layer 4 (Overlay)
//Storyboard Sound Samples

[TimingPoints]
195,596.421471172962,4,2,1,60,1,0
8544,297.766749379653,4,2,1,70,1,0
8544,-133.333333333333,4,2,1,70,0,0
9735,-100,4,2,1,80,0,1
11521,-100,4,2,1,80,0,1
11819,-100,4,2,1,80,0,1
12117,-100,4,2,1,80,0,1
13903,-100,4,2,1,80,0,1
14201,-100,4,2,1,80,0,1
14499,-100,4,2,1,80,0,1
18965,-100,4,2,1,80,0,0
19263,-100,4,2,1,80,0,1
21050,-100,4,2,1,80,0,1
21347,-100,4,2,1,80,0,1
21645,-100,4,2,1,80,0,1
23432,-100,4,2,1,80,0,1
23730,-100,4,2,1,80,0,1
24027,-100,4,2,1,80,0,1
26410,300,4,2,1,80,1,1
26410,-100,4,2,1,80,0,1
27310,-100,4,2,1,80,0,0
27610,-100,4,2,1,80,0,1
28810,-217.391304347826,4,2,1,70,0,0
31960,-217.391304347826,4,2,1,10,0,0
34810,-217.391304347826,4,2,1,5,0,0

[Colours]
Combo1 : 133,152,239
Combo2 : 252,73,73
Combo3 : 94,118,234
Combo4 : 255,117,117

[HitObjects]
76,56,46,5,8,0:0:0:0:
76,56,120,1,8,0:0:0:0:
76,56,195,2,0,L|160:56,1,80,4|2,0:0|0:0,0:0:0:0:
208,128,791,2,0,L|212:208,1,80,8|2,0:0|3:2,0:0:0:0:
300,208,1387,2,0,L|304:128,1,80,0|2,3:0|0:0,0:0:0:0:
356,56,1984,2,0,L|436:56,1,80,8|2,0:0|3:2,0:0:0:0:
508,168,2580,6,0,P|532:240|508:320,1,160,0|8,3:0|0:0,0:0:0:0:
428,284,3475,1,2,3:2:0:0:
428,284,3773,2,0,L|344:284,1,80,0|2,3:0|0:0,0:0:0:0:
220,356,4369,2,0,L|300:356,1,80,8|2,0:0|3:2,0:0:0:0:
328,216,4966,6,0,B|256:180|256:180|184:216,1,160,0|8,3:0|0:0,0:0:0:0:
108,256,5861,1,2,3:2:0:0:
36,204,6159,1,0,3:0:0:0:
72,124,6457,1,2,0:0:0:0:
160,132,6755,1,8,0:0:0:0:
72,124,7053,1,2,3:2:0:0:
160,132,7352,6,0,P|172:96|160:56,1,80,0|2,3:0|0:0,0:0:0:0:
268,16,7948,2,0,P|256:52|268:92,1,80,8|2,0:0|3:2,0:0:0:0:
376,172,8544,6,0,L|436:180,1,60.0000022888184,8|0,0:0|3:0,1:1:0:0:
468,304,8841,2,0,L|408:296,1,60.0000022888184,8|0,0:0|3:0,1:1:0:0:
280,284,9139,2,0,L|220:276,1,60.0000022888184,8|0,0:0|3:0,1:1:0:0:
188,152,9437,2,0,L|248:160,1,60.0000022888184,8|0,0:0|3:0,1:1:0:0:
128,224,9735,6,0,P|96:152|128:80,1,160,6|10,3:2|0:0,0:0:0:0:
212,68,10181,1,0,0:0:0:0:
292,104,10330,2,0,P|328:116|368:104,2,80,2|0|10,3:2|0:0|0:0,0:0:0:0:
328,24,10777,2,0,L|328:184,1,160,2|2,3:2|0:0,0:0:0:0:
324,272,11223,1,8,0:0:0:0:
404,308,11372,1,0,0:0:0:0:
324,272,11521,2,0,B|240:272|240:272|172:308,1,160,0|8,3:2|0:0,0:0:0:0:
60,76,12117,6,0,B|116:56|116:56|168:40|212:68,1,160,2|10,3:2|0:0,0:0:0:0:
256,144,12563,1,0,0:0:0:0:
172,172,12712,2,0,L|88:200,2,80,2|0|10,3:2|0:0|0:0,0:0:0:0:
256,144,13159,2,0,L|420:88,1,160,2|2,3:2|0:0,0:0:0:0:
492,64,13606,1,8,0:0:0:0:
424,8,13754,1,0,0:0:0:0:
492,64,13903,2,0,P|460:136|492:208,1,160,0|8,3:2|0:0,0:0:0:0:
284,360,14499,6,0,P|316:288|284:216,1,160,2|10,3:2|0:0,0:0:0:0:
204,188,14945,1,0,0:0:0:0:
160,264,15094,2,0,L|184:344,2,80,2|0|10,3:2|0:0|0:0,0:0:0:0:
84,220,15541,2,0,L|36:64,1,160,2|2,3:2|0:0,0:0:0:0:
108,12,15988,1,8,0:0:0:0:
256,220,16285,1,2,3:2:0:0:
404,12,16583,1,10,0:0:0:0:
376,248,16881,6,0,P|256:337|136:248,2,320,2|2|2,3:2|3:2|3:2,0:0:0:0:
408,168,18221,1,0,0:0:0:0:
408,168,18370,2,0,L|408:88,1,80,8|0,0:0|0:0,0:0:0:0:
356,16,18668,2,0,B|316:44|316:96|316:96|316:168,1,160,0|8,3:2|0:0,0:0:0:0:
256,228,19114,1,0,0:0:0:0:
196,162,19263,6,0,B|196:96|196:96|196:44|156:16,1,160,6|10,3:2|0:0,0:0:0:0:
104,88,19710,1,0,0:0:0:0:
20,60,19859,2,0,P|42:24|74:4,2,80,2|0|10,3:2|0:0|0:0,0:0:0:0:
32,148,20305,2,0,B|32:200|32:200|44:248|44:248|44:308,1,160,2|2,3:2|0:0,0:0:0:0:
120,352,20752,1,8,0:0:0:0:
124,264,20901,1,0,0:0:0:0:
120,352,21050,2,0,B|176:352|176:352|236:352|256:296,1,160,0|8,3:2|0:0,0:0:0:0:
432,112,21645,6,0,B|376:112|376:112|316:112|296:168,1,160,2|10,3:2|0:0,0:0:0:0:
364,228,22092,1,0,0:0:0:0:
432,280,22241,2,0,L|512:280,2,80,2|0|10,3:2|0:0|0:0,0:0:0:0:
360,332,22687,2,0,B|320:348|283:329|283:329|248:312|204:332,1,160,2|2,3:2|0:0,0:0:0:0:
124,364,23134,1,8,0:0:0:0:
44,332,23283,1,0,0:0:0:0:
124,364,23432,2,0,L|124:204,1,160,0|8,3:2|0:0,0:0:0:0:
304,24,24027,6,0,L|304:184,1,160,2|10,3:2|0:0,0:0:0:0:
304,272,24474,1,0,0:0:0:0:
376,320,24623,2,0,P|412:332|452:320,2,80,2|0|10,3:2|0:0|0:0,0:0:0:0:
304,272,25070,2,0,P|224:244|156:272,1,160,2|2,3:2|0:0,0:0:0:0:
84,320,25516,1,8,0:0:0:0:
256,128,25814,1,2,3:2:0:0:
428,320,26112,1,8,0:0:0:0:
352,60,26410,6,0,B|312:20|312:20|256:52|256:52|200:20|200:20|160:60,1,240,2|0,3:2|0:0,0:0:0:0:
164,148,27010,2,0,B|204:188|204:188|260:156|260:156|316:188|316:188|356:148,1,240,2|0,3:2|0:0,0:0:0:0:
448,216,27610,6,0,L|476:252,4,40,10|8|8|8|8,0:0|0:0|0:0|0:0|0:0,0:0:0:0:
64,216,28210,2,0,L|36:252,4,40,8|8|8|8|8,0:0|0:0|0:0|0:0|0:0,0:0:0:0:
432,324,28810,6,0,B|380:348|340:332|340:332|284:312|256:376|256:376|228:312|172:332|172:332|132:348|80:324,1,404.799986411133,4|2,0:0|0:0,0:0:0:0:
196,204,30910,2,0,P|256:184|316:204,1,128.79999567627,2|2,0:0|0:0,0:0:0:0:
256,192,31960,12,0,34810,0:0:0:0:
